osu file format v5

[General]
AudioFilename: Iglu and Hartly - Build.mp3
AudioLeadIn: 0
PreviewTime: -1
Countdown: 1
SampleSet: Normal
StackLeniency: 0.7
Mode: 0
LetterboxInBreaks: 1
EditorBookmarks: 26424,43924,50424,58174,74424,82424,88424,90424,102424,110424,122424
EditorDistanceSpacing: 1

[Metadata]
Title:Build
Artist:Iglu & Hartly
Creator:Symbolic
Version:Normal
Source:
Tags:

[Difficulty]
HPDrainRate:5
CircleSize:4
OverallDifficulty:4
SliderMultiplier:1.5
SliderTickRate:2

[Events]
//Background and Video events
0,0,"background.jpg"
//Break Periods
2,43874,49104
2,82374,87104
//Storyboard Layer 0 (Background)
//Storyboard Layer 1 (Failing)
//Storyboard Layer 2 (Passing)
//Storyboard Layer 3 (Foreground)
//Storyboard Sound Samples
//Background Colour Transformations
3,100,163,162,255

[TimingPoints]
11424,500,4,1,0,70,1,0
91924,-100,4,2,0,100,0,0
92924,-100,4,1,0,70,0,0
100174,-100,4,2,0,70,0,0
100924,-100,4,1,0,70,0,0

[Colours]
Combo1 : 255,249,166
Combo2 : 99,103,106
Combo3 : 253,201,91
Combo4 : 165,138,108

[HitObjects]
176,88,26424,1,0
336,88,26924,1,0
256,264,27424,2,0,B|224:288|184:264,1,75
184,192,27924,5,8
184,119,28174,2,4,B|224:96|256:120,1,75,4|4
344,192,28799,2,8,B|272:192,1,37.5,0|8
304,264,29174,2,0,B|168:264,2,112.5,0|0|8
304,336,30174,5,0
232,336,30424,1,0
80,336,30924,2,0,B|80:160|40:112|144:-24|160:176,1,375,0|0
160,232,32424,5,4
312,232,32924,1,8
464,232,33424,2,0,B|464:128,2,75,0|0|8
312,232,34424,6,0,B|264:160|328:56,2,150,0|8|0
160,232,35924,5,12
160,232,36174,1,0
160,232,36424,1,4
160,80,36924,1,4
312,80,37424,1,8
312,232,37924,5,0
464,232,38424,1,0
464,80,38924,1,8
392,80,39174,2,0,B|312:56|264:160|261:263,1,225,8|8
263,229,40424,5,0
128,304,40924,1,8
128,304,41174,1,4
264,248,41674,1,0
128,176,42174,1,8
128,104,42424,6,0,B|272:32,2,150,0|8|0
56,104,43674,1,0
40,40,50424,5,0
40,192,50924,1,0
40,344,51424,1,0
112,344,51674,1,0
280,192,52424,6,0,B|280:152,6,37.5,4|0|0|4|8|0|4
432,192,53674,5,4
432,192,53924,1,8
432,192,54174,1,4
432,192,54424,5,0
432,40,54924,2,0,B|344:40,1,75,0|2
128,40,55924,1,0
128,112,56174,6,0,B|128:150,2,37.5,0|0|8
280,112,56924,5,4
280,112,57174,1,8
432,111,57674,6,0,B|432:149,2,37.5,0|0|8
280,112,58424,5,0
128,112,58924,1,8
128,264,59424,2,0,B|40:264,2,75,0|0|8
280,264,60424,5,0
432,264,60924,1,2
432,112,61424,1,0
432,184,61674,2,0,B|496:184,2,37.5,0|0|2
288,184,62424,5,0
216,184,62674,1,0
144,184,62924,1,8
72,184,63174,1,2
72,112,63424,1,2
224,112,63924,5,8
376,112,64424,1,0
376,112,64674,1,0
376,112,64924,1,8
376,264,65424,5,0
224,264,65924,1,8
224,112,66424,1,0
224,112,66674,1,0
224,112,66924,1,8
376,112,67424,1,0
376,112,67674,1,0
376,112,67924,1,8
376,264,68424,5,0
224,264,68924,1,2
72,264,69424,2,0,B|72:168,1,75
72,112,69924,1,2
224,112,70424,2,0,B|304:112,1,75
376,112,70924,1,2
376,264,71424,5,0
224,264,71924,1,10
72,264,72424,1,0
120,320,72674,1,0
192,336,72924,1,10
344,336,73424,1,0
416,320,73674,1,0
464,264,73924,1,10
464,112,74424,6,2,B|448:56|336:32,1,150
192,32,75424,2,0,B|192:144,2,75,0|0|2
40,32,76424,2,0,B|40:120,1,75,2|0
40,184,76924,1,2
40,256,77174,2,0,B|144:256,1,75,0|2
192,256,77674,2,0,B|288:256,1,75,0|2
416,256,78424,5,0
416,104,78924,1,10
416,104,79424,1,0
344,104,79674,1,0
272,104,79924,1,10
272,256,80424,5,10
120,256,80924,1,10
120,256,81424,1,0
120,184,81674,1,10
192,184,81924,1,10
192,256,82174,1,4
256,192,88424,12,4,90424
256,40,90924,5,8
256,192,91424,2,0,B|344:192,1,75
408,192,91924,5,8
408,40,92424,2,0,B|328:40,1,75
256,40,92924,5,8
184,40,93174,1,4
112,40,93424,2,8,B|24:40,2,75
112,112,94174,5,0
112,184,94424,6,0,B|112:336,1,150,0|8
112,334,95174,2,0,B|264:336|342:242,1,225,0|8
320,192,96174,1,0
320,40,96674,5,4
392,40,96924,1,12
392,192,97424,5,2
392,192,97674,1,2
392,192,97924,1,2
392,192,98174,1,2
464,192,98424,6,0,B|464:352,2,150,0|8|0
240,192,100174,6,0,B|152:192,1,75
16,192,100924,5,8
16,344,101424,1,0
168,344,101924,1,8
168,192,102424,6,0,B|168:96|392:48,1,262.5
370,52,103424,2,0,B|370:143|208:200,1,225
216,272,104424,6,2,B|304:288|385:268,3,150
232,336,106424,5,0
392,336,106924,1,8
312,160,107424,2,0,B|280:136|240:160,1,75
240,232,107924,5,8
240,305,108174,6,4,B|280:328|312:304,1,75,4|4
400,232,108799,2,8,B|328:232,1,37.5,0|8
360,160,109174,6,0,B|224:160,2,112.5,0|0|8
360,88,110174,5,0
288,88,110424,1,0
136,88,110924,2,0,B|136:264|176:312|72:448|56:248,1,375,0|0
56,112,112674,5,2
56,40,112924,2,2,B|224:40,1,150
280,40,113674,1,2
352,40,113924,1,2
352,112,114174,1,2
280,112,114424,5,0
280,264,114924,1,8
352,264,115174,1,0
480,192,115674,2,0,B|392:192,1,75,0|8
328,192,116174,6,0,B|240:192,1,75
104,192,116924,2,0,B|24:192,1,75,8|0
29,344,117674,2,0,B|104:344,1,75,0|8
256,344,118424,5,0
408,344,118924,2,0,B|408:256,2,75
256,344,119924,5,0
256,272,120174,1,0
256,200,120424,2,2,B|424:200,2,150
184,200,121674,1,2
112,200,121924,1,2
40,200,122174,1,2
40,200,122424,1,4
