osu file format v12

[General]
AudioFilename: Idoling - Sense of Wonder.mp3
AudioLeadIn: 0
PreviewTime: -1
Countdown: 2
SampleSet: None
StackLeniency: 1
Mode: 3
LetterboxInBreaks: 1
SpecialStyle: 0
WidescreenStoryboard: 1

[Editor]
DistanceSpacing: 0.9
BeatDivisor: 8
GridSize: 32

[Metadata]
Title:Sense Of Wonder [TV Size]
TitleUnicode:Sense Of Wonder [TV Size]
Artist:Idoling
ArtistUnicode:Idoling
Creator:AngelFlaw
Version:Wonder
Source:Fairy Tail
Tags:Fairy Tail Op , Idoling , anime , Japanese
BeatmapID:324742
BeatmapSetID:128141

[Difficulty]
HPDrainRate:8
CircleSize:4
OverallDifficulty:5
ApproachRate:5
SliderMultiplier:2
SliderTickRate:1

[Events]
//Background and Video events
0,0,"fairy tail (03).jpg",0,0
//Break Periods
//Storyboard Layer 0 (Background)
//Storyboard Layer 1 (Fail)
//Storyboard Layer 2 (Pass)
//Storyboard Layer 3 (Foreground)
//Storyboard Sound Samples
//Background Colour Transformations
3,100,163,162,255

[TimingPoints]
0,705.882352941176,4,1,0,100,1,0

[Colours]
Combo1 : 18,124,255
Combo2 : 0,202,0

[HitObjects]
64,192,1323,1,0,0:0:0:0:
448,192,1499,1,0,0:0:0:0:
320,192,1499,1,0,0:0:0:0:
320,192,1852,128,0,2205:0:0:0:0:
192,192,1852,128,0,2205:0:0:0:0:
64,192,2382,1,0,0:0:0:0:
448,192,2558,1,0,0:0:0:0:
320,192,2823,1,0,0:0:0:0:
448,192,3264,128,0,3617:0:0:0:0:
64,192,3264,128,0,3617:0:0:0:0:
320,192,3970,128,0,4323:0:0:0:0:
64,192,3970,128,0,4323:0:0:0:0:
192,192,4676,128,0,5029:0:0:0:0:
64,192,4676,128,0,5029:0:0:0:0:
448,192,5381,1,0,0:0:0:0:
320,192,5735,1,0,0:0:0:0:
64,192,5911,1,0,0:0:0:0:
192,192,6088,128,0,6441:0:0:0:0:
320,192,6088,128,0,6441:0:0:0:0:
320,192,6705,1,0,0:0:0:0:
448,192,6794,1,0,0:0:0:0:
192,192,6970,1,0,0:0:0:0:
64,192,7147,1,0,0:0:0:0:
320,192,7323,1,0,0:0:0:0:
192,192,7411,1,0,0:0:0:0:
64,192,7499,1,0,0:0:0:0:
448,192,7852,1,0,0:0:0:0:
320,192,7852,1,0,0:0:0:0:
64,192,8205,1,0,0:0:0:0:
192,192,8382,1,0,0:0:0:0:
320,192,8558,1,0,0:0:0:0:
448,192,8558,1,0,0:0:0:0:
64,192,8911,1,0,0:0:0:0:
192,192,9088,1,0,0:0:0:0:
448,192,9264,1,0,0:0:0:0:
320,192,9264,1,0,0:0:0:0:
192,192,9441,1,0,0:0:0:0:
64,192,9794,1,0,0:0:0:0:
448,192,9970,1,0,0:0:0:0:
320,192,9970,1,0,0:0:0:0:
192,192,10147,1,0,0:0:0:0:
64,192,10323,1,0,0:0:0:0:
448,192,10676,1,0,0:0:0:0:
320,192,10676,1,0,0:0:0:0:
64,192,11029,1,0,0:0:0:0:
192,192,11205,1,0,0:0:0:0:
448,192,11382,1,0,0:0:0:0:
320,192,11382,1,0,0:0:0:0:
192,192,11558,1,0,0:0:0:0:
64,192,11735,1,0,0:0:0:0:
320,192,11911,1,0,0:0:0:0:
448,192,11999,1,0,0:0:0:0:
320,192,12088,1,0,0:0:0:0:
192,192,12176,1,0,0:0:0:0:
64,192,12264,1,0,0:0:0:0:
448,192,12617,1,0,0:0:0:0:
320,192,12794,1,0,0:0:0:0:
192,192,12882,1,0,0:0:0:0:
64,192,12970,1,0,0:0:0:0:
448,192,13147,1,0,0:0:0:0:
320,192,13147,1,0,0:0:0:0:
448,192,13499,1,0,0:0:0:0:
320,192,13499,1,0,0:0:0:0:
320,192,13852,1,0,0:0:0:0:
64,192,13852,1,0,0:0:0:0:
448,192,14029,1,0,0:0:0:0:
320,192,14205,1,0,0:0:0:0:
192,192,14205,1,0,0:0:0:0:
64,192,14382,1,0,0:0:0:0:
448,192,14558,1,0,0:0:0:0:
320,192,14558,1,0,0:0:0:0:
448,192,14911,1,0,0:0:0:0:
192,192,14911,1,0,0:0:0:0:
320,192,15264,1,0,0:0:0:0:
192,192,15264,1,0,0:0:0:0:
64,192,15441,1,0,0:0:0:0:
448,192,15617,1,0,0:0:0:0:
320,192,15617,1,0,0:0:0:0:
64,192,15794,1,0,0:0:0:0:
320,192,15970,1,0,0:0:0:0:
192,192,15970,1,0,0:0:0:0:
448,192,16323,1,0,0:0:0:0:
64,192,16323,1,0,0:0:0:0:
448,192,16676,1,0,0:0:0:0:
192,192,16676,1,0,0:0:0:0:
64,192,16852,1,0,0:0:0:0:
448,192,17029,1,0,0:0:0:0:
320,192,17029,1,0,0:0:0:0:
64,192,17205,1,0,0:0:0:0:
448,192,17382,1,0,0:0:0:0:
192,192,17382,1,0,0:0:0:0:
64,192,17735,1,0,0:0:0:0:
192,192,17735,1,0,0:0:0:0:
448,192,18088,1,0,0:0:0:0:
320,192,18088,1,0,0:0:0:0:
64,192,18264,1,0,0:0:0:0:
448,192,18440,1,0,0:0:0:0:
192,192,18441,1,0,0:0:0:0:
64,192,18617,1,0,0:0:0:0:
192,192,18794,1,0,0:0:0:0:
448,192,19146,1,0,0:0:0:0:
320,192,19147,1,0,0:0:0:0:
64,192,19499,1,0,0:0:0:0:
192,192,19676,1,0,0:0:0:0:
448,192,19852,1,0,0:0:0:0:
320,192,19852,1,0,0:0:0:0:
64,192,20205,1,0,0:0:0:0:
192,192,20382,1,0,0:0:0:0:
448,192,20558,1,0,0:0:0:0:
320,192,20558,1,0,0:0:0:0:
192,192,20735,1,0,0:0:0:0:
64,192,21088,1,0,0:0:0:0:
448,192,21264,1,0,0:0:0:0:
320,192,21264,1,0,0:0:0:0:
320,192,21617,1,0,0:0:0:0:
192,192,21617,1,0,0:0:0:0:
192,192,21970,1,0,0:0:0:0:
64,192,21970,1,0,0:0:0:0:
320,192,22147,1,0,0:0:0:0:
448,192,22323,1,0,0:0:0:0:
320,192,22499,1,0,0:0:0:0:
192,192,22676,1,0,0:0:0:0:
64,192,22852,1,0,0:0:0:0:
192,192,23029,1,0,0:0:0:0:
320,192,23029,1,0,0:0:0:0:
64,192,23205,1,0,0:0:0:0:
448,192,23381,1,0,0:0:0:0:
320,192,23382,1,0,0:0:0:0:
64,192,23735,1,0,0:0:0:0:
320,192,23911,1,0,0:0:0:0:
448,192,24087,1,0,0:0:0:0:
192,192,24264,1,0,0:0:0:0:
64,192,24441,1,0,0:0:0:0:
448,192,24793,1,0,0:0:0:0:
320,192,24794,1,0,0:0:0:0:
64,192,24970,1,0,0:0:0:0:
64,192,25323,1,0,0:0:0:0:
448,192,25499,1,0,0:0:0:0:
320,192,25499,1,0,0:0:0:0:
64,192,26029,1,0,0:0:0:0:
448,192,26205,1,0,0:0:0:0:
320,192,26205,1,0,0:0:0:0:
64,192,26735,1,0,0:0:0:0:
448,192,26911,1,0,0:0:0:0:
320,192,26911,1,0,0:0:0:0:
192,192,27088,1,0,0:0:0:0:
64,192,27264,1,0,0:0:0:0:
448,192,27617,1,0,0:0:0:0:
320,192,27617,1,0,0:0:0:0:
192,192,27794,1,0,0:0:0:0:
64,192,28147,1,0,0:0:0:0:
448,192,28322,1,0,0:0:0:0:
320,192,28323,1,0,0:0:0:0:
64,192,28852,1,0,0:0:0:0:
448,192,29028,1,0,0:0:0:0:
320,192,29029,1,0,0:0:0:0:
64,192,29558,1,0,0:0:0:0:
448,192,29734,1,0,0:0:0:0:
320,192,29735,1,0,0:0:0:0:
192,192,29911,1,0,0:0:0:0:
64,192,30088,1,0,0:0:0:0:
448,192,30440,1,0,0:0:0:0:
320,192,30441,1,0,0:0:0:0:
192,192,30617,1,0,0:0:0:0:
64,192,30970,1,0,0:0:0:0:
448,192,31146,1,0,0:0:0:0:
320,192,31147,1,0,0:0:0:0:
64,192,31676,1,0,0:0:0:0:
448,192,31852,1,0,0:0:0:0:
320,192,31852,1,0,0:0:0:0:
64,192,32382,1,0,0:0:0:0:
448,192,32558,1,0,0:0:0:0:
320,192,32558,1,0,0:0:0:0:
192,192,32735,1,0,0:0:0:0:
64,192,32911,1,0,0:0:0:0:
448,192,33263,1,0,0:0:0:0:
320,192,33264,1,0,0:0:0:0:
192,192,33441,1,0,0:0:0:0:
64,192,33794,1,0,0:0:0:0:
448,192,33969,1,0,0:0:0:0:
320,192,33970,1,0,0:0:0:0:
64,192,34499,1,0,0:0:0:0:
448,192,34675,1,0,0:0:0:0:
320,192,34676,1,0,0:0:0:0:
64,192,35205,1,0,0:0:0:0:
448,192,35381,1,0,0:0:0:0:
320,192,35382,1,0,0:0:0:0:
192,192,35558,1,0,0:0:0:0:
64,192,35735,1,0,0:0:0:0:
448,192,36087,1,0,0:0:0:0:
320,192,36088,1,0,0:0:0:0:
192,192,36264,1,0,0:0:0:0:
64,192,36617,1,0,0:0:0:0:
448,192,36793,1,0,0:0:0:0:
320,192,36794,1,0,0:0:0:0:
64,192,37323,1,0,0:0:0:0:
448,192,37499,1,0,0:0:0:0:
320,192,37499,1,0,0:0:0:0:
64,192,38029,1,0,0:0:0:0:
448,192,38204,1,0,0:0:0:0:
320,192,38205,1,0,0:0:0:0:
192,192,38382,1,0,0:0:0:0:
64,192,38558,1,0,0:0:0:0:
448,192,38910,1,0,0:0:0:0:
320,192,38911,1,0,0:0:0:0:
192,192,39088,1,0,0:0:0:0:
64,192,39441,1,0,0:0:0:0:
448,192,39616,1,0,0:0:0:0:
320,192,39617,1,0,0:0:0:0:
64,192,39970,1,0,0:0:0:0:
192,192,39970,1,0,0:0:0:0:
448,192,40322,1,0,0:0:0:0:
320,192,40323,1,0,0:0:0:0:
64,192,40499,1,0,0:0:0:0:
448,192,40675,1,0,0:0:0:0:
320,192,40676,1,0,0:0:0:0:
64,192,40852,1,0,0:0:0:0:
192,192,40941,1,0,0:0:0:0:
320,192,41029,1,0,0:0:0:0:
448,192,41117,1,0,0:0:0:0:
64,192,41205,1,0,0:0:0:0:
192,192,41382,1,0,0:0:0:0:
320,192,41382,1,0,0:0:0:0:
448,192,41734,1,0,0:0:0:0:
320,192,41735,1,0,0:0:0:0:
192,192,41911,1,0,0:0:0:0:
64,192,41911,1,0,0:0:0:0:
64,192,42264,1,0,0:0:0:0:
448,192,42441,1,0,0:0:0:0:
320,192,42441,1,0,0:0:0:0:
192,192,42617,1,0,0:0:0:0:
64,192,42970,1,0,0:0:0:0:
448,192,43146,1,0,0:0:0:0:
320,192,43147,1,0,0:0:0:0:
192,192,43323,1,0,0:0:0:0:
448,192,43499,1,0,0:0:0:0:
320,192,43499,1,0,0:0:0:0:
64,192,43676,1,0,0:0:0:0:
320,192,43852,1,0,0:0:0:0:
192,192,43941,1,0,0:0:0:0:
64,192,44029,1,0,0:0:0:0:
192,192,44205,1,0,0:0:0:0:
320,192,44205,1,0,0:0:0:0:
448,192,44558,1,0,0:0:0:0:
320,192,44558,1,0,0:0:0:0:
64,192,44735,1,0,0:0:0:0:
64,192,45088,1,0,0:0:0:0:
448,192,45264,1,0,0:0:0:0:
320,192,45264,1,0,0:0:0:0:
192,192,45441,1,0,0:0:0:0:
64,192,45794,1,0,0:0:0:0:
448,192,45970,1,0,0:0:0:0:
320,192,45970,1,0,0:0:0:0:
192,192,46147,1,0,0:0:0:0:
448,192,46323,1,0,0:0:0:0:
320,192,46323,1,0,0:0:0:0:
64,192,46499,1,0,0:0:0:0:
192,192,46588,1,0,0:0:0:0:
320,192,46676,1,0,0:0:0:0:
448,192,46764,1,0,0:0:0:0:
320,192,46852,1,0,0:0:0:0:
192,192,46941,1,0,0:0:0:0:
64,192,47029,1,0,0:0:0:0:
448,192,47382,1,0,0:0:0:0:
320,192,47382,1,0,0:0:0:0:
64,192,47735,1,0,0:0:0:0:
192,192,47911,1,0,0:0:0:0:
448,192,48087,1,0,0:0:0:0:
320,192,48088,1,0,0:0:0:0:
64,192,48441,1,0,0:0:0:0:
192,192,48617,1,0,0:0:0:0:
448,192,48793,1,0,0:0:0:0:
320,192,48794,1,0,0:0:0:0:
192,192,48970,1,0,0:0:0:0:
64,192,49323,1,0,0:0:0:0:
448,192,49499,1,0,0:0:0:0:
320,192,49499,1,0,0:0:0:0:
64,192,49852,1,0,0:0:0:0:
448,192,50205,1,0,0:0:0:0:
320,192,50205,1,0,0:0:0:0:
64,192,50558,1,0,0:0:0:0:
192,192,50735,1,0,0:0:0:0:
448,192,50911,1,0,0:0:0:0:
320,192,50911,1,0,0:0:0:0:
64,192,51264,1,0,0:0:0:0:
192,192,51441,1,0,0:0:0:0:
448,192,51617,1,0,0:0:0:0:
320,192,51617,1,0,0:0:0:0:
192,192,51794,1,0,0:0:0:0:
448,192,51970,1,0,0:0:0:0:
320,192,51970,1,0,0:0:0:0:
192,192,52147,1,0,0:0:0:0:
320,192,52235,1,0,0:0:0:0:
448,192,52323,1,0,0:0:0:0:
64,192,52499,1,0,0:0:0:0:
448,192,52676,1,0,0:0:0:0:
192,192,52676,1,0,0:0:0:0:
448,192,53028,1,0,0:0:0:0:
320,192,53029,1,0,0:0:0:0:
64,192,53205,1,0,0:0:0:0:
192,192,53205,1,0,0:0:0:0:
64,192,53558,1,0,0:0:0:0:
448,192,53734,1,0,0:0:0:0:
320,192,53735,1,0,0:0:0:0:
64,192,53911,1,0,0:0:0:0:
192,192,53911,1,0,0:0:0:0:
64,192,54264,1,0,0:0:0:0:
448,192,54440,1,0,0:0:0:0:
320,192,54441,1,0,0:0:0:0:
192,192,54617,1,0,0:0:0:0:
448,192,54793,1,0,0:0:0:0:
320,192,54794,1,0,0:0:0:0:
64,192,54970,1,0,0:0:0:0:
320,192,55147,1,0,0:0:0:0:
448,192,55235,1,0,0:0:0:0:
192,192,55499,1,0,0:0:0:0:
64,192,55499,1,0,0:0:0:0:
448,192,55852,1,0,0:0:0:0:
320,192,55852,1,0,0:0:0:0:
192,192,56029,1,0,0:0:0:0:
64,192,56205,1,0,0:0:0:0:
192,192,56382,1,0,0:0:0:0:
320,192,56558,1,0,0:0:0:0:
448,192,56735,1,0,0:0:0:0:
320,192,56911,1,0,0:0:0:0:
192,192,57088,1,0,0:0:0:0:
64,192,57264,1,0,0:0:0:0:
192,192,57441,1,0,0:0:0:0:
320,192,57617,1,0,0:0:0:0:
448,192,57794,1,0,0:0:0:0:
320,192,57970,1,0,0:0:0:0:
192,192,58147,1,0,0:0:0:0:
64,192,58323,1,0,0:0:0:0:
448,192,58323,1,0,0:0:0:0:
64,192,58588,1,0,0:0:0:0:
448,192,58675,1,0,0:0:0:0:
320,192,58676,1,0,0:0:0:0:
448,192,59028,1,0,0:0:0:0:
320,192,59205,1,0,0:0:0:0:
192,192,59294,1,0,0:0:0:0:
64,192,59382,1,0,0:0:0:0:
448,192,59558,1,0,0:0:0:0:
320,192,59558,1,0,0:0:0:0:
192,192,59911,1,0,0:0:0:0:
320,192,59911,1,0,0:0:0:0:
64,192,60088,1,0,0:0:0:0:
448,192,60088,1,0,0:0:0:0:
320,192,60352,1,0,0:0:0:0:
448,192,60441,1,0,0:0:0:0:
64,192,60617,1,0,0:0:0:0:
192,192,60617,1,0,0:0:0:0:
320,192,60970,1,0,0:0:0:0:
192,192,61058,1,0,0:0:0:0:
64,192,61147,1,0,0:0:0:0:
448,192,61499,1,0,0:0:0:0:
320,192,61499,1,0,0:0:0:0:
64,192,61852,1,0,0:0:0:0:
192,192,62029,1,0,0:0:0:0:
448,192,62205,1,0,0:0:0:0:
320,192,62205,1,0,0:0:0:0:
64,192,62558,1,0,0:0:0:0:
192,192,62735,1,0,0:0:0:0:
448,192,62910,1,0,0:0:0:0:
320,192,62911,1,0,0:0:0:0:
192,192,63088,1,0,0:0:0:0:
64,192,63441,1,0,0:0:0:0:
448,192,63616,1,0,0:0:0:0:
320,192,63617,1,0,0:0:0:0:
64,192,63970,1,0,0:0:0:0:
448,192,64322,1,0,0:0:0:0:
320,192,64323,1,0,0:0:0:0:
64,192,64676,1,0,0:0:0:0:
192,192,64852,1,0,0:0:0:0:
448,192,65028,1,0,0:0:0:0:
320,192,65029,1,0,0:0:0:0:
192,192,65205,1,0,0:0:0:0:
64,192,65382,1,0,0:0:0:0:
192,192,65558,1,0,0:0:0:0:
448,192,65734,1,0,0:0:0:0:
320,192,65735,1,0,0:0:0:0:
192,192,65911,1,0,0:0:0:0:
64,192,66088,1,0,0:0:0:0:
320,192,66264,1,0,0:0:0:0:
448,192,66264,1,0,0:0:0:0:
320,192,66441,1,0,0:0:0:0:
448,192,66441,1,0,0:0:0:0:
192,192,66617,1,0,0:0:0:0:
64,192,66794,1,0,0:0:0:0:
448,192,67147,1,0,0:0:0:0:
320,192,67147,1,0,0:0:0:0:
64,192,67499,1,0,0:0:0:0:
192,192,67676,1,0,0:0:0:0:
448,192,67852,1,0,0:0:0:0:
320,192,67852,1,0,0:0:0:0:
64,192,68205,1,0,0:0:0:0:
192,192,68382,1,0,0:0:0:0:
448,192,68558,1,0,0:0:0:0:
320,192,68558,1,0,0:0:0:0:
192,192,68735,1,0,0:0:0:0:
64,192,69088,1,0,0:0:0:0:
448,192,69264,1,0,0:0:0:0:
320,192,69264,1,0,0:0:0:0:
64,192,69617,1,0,0:0:0:0:
448,192,69970,1,0,0:0:0:0:
320,192,69970,1,0,0:0:0:0:
64,192,70323,1,0,0:0:0:0:
192,192,70499,1,0,0:0:0:0:
448,192,70676,1,0,0:0:0:0:
320,192,70676,1,0,0:0:0:0:
192,192,70852,1,0,0:0:0:0:
64,192,71029,1,0,0:0:0:0:
320,192,71294,1,0,0:0:0:0:
448,192,71382,1,0,0:0:0:0:
64,192,71558,1,0,0:0:0:0:
448,192,71911,1,0,0:0:0:0:
320,192,71911,1,0,0:0:0:0:
320,192,72088,1,0,0:0:0:0:
192,192,72176,1,0,0:0:0:0:
64,192,72264,1,0,0:0:0:0:
192,192,72441,1,0,0:0:0:0:
64,192,72441,1,0,0:0:0:0:
448,192,72441,1,0,0:0:0:0:
192,192,72794,1,0,0:0:0:0:
320,192,72794,1,0,0:0:0:0:
64,192,73147,1,0,0:0:0:0:
448,192,73147,1,0,0:0:0:0:
320,192,73147,1,0,0:0:0:0:
64,192,73499,1,0,0:0:0:0:
320,192,73499,1,0,0:0:0:0:
448,192,73852,1,0,0:0:0:0:
192,192,73852,1,0,0:0:0:0:
64,192,73852,1,0,0:0:0:0:
64,192,74205,1,0,0:0:0:0:
448,192,74205,1,0,0:0:0:0:
448,192,74558,1,0,0:0:0:0:
320,192,74558,1,0,0:0:0:0:
192,192,74558,1,0,0:0:0:0:
64,192,74911,1,0,0:0:0:0:
320,192,74911,1,0,0:0:0:0:
64,192,75264,1,0,0:0:0:0:
448,192,75264,1,0,0:0:0:0:
192,192,75264,1,0,0:0:0:0:
64,192,75617,1,0,0:0:0:0:
192,192,75617,1,0,0:0:0:0:
448,192,75970,1,0,0:0:0:0:
320,192,75970,1,0,0:0:0:0:
192,192,75970,1,0,0:0:0:0:
64,192,76323,1,0,0:0:0:0:
320,192,76323,1,0,0:0:0:0:
64,192,76676,1,0,0:0:0:0:
448,192,76676,1,0,0:0:0:0:
192,192,76676,1,0,0:0:0:0:
320,192,77029,1,0,0:0:0:0:
448,192,77029,1,0,0:0:0:0:
192,192,77382,1,0,0:0:0:0:
320,192,77382,1,0,0:0:0:0:
64,192,77382,1,0,0:0:0:0:
448,192,77558,1,0,0:0:0:0:
320,192,77647,1,0,0:0:0:0:
192,192,77735,1,0,0:0:0:0:
64,192,77823,1,0,0:0:0:0:
192,192,77911,1,0,0:0:0:0:
320,192,77999,1,0,0:0:0:0:
448,192,78088,1,0,0:0:0:0:
448,192,78440,1,0,0:0:0:0:
320,192,78441,1,0,0:0:0:0:
64,192,78794,1,0,0:0:0:0:
192,192,78970,1,0,0:0:0:0:
448,192,79146,1,0,0:0:0:0:
320,192,79147,1,0,0:0:0:0:
64,192,79499,1,0,0:0:0:0:
192,192,79676,1,0,0:0:0:0:
448,192,79852,1,0,0:0:0:0:
320,192,79852,1,0,0:0:0:0:
192,192,80029,1,0,0:0:0:0:
64,192,80382,1,0,0:0:0:0:
448,192,80558,1,0,0:0:0:0:
320,192,80558,1,0,0:0:0:0:
64,192,80911,1,0,0:0:0:0:
192,192,80911,1,0,0:0:0:0:
448,192,81264,1,0,0:0:0:0:
320,192,81264,1,0,0:0:0:0:
192,192,81441,1,0,0:0:0:0:
320,192,81617,1,0,0:0:0:0:
448,192,81617,1,0,0:0:0:0:
320,192,81794,1,0,0:0:0:0:
64,192,81970,1,0,0:0:0:0:
192,192,81970,1,0,0:0:0:0:
448,192,82147,1,0,0:0:0:0:
192,192,82323,1,0,0:0:0:0:
320,192,82323,1,0,0:0:0:0:
64,192,82499,1,0,0:0:0:0:
448,192,82675,1,0,0:0:0:0:
320,192,82676,1,0,0:0:0:0:
64,192,83029,1,0,0:0:0:0:
320,192,83205,1,0,0:0:0:0:
448,192,83381,1,0,0:0:0:0:
320,192,83735,1,0,0:0:0:0:
64,192,83911,1,0,0:0:0:0:
192,192,84088,1,0,0:0:0:0:
448,192,84264,1,0,0:0:0:0:
64,192,84264,1,0,0:0:0:0:
320,192,84794,1,0,0:0:0:0:
64,192,84970,1,0,0:0:0:0:
192,192,85147,1,0,0:0:0:0:
320,192,85323,1,0,0:0:0:0:
448,192,85323,1,0,0:0:0:0:
64,192,85676,1,0,0:0:0:0:
320,192,85852,1,0,0:0:0:0:
192,192,85852,1,0,0:0:0:0:
448,192,86029,1,0,0:0:0:0:
320,192,86029,1,0,0:0:0:0:
192,192,86382,128,0,87088:0:0:0:0:
64,192,86382,128,0,87088:0:0:0:0:
448,192,87264,1,0,0:0:0:0:
320,192,87264,1,0,0:0:0:0:
192,192,87529,1,0,0:0:0:0:
64,192,87794,1,0,0:0:0:0:
320,192,87970,128,0,88852:0:0:0:0:
192,192,87970,128,0,88852:0:0:0:0:
