osu file format v14

[General]
AudioFilename: Hire - Bam Bam Pop.mp3
AudioLeadIn: 0
PreviewTime: 50236
Countdown: 0
SampleSet: None
StackLeniency: 0.2
Mode: 0
LetterboxInBreaks: 0
WidescreenStoryboard: 0

[Editor]
Bookmarks: 1649,15562,29475,43389,50345,64258,78171,92084,105997,119910,126867,140780,154693,168606,182519
DistanceSpacing: 1
BeatDivisor: 4
GridSize: 4
TimelineZoom: 1.3

[Metadata]
Title:Bam Bam Pop
TitleUnicode:Bam Bam Pop
Artist:Icon for Hire
ArtistUnicode:Icon for Hire
Creator:Avena
Version:Overkill
Source:
Tags:Priti Punk Pop IFH
BeatmapID:1419917
BeatmapSetID:671576

[Difficulty]
HPDrainRate:6
CircleSize:4.2
OverallDifficulty:9
ApproachRate:9.4
SliderMultiplier:2.3
SliderTickRate:1

[Events]
//Background and Video events
0,0,"icon.jpg",0,0
//Break Periods
2,120110,138501
//Storyboard Layer 0 (Background)
//Storyboard Layer 1 (Fail)
//Storyboard Layer 2 (Pass)
//Storyboard Layer 3 (Foreground)
//Storyboard Sound Samples

[TimingPoints]
1649.90592388971,434.782608695652,4,2,0,40,1,0
8606,-100,4,3,0,60,0,0
15562,-66.6666666666667,4,2,0,75,0,0
21758,-66.6666666666667,4,2,0,100,0,0
21867,-66.6666666666667,4,2,0,75,0,0
22084,-66.6666666666667,4,2,0,55,0,0
22519,-66.6666666666667,4,2,0,75,0,0
43389,-100,4,2,0,60,0,0
46323,-100,4,2,0,20,0,0
46432,-100,4,2,0,60,0,0
50345,-55.5555555555556,4,3,1,90,0,1
62519,-55.5555555555556,4,3,1,90,0,0
63389,-55.5555555555556,4,2,1,100,0,0
63533,-55.5555555555556,4,2,1,20,0,0
63678,-55.5555555555556,4,2,1,80,0,0
63823,-55.5555555555556,4,2,1,20,0,0
63968,-55.5555555555556,4,2,1,80,0,0
64113,-55.5555555555556,4,2,1,20,0,0
64258,-166.666666666667,4,3,1,90,0,0
70345,-55.5555555555556,4,3,1,90,0,0
71215,-166.666666666667,4,3,1,90,0,0
77302,-55.5555555555556,4,3,1,90,0,0
78171,-66.6666666666667,4,2,1,75,0,0
91215,-55.5555555555556,4,3,1,75,0,0
92084,-55.5555555555556,4,3,1,90,0,1
104258,-55.5555555555556,4,3,1,90,0,0
105128,-55.5555555555556,4,2,1,100,0,0
105273,-55.5555555555556,4,2,1,20,0,0
105418,-55.5555555555556,4,2,1,80,0,0
105562,-55.5555555555556,4,2,1,20,0,0
105707,-55.5555555555556,4,2,1,80,0,0
105852,-55.5555555555556,4,2,1,20,0,0
105997,-166.666666666667,4,3,1,90,0,0
112084,-55.5555555555556,4,3,1,90,0,0
112954,-166.666666666667,4,3,1,90,0,0
119041,-55.5555555555556,4,3,1,90,0,0
139041,-200,4,2,1,60,0,0
140780,-200,4,3,1,90,0,0
154693,-200,4,3,1,90,0,0
168606,-55.5555555555556,4,3,1,90,0,1
182519,-50,4,3,1,90,0,1
194693,-50,4,3,1,90,0,0
195562,-50,4,2,1,60,0,0
195707,-50,4,2,1,5,0,0
195852,-50,4,2,1,60,0,0
195997,-50,4,2,1,5,0,0
196142,-50,4,2,1,60,0,0
196287,-50,4,2,1,5,0,0

[Colours]
Combo1 : 236,138,228
Combo2 : 97,197,250
Combo3 : 247,236,157
Combo4 : 250,112,147

[HitObjects]
366,255,128,5,0,0:0:0:0:
366,255,345,2,0,L|239:248,1,115
172,164,780,2,0,B|141:225|141:225|155:354,2,172.5
266,99,1649,6,0,L|380:105,1,115,0|0,1:0|0:0,0:0:0:0:
481,248,2084,2,0,L|366:254,1,115,0|0,1:0|0:0,0:0:0:0:
252,232,2519,1,0,1:0:0:0:
149,283,2736,1,0,0:0:0:0:
44,233,2954,2,0,L|50:118,1,115,0|0,1:0|0:0,0:0:0:0:
148,53,3389,6,0,L|154:167,1,115,0|0,1:0|0:0,0:0:0:0:
149,283,3823,1,0,1:0:0:0:
252,231,4041,1,0,0:0:0:0:
342,301,4258,2,0,P|414:322|458:311,1,115,0|0,1:0|0:0,0:0:0:0:
472,135,4693,2,0,P|399:113|355:124,1,115,0|0,1:0|0:0,0:0:0:0:
234,208,5128,6,0,L|407:218,2,172.5,0|0|0,1:0|3:0|3:0,0:0:0:0:
131,157,5997,2,0,P|74:167|23:193,1,115,0|0,1:0|0:0,0:0:0:0:
316,90,6432,2,0,P|261:70|204:68,1,115,0|0,1:0|0:0,0:0:0:0:
509,125,6867,6,0,P|471:81|423:50,1,115,0|0,1:3|0:3,0:3:0:0:
316,90,7302,1,0,1:0:0:0:
360,195,7519,1,0,0:0:0:0:
274,271,7736,2,0,L|281:338,2,57.5,8|0|0,1:3|0:0|0:0,0:0:0:0:
196,231,8062,2,0,L|203:164,2,57.5,8|0|0,3:0|0:0|0:0,0:0:0:0:
128,286,8389,2,0,P|88:298|64:321,1,57.5,2|0,3:0|0:0,0:0:0:0:
21,118,8606,5,0,1:0:0:0:
37,132,8714,1,0,0:0:0:0:
55,144,8823,1,0,0:0:0:0:
74,153,8932,1,0,0:0:0:0:
95,159,9041,1,0,1:0:0:0:
116,162,9149,1,0,0:0:0:0:
138,162,9258,1,2,0:2:0:0:
159,159,9366,1,0,0:0:0:0:
180,153,9476,6,0,P|209:145|256:142,1,57.5,0|0,1:0|0:0,0:0:0:0:
321,158,9693,2,0,P|348:170|386:198,1,57.5,2|0,0:2|0:0,0:0:0:0:
425,287,9910,6,0,P|396:278|349:275,1,57.5,0|0,1:0|0:0,0:0:0:0:
284,291,10127,2,0,P|256:303|218:331,1,57.5,2|0,0:2|0:0,0:0:0:0:
81,363,10345,5,0,1:0:0:0:
111,332,10453,1,0,0:0:0:0:
133,295,10562,1,0,0:0:0:0:
145,254,10671,1,0,0:0:0:0:
147,211,10779,1,0,1:0:0:0:
138,169,10888,1,0,0:0:0:0:
120,130,10997,1,0,0:0:0:0:
92,97,11105,1,0,0:0:0:0:
57,71,11215,6,0,L|46:156,1,57.5,0|0,1:0|0:0,0:0:0:0:
13,212,11432,2,0,L|23:297,1,57.5,2|0,0:2|0:0,0:0:0:0:
138,169,11649,6,0,L|168:249,1,57.5,0|0,1:0|0:0,0:0:0:0:
165,314,11866,2,0,L|214:384,1,57.5,2|0,0:2|0:0,0:0:0:0:
448,262,12084,5,0,1:0:0:0:
406,300,12192,1,0,0:0:0:0:
351,316,12301,1,0,0:0:0:0:
295,306,12410,1,0,0:0:0:0:
250,271,12518,1,0,1:0:0:0:
226,220,12627,1,0,0:0:0:0:
227,163,12736,1,0,0:0:0:0:
254,113,12844,1,0,0:0:0:0:
267,124,12953,5,0,1:0:0:0:
340,77,13062,2,0,L|343:14,1,57.5,2|0,0:2|0:0,0:0:0:0:
344,163,13281,1,2,0:2:0:0:
417,116,13389,2,0,L|420:53,1,57.5,0|0,1:0|0:0,0:0:0:0:
421,202,13607,2,0,L|424:265,1,57.5,8|0,0:2|0:0,0:0:0:0:
482,363,13823,5,0,1:0:0:0:
424,359,13931,1,0,0:0:0:0:
367,355,14040,1,0,0:0:0:0:
309,351,14149,1,0,0:0:0:0:
252,347,14257,1,0,1:0:0:0:
195,344,14366,1,0,0:0:0:0:
137,340,14475,1,0,0:0:0:0:
80,336,14583,1,0,0:0:0:0:
92,324,14692,5,4,1:3:0:0:
92,324,15562,5,4,1:0:0:0:
132,154,15780,2,0,L|45:158,1,86.2500032901765,2|4,0:0|3:0,0:0:0:0:
69,241,15997,2,0,B|183:235|183:235|221:175,1,172.500006580353,0|4,1:0|3:0,0:0:0:0:
245,104,16323,1,0,0:0:0:0:
330,201,16432,6,0,P|368:185|413:181,1,86.2500032901765,0|2,0:0|0:0,0:0:0:0:
500,73,16649,2,0,P|457:70|417:53,1,86.2500032901765,4|2,3:0|0:0,0:0:0:0:
378,327,16867,2,0,B|437:263|437:263|409:167,1,172.500006580353,0|0,1:0|0:0,0:0:0:0:
250,190,17193,2,0,L|251:233,1,43.1250016450883,2|0,0:0|0:0,0:0:0:0:
253,276,17302,6,0,L|245:103,1,172.500006580353,0|0,1:0|0:0,0:0:0:0:
241,16,17628,1,4,3:0:0:0:
87,150,17736,2,0,L|83:63,1,86.2500032901765,0|2,1:0|0:0,0:0:0:0:
343,225,17954,2,0,L|339:138,1,86.2500032901765,0|0,1:0|0:0,0:0:0:0:
70,297,18171,6,0,P|103:305|130:323,1,43.1250016450883,2|0,0:0|0:0,0:0:0:0:
141,344,18279,1,0,0:0:0:0:
223,370,18388,1,4,3:0:0:0:
309,372,18497,1,2,0:0:0:0:
392,349,18606,2,0,P|413:304|418:258,1,86.2500032901765,0|4,1:0|3:0,0:0:0:0:
484,156,18823,2,0,P|463:110|458:64,1,86.2500032901765,4|4,3:0|3:0,0:0:0:0:
336,25,19041,6,0,B|278:86|278:86|190:82,1,172.500006580353,0|0,1:0|3:0,0:0:0:0:
94,76,19367,1,4,3:0:0:0:
187,165,19475,2,0,L|273:169,1,86.2500032901765,2|0,1:2|0:0,0:0:0:0:
90,158,19694,2,0,L|3:154,1,86.2500032901765,4|0,3:0|0:0,0:0:0:0:
198,322,19910,6,0,P|232:286|251:233,1,86.2500032901765,2|0,0:0|0:0,0:0:0:0:
273,169,20128,2,0,P|275:119|256:66,1,86.2500032901765,4|0,3:0|0:0,0:0:0:0:
70,350,20345,2,0,B|235:297|155:397|326:333,1,258.75000987053,2|0,1:2|0:0,0:0:0:0:
419,133,20780,6,0,B|355:192|355:192|259:164,1,172.500006580353,0|2,1:0|0:0,0:0:0:0:
201,59,21106,1,4,3:0:0:0:
317,0,21215,2,0,L|332:86,1,86.2500032901765,0|0,1:0|0:0,0:0:0:0:
456,348,21432,2,0,L|470:262,1,86.2500032901765,2|0,0:0|0:0,0:0:0:0:
482,183,21649,5,0,3:0:0:0:
406,212,21758,1,2,1:2:0:0:
419,133,21867,2,0,L|433:47,1,86.2500032901765,2|0,1:2|0:0,0:0:0:0:
81,190,22084,5,2,1:3:0:0:
118,265,22193,1,2,1:3:0:0:
204,270,22302,1,2,1:3:0:0:
251,198,22410,1,2,1:3:0:0:
212,120,22519,6,0,L|122:115,1,86.2500032901765,2|0,1:2|0:0,0:0:0:0:
118,265,22736,2,0,L|204:269,1,86.2500032901765,2|4,0:0|3:0,0:0:0:0:
348,260,22954,1,0,1:0:0:0:
410,196,23062,1,2,0:0:0:0:
385,111,23170,2,0,L|298:115,1,86.2500032901765,4|0,3:0|0:0,0:0:0:0:
455,56,23388,6,0,P|469:138|410:197,1,172.500006580353,0|4,1:0|3:0,0:0:0:0:
212,120,23715,1,2,0:0:0:0:
286,17,23823,2,0,L|372:21,1,86.2500032901765,0|0,1:0|0:0,0:0:0:0:
385,111,24041,1,0,0:0:0:0:
215,163,24150,2,0,L|212:119,1,43.1250016450883,2|0,0:0|0:0,0:0:0:0:
210,77,24258,6,0,L|219:249,1,172.500006580353,0|0,1:0|0:0,0:0:0:0:
20,111,24584,1,4,3:0:0:0:
11,21,24693,1,0,1:0:0:0:
37,102,24801,1,2,0:0:0:0:
37,188,24910,1,4,3:0:0:0:
11,270,25019,1,2,0:0:0:0:
95,250,25128,6,0,P|132:259|147:259,1,43.1250016450883,2|0,0:0|0:0,0:0:0:0:
176,254,25236,2,0,P|213:249|227:244,1,43.1250016450883
253,230,25345,1,4,3:0:0:0:
319,118,25454,1,0,0:0:0:0:
375,309,25562,2,0,P|415:313|471:328,1,86.2500032901765,0|4,1:0|3:0,0:0:0:0:
507,180,25780,2,0,P|465:190|422:195,1,86.2500032901765,4|4,3:0|3:0,0:0:0:0:
253,230,25997,5,0,1:0:0:0:
148,100,26106,2,0,P|234:100|319:118,1,172.500006580353,2|4,0:0|3:0,0:0:0:0:
488,8,26432,2,0,L|482:105,1,86.2500032901765,0|0,1:0|0:0,0:0:0:0:
375,309,26649,2,0,L|369:222,1,86.2500032901765,4|0,3:0|0:0,0:0:0:0:
244,16,26867,6,0,L|241:64,1,43.1250016450883,2|0,0:0|0:0,0:0:0:0:
265,94,26975,1,0,0:0:0:0:
285,177,27083,1,4,3:0:0:0:
271,261,27192,1,0,0:0:0:0:
224,333,27302,2,0,P|180:359|133:360,1,86.2500032901765,0|0,1:0|0:0,0:0:0:0:
70,71,27519,2,0,P|112:76|148:100,1,86.2500032901765,2|0,0:0|0:0,0:0:0:0:
224,333,27736,5,0,1:0:0:0:
334,260,27845,2,0,L|352:84,1,172.500006580353,2|4,0:0|3:0,0:0:0:0:
139,14,28171,2,0,L|148:99,1,86.2500032901765,0|0,1:0|0:0,0:0:0:0:
166,270,28389,2,0,L|161:227,1,43.1250016450883,4|0,3:0|0:0,0:0:0:0:
157,185,28498,1,0,0:0:0:0:
361,3,28606,6,0,L|351:88,1,86.2500032901765,0|2,1:0|0:0,0:0:0:0:
334,260,28824,2,0,L|343:174,1,86.2500032901765,4|0,3:0|0:0,0:0:0:0:
274,52,29041,5,0,1:0:0:0:
216,116,29149,1,4,3:0:0:0:
258,191,29258,1,4,3:0:0:0:
343,174,29367,1,4,3:0:0:0:
352,88,29475,6,0,L|531:78,1,172.500006580353,4|2,1:2|0:0,0:0:0:0:
458,277,29802,1,4,3:0:0:0:
421,199,29910,2,0,B|384:172|384:172|343:174,1,86.2500032901765,0|2,1:0|0:0,0:0:0:0:
317,343,30128,2,0,B|353:369|353:369|394:367,1,86.2500032901765,4|0,3:0|0:0,0:0:0:0:
458,277,30346,6,0,L|279:267,1,172.500006580353,2|4,0:0|3:0,0:0:0:0:
50,280,30671,1,2,0:0:0:0:
82,360,30780,1,0,1:0:0:0:
137,294,30888,1,2,0:0:0:0:
163,212,30997,1,4,3:0:0:0:
155,125,31106,2,2,P|147:91|138:71,1,43.1250016450883,2|2,3:3|0:0,0:1:0:0:
65,50,31215,6,0,P|137:65|230:23,1,172.500006580353,2|2,1:2|0:0,0:0:0:0:
408,167,31541,1,4,3:0:0:0:
360,238,31649,2,0,P|324:245|277:224,1,86.2500032901765,2|0,1:2|0:0,0:0:0:0:
122,155,31867,2,0,P|160:136|202:143,1,86.2500032901765,4|0,3:0|0:0,0:0:0:0:
224,344,32084,6,0,L|44:334,1,172.500006580353,2|4,0:0|3:0,0:0:0:0:
37,249,32410,1,2,0:0:0:0:
22,163,32519,1,0,1:0:0:0:
59,238,32627,1,4,3:0:0:0:
139,264,32736,1,4,3:0:0:0:
214,227,32845,2,0,P|248:220|276:222,1,43.1250016450883,4|0,3:0|0:0,0:0:0:0:
296,239,32954,5,0,1:0:0:0:
347,307,33062,2,0,P|416:311|495:221,1,172.500006580353,2|4,0:0|3:0,0:0:0:0:
406,124,33389,2,0,P|392:165|388:208,1,86.2500032901765,0|0,1:0|0:0,0:0:0:0:
224,344,33606,2,0,P|219:301|205:260,1,86.2500032901765,4|2,3:0|0:0,0:0:0:0:
52,76,33823,6,0,L|71:262,1,172.500006580353,2|4,0:0|3:0,0:0:0:0:
78,332,34149,1,0,0:0:0:0:
187,158,34258,2,0,P|204:181|219:190,1,43.1250016450883,0|0,1:0|0:0,0:0:0:0:
237,225,34367,2,0,P|264:236|281:236,1,43.1250016450883,0|0,0:0|0:0,0:0:0:0:
314,258,34475,2,0,P|343:254|358:245,1,43.1250016450883,2|0,0:0|0:0,0:0:0:0:
398,249,34584,2,0,P|421:231|430:216,1,43.1250016450883
469,142,34693,6,0,P|384:130|307:165,1,172.500006580353,0|2,1:0|0:0,0:0:0:0:
398,249,35019,1,4,3:0:0:0:
433,42,35128,2,0,L|320:31,1,86.2500032901765,0|0,1:0|0:0,0:0:0:0:
218,15,35345,2,0,L|105:26,1,86.2500032901765,4|0,3:0|0:0,0:0:0:0:
10,69,35562,5,0,1:0:0:0:
76,123,35670,1,2,3:2:0:0:
109,201,35779,1,2,3:2:0:0:
103,286,35888,1,0,0:0:0:0:
57,359,35996,5,2,1:3:0:0:
22,237,36105,1,2,1:2:0:0:
76,123,36214,1,2,1:3:0:0:
192,74,36323,1,2,1:2:0:0:
312,115,36432,6,0,B|395:138|395:138|466:73,1,172.500006580353,0|2,1:0|0:0,0:0:0:0:
370,24,36758,1,4,3:0:0:0:
192,74,36867,2,0,L|202:172,1,86.2500032901765,0|0,1:0|0:0,0:0:0:0:
385,224,37084,2,0,L|393:138,1,86.2500032901765,4|0,3:0|0:0,0:0:0:0:
188,270,37302,6,0,B|270:247|270:247|341:312,1,172.500006580353,2|0,0:0|0:0,0:0:0:0:
245,361,37628,1,0,0:0:0:0:
35,307,37736,1,0,1:0:0:0:
79,233,37844,1,0,0:0:0:0:
100,150,37953,1,2,3:0:0:0:
96,64,38063,2,2,P|120:52|153:51,1,43.1250016450883,2|2,3:3|0:0,0:1:0:0:
171,72,38171,6,0,P|237:85|324:17,1,172.500006580353,0|2,1:0|0:0,0:0:0:0:
234,11,38497,1,4,3:0:0:0:
210,169,38606,2,0,P|202:212|203:269,1,86.2500032901765,0|0,1:0|0:0,0:0:0:0:
359,354,38823,2,0,P|358:310|351:268,1,86.2500032901765,4|2,3:0|0:0,0:0:0:0:
103,361,39041,6,0,L|154:355,1,43.1250016450883
187,352,39149,2,0,L|238:346,1,43.1250016450883,2|0,0:0|0:0,0:0:0:0:
273,343,39258,2,0,L|370:355,1,86.2500032901765,4|0,3:0|0:0,0:0:0:0:
424,157,39475,1,0,1:0:0:0:
341,183,39584,1,4,3:0:0:0:
341,269,39693,1,4,3:0:0:0:
424,296,39802,1,4,3:0:0:0:
474,226,39910,6,0,P|506:132|450:73,1,172.500006580353,0|2,1:0|0:0,0:0:0:0:
379,74,40236,1,4,3:0:0:0:
337,151,40345,2,0,L|424:157,1,86.2500032901765,0|0,1:0|0:0,0:0:0:0:
474,355,40562,2,0,L|387:360,1,86.2500032901765,4|0,3:0|0:0,0:0:0:0:
197,245,40780,5,0,1:0:0:0:
283,250,40888,1,0,0:0:0:0:
369,255,40997,1,2,0:0:0:0:
455,260,41106,1,0,0:0:0:0:
372,232,41215,2,0,P|346:213|336:195,1,43.1250016450883,0|0,1:0|0:0,0:0:0:0:
315,169,41323,2,0,P|301:139|302:118,1,43.1250016450883
297,85,41432,2,0,P|308:30|332:-1,1,86.2500032901765,2|0,0:0|0:0,0:0:0:0:
384,70,41649,5,10,1:3:0:0:
315,169,41758,2,0,P|211:153|126:153,1,172.500006580353,2|4,0:0|3:0,0:0:0:0:
290,273,42084,2,0,P|366:260|384:253,1,86.2500032901765,10|0,1:3|0:0,0:0:0:0:
468,86,42302,2,0,P|426:74|383:69,1,86.2500032901765,2|0,0:0|0:0,0:0:0:0:
223,16,42519,5,10,1:3:0:0:
249,97,42627,1,0,1:0:0:0:
232,180,42736,1,0,1:0:0:0:
177,245,42845,1,2,0:0:0:0:
97,274,42954,2,0,P|66:263|46:263,7,43.1250016450883,2|2|2|2|2|2|2|2,1:2|3:2|3:2|3:2|3:2|3:2|3:2|3:2,0:0:0:0:
15,276,43389,5,4,3:0:0:0:
88,364,43606,1,0,0:0:0:0:
199,336,43823,1,8,0:0:0:0:
312,357,44041,1,4,3:0:0:0:
199,336,44258,1,0,0:0:0:0:
127,249,44475,1,0,0:0:0:0:
126,134,44693,2,0,P|134:76|166:12,1,115,8|0,0:0|0:0,0:0:0:0:
426,80,45128,6,0,P|342:103|257:110,1,172.5,4|4,3:0|3:0,0:0:0:0:
235,91,45562,2,0,P|211:143|203:200,1,115,8|4,0:0|3:0,0:0:0:0:
255,303,45997,1,0,0:0:0:0:
255,303,46106,2,0,P|326:292|375:292,1,115,2|0,3:0|0:0,0:0:0:0:
396,299,46432,1,8,3:2:0:0:
369,266,46540,1,0,3:0:0:0:
354,225,46649,1,0,3:0:0:0:
353,182,46758,1,0,3:0:0:0:
367,142,46867,6,0,L|189:135,1,172.5,4|0,3:0|0:0,0:0:0:0:
174,114,47302,2,0,L|178:233,1,115,8|4,0:0|3:0,0:0:0:0:
252,316,47736,1,0,0:0:0:0:
364,296,47954,1,0,0:0:0:0:
472,336,48171,2,0,P|496:268|492:212,1,115,8|0,0:0|0:0,0:0:0:0:
432,128,48606,6,0,P|423:98|424:77,6,28.75,0|0|0|0|0|0|0,3:0|3:0|3:0|3:0|3:0|3:0|3:0,0:0:0:0:
483,232,49041,2,0,L|359:223,1,115,8|0,0:0|0:0,0:0:0:0:
150,2,49475,5,2,3:0:0:0:
170,41,49583,1,6,3:0:0:0:
182,82,49692,1,0,3:0:0:0:
186,125,49801,1,2,3:0:0:0:
181,168,49909,1,2,3:0:0:0:
168,209,50018,1,0,3:0:0:0:
148,247,50128,1,2,3:0:0:0:
121,280,50235,1,0,3:0:0:0:
88,308,50345,6,0,B|4:246|4:246|22:140,1,206.999993682861,6|0,1:0|0:0,0:0:0:0:
440,360,50780,2,0,B|524:298|524:298|506:192,1,206.999993682861,10|0,1:0|0:0,0:0:0:0:
8,8,51215,2,0,L|28:234,1,206.999993682861,2|0,1:2|0:0,0:0:0:0:
512,4,51649,2,0,L|492:230,1,206.999993682861,10|0,1:2|0:0,0:0:0:0:
11,107,52084,5,2,1:0:0:0:
226,17,52302,1,2,0:2:0:0:
300,324,52519,2,0,P|203:317|107:368,1,206.999993682861,8|2,1:0|0:1,0:0:0:0:
115,61,52954,2,0,L|382:38,1,206.999993682861,2|0,1:0|0:0,0:0:0:0:
506,342,53389,2,0,L|239:319,1,206.999993682861,10|0,1:0|0:0,0:0:0:0:
466,21,53823,5,2,1:0:0:0:
506,342,54041,1,2,0:2:0:0:
208,216,54259,2,0,P|107:203|16:257,1,206.999993682861,10|0,1:0|0:0,0:0:0:0:
492,267,54693,1,2,1:0:0:0:
297,10,54911,1,2,0:2:0:0:
171,307,55128,2,0,P|259:357|360:344,1,206.999993682861,10|0,1:0|0:0,0:0:0:0:
466,21,55562,5,0,1:0:0:0:
466,21,55780,1,2,0:1:0:0:
506,342,55997,2,0,L|239:319,1,206.999993682861,8|2,1:0|0:1,0:0:0:0:
127,52,56432,1,2,1:0:0:0:
167,275,56649,1,2,0:2:0:0:
299,12,56867,1,10,1:0:0:0:
27,166,57084,1,0,0:0:0:0:
445,195,57302,6,0,P|436:98|381:145,1,206.999993682861,6|0,1:3|0:0,0:0:0:0:
10,337,57736,2,0,P|19:240|74:287,1,206.999993682861,12|0,1:3|0:0,0:0:0:0:
456,363,58171,1,2,1:0:0:0:
162,6,58389,1,2,0:2:0:0:
87,357,58606,2,0,L|305:346,1,206.999993682861,10|0,1:0|0:0,0:0:0:0:
396,12,59041,5,2,1:0:0:0:
375,376,59258,1,2,0:2:0:0:
90,241,59475,1,10,1:2:0:0:
454,220,59692,1,2,0:1:0:0:
196,2,59910,1,2,1:2:0:0:
208,368,60127,1,2,0:1:0:0:
454,220,60345,2,0,L|234:209,2,206.999993682861,10|0|0,1:0|0:0|1:0,0:0:0:0:
487,16,60997,5,2,0:1:0:0:
510,357,61215,2,0,L|290:368,1,206.999993682861,8|2,1:0|0:1,0:0:0:0:
4,206,61649,2,0,P|88:205|190:131,1,206.999993682861,2|0,1:0|0:0,0:0:0:0:
37,9,62084,1,10,1:0:0:0:
147,334,62302,1,0,1:0:0:0:
247,311,62410,1,0,1:0:0:0:
155,361,62519,1,14,1:3:0:0:
155,361,63388,6,0,L|146:218,1,137.999995788574,6|0,1:2|0:0,0:0:0:0:
452,194,63678,2,0,L|333:274,1,137.999995788574,2|0,3:2|0:0,0:0:0:0:
160,20,63968,2,0,L|288:83,1,137.999995788574,2|0,3:2|0:0,0:0:0:0:
155,361,64258,5,4,1:2:0:0:
47,57,64475,1,0,0:0:0:0:
12,248,64694,2,0,P|49:251|81:272,1,68.9999978942872,4|0,0:2|0:0,0:0:0:0:
349,145,65128,2,0,L|356:227,1,68.9999978942872,14|0,1:2|0:0,0:0:0:0:
367,342,65562,1,4,0:2:0:0:
447,31,65780,1,0,0:0:0:0:
185,114,65997,5,4,1:2:0:0:
500,155,66215,1,0,0:0:0:0:
120,262,66432,1,4,0:2:0:0:
351,51,66649,1,0,0:0:0:0:
198,181,66867,2,0,P|194:145|183:110,1,68.9999978942872,14|0,1:2|0:0,0:0:0:0:
447,31,67302,2,0,L|438:107,1,68.9999978942872,4|0,0:2|2:0,0:0:0:0:
417,329,67736,5,4,1:2:0:0:
351,51,67954,1,0,0:0:0:0:
218,366,68171,1,4,0:2:0:0:
51,36,68389,1,0,0:0:0:0:
14,228,68606,2,0,L|81:217,1,68.9999978942872,14|0,1:2|0:0,0:0:0:0:
250,69,69041,1,4,0:2:0:0:
218,366,69258,1,0,0:0:0:0:
51,36,69475,6,0,L|124:41,1,68.9999978942872,4|0,1:2|0:0,0:0:0:0:
368,51,69910,1,4,0:2:0:0:
67,145,70128,1,0,0:0:0:0:
252,352,70345,6,0,P|356:307|383:186,1,206.999993682861,14|0,1:2|0:0,0:0:0:0:
199,140,70672,2,0,P|219:187|257:222,2,103.499996841431,0|8|0,1:0|1:0|3:0,0:0:0:0:
426,102,70998,2,0,P|375:96|326:112,1,103.499996841431,8|4,1:0|3:0,0:0:0:0:
136,330,71214,5,4,1:2:0:0:
89,18,71432,1,0,0:0:0:0:
12,238,71649,2,0,L|92:245,1,68.9999978942872,4|0,0:2|0:0,0:0:0:0:
357,47,72084,2,0,L|277:54,1,68.9999978942872,14|0,1:2|0:0,0:0:0:0:
236,352,72519,1,4,0:2:0:0:
196,20,72736,1,0,0:0:0:0:
332,212,72954,6,0,L|400:218,1,68.9999978942872,4|0,1:2|0:0,0:0:0:0:
476,32,73389,1,4,0:2:0:0:
508,352,73606,1,0,0:0:0:0:
321,120,73823,2,0,P|280:133|235:133,1,68.9999978942872,14|0,1:2|0:0,0:0:0:0:
25,15,74258,2,0,P|59:18|91:29,1,68.9999978942872,4|0,0:2|0:0,0:0:0:0:
196,323,74693,5,4,1:2:0:0:
43,99,74910,1,0,0:0:0:0:
14,358,75128,2,0,L|96:353,1,68.9999978942872,4|0,0:2|0:0,0:0:0:0:
142,22,75562,1,14,1:2:0:0:
196,323,75780,1,0,0:0:0:0:
334,131,75997,2,0,P|303:115|270:110,1,68.9999978942872,4|4,0:2|0:0,0:0:0:0:
269,109,76323,1,4,0:0:0:0:
269,109,76432,5,4,0:2:0:0:
408,359,76649,1,0,0:0:0:0:
481,24,76867,1,4,0:2:0:0:
390,270,77084,1,0,0:0:0:0:
140,85,77302,6,0,B|243:111|243:111|311:23,1,206.999993682861,14|0,1:2|0:0,0:0:0:0:
25,38,77628,1,4,1:3:0:0:
25,38,77736,2,0,L|35:169,1,103.499996841431,8|4,1:0|3:0,0:0:0:0:
207,309,77954,2,0,L|214:205,1,103.499996841431,8|4,3:0|3:0,0:0:0:0:
411,18,78171,5,4,1:0:0:0:
387,100,78279,1,2,0:0:0:0:
397,185,78388,1,2,0:0:0:0:
439,260,78497,1,4,3:0:0:0:
507,313,78607,2,0,P|458:343|438:368,1,86.2500032901765,0|0,1:0|0:0,0:0:0:0:
214,195,78823,2,0,P|263:225|283:250,1,86.2500032901765,4|0,3:0|0:0,0:0:0:0:
473,106,79041,6,0,L|279:93,1,172.500006580353,2|4,0:0|3:0,0:0:0:0:
86,109,79367,1,2,0:0:0:0:
143,45,79475,2,0,P|169:97|154:153,1,86.2500032901765,0|0,1:0|0:0,0:0:0:0:
2,127,79694,2,0,P|11:69|57:32,1,86.2500032901765,0|2,0:0|0:0,0:0:0:0:
214,195,79910,5,0,1:0:0:0:
290,232,80018,1,2,0:0:0:0:
373,219,80127,1,2,0:0:0:0:
434,160,80236,1,4,3:0:0:0:
449,76,80346,2,0,L|276:90,1,172.500006580353,0|4,1:0|3:0,0:0:0:0:
50,3,80671,1,0,0:0:0:0:
50,3,80780,6,0,P|60:28|60:61,1,43.1250016450883,0|0,3:0|0:0,0:0:0:0:
37,89,80889,1,2,0:0:0:0:
20,169,80996,1,4,3:0:0:0:
62,242,81105,1,2,0:0:0:0:
143,264,81215,6,0,L|239:256,1,86.2500032901765,0|4,1:0|0:3,0:0:0:0:
298,147,81432,1,4,0:3:0:0:
415,201,81541,1,4,0:3:0:0:
484,91,81650,6,0,P|503:24|503:-19,1,86.2500032901765,0|2,1:0|0:0,0:0:0:0:
298,147,81867,2,0,P|279:80|279:37,1,86.2500032901765,2|4,0:0|3:0,0:0:0:0:
403,279,82084,2,0,L|231:293,1,172.500006580353,0|4,1:0|0:3,0:0:0:0:
145,301,82410,1,2,0:0:0:0:
66,146,82519,6,0,P|41:104|51:50,1,86.2500032901765,2|0,0:0|0:0,0:0:0:0:
214,16,82736,2,0,P|214:58|190:94,1,86.2500032901765,4|0,3:0|0:0,0:0:0:0:
145,301,82954,2,0,P|120:259|130:205,1,86.2500032901765,0|0,1:0|0:0,0:0:0:0:
293,171,83171,2,0,P|293:213|269:249,1,86.2500032901765,2|0,0:0|0:0,0:0:0:0:
190,94,83389,6,0,L|284:88,1,86.2500032901765,0|0,1:0|0:0,0:0:0:0:
488,56,83606,1,2,0:0:0:0:
416,100,83714,1,4,3:0:0:0:
427,185,83824,2,0,L|421:271,1,86.2500032901765,0|0,1:0|0:0,0:0:0:0:
416,100,84041,2,0,L|421:13,1,86.2500032901765,4|0,3:0|0:0,0:0:0:0:
509,213,84258,5,4,1:3:0:0:
427,185,84366,1,4,3:3:0:0:
342,191,84475,1,4,3:3:0:0:
266,230,84584,1,2,0:0:0:0:
211,296,84694,5,2,1:2:0:0:
85,333,84802,1,0,1:2:0:0:
11,226,84911,1,0,1:2:0:0:
89,123,85020,1,0,1:2:0:0:
211,165,85128,6,0,P|289:177|353:85,1,172.500006580353,4|0,1:0|0:0,0:0:0:0:
325,32,85454,1,4,3:0:0:0:
238,17,85563,2,0,P|243:59|266:96,1,86.2500032901765,0|2,1:0|0:0,0:0:0:0:
410,180,85780,2,0,P|433:144|438:102,1,86.2500032901765,4|2,3:0|0:0,0:0:0:0:
227,286,85997,6,0,B|293:228|293:228|378:262,1,172.500006580353,2|4,0:0|3:0,0:0:0:0:
307,318,86323,1,2,0:0:0:0:
133,208,86432,2,0,L|144:84,1,86.2500032901765,0|0,1:0|0:0,0:0:0:0:
325,32,86649,1,2,1:3:0:0:
325,32,86757,2,2,L|321:74,1,43.1250016450883,2|2,3:2|0:0,0:1:0:0:
346,111,86867,5,0,1:0:0:0:
369,192,86975,1,2,0:0:0:0:
345,273,87084,1,0,0:0:0:0:
279,328,87193,1,4,1:3:0:0:
195,338,87302,2,0,L|22:325,1,172.500006580353,2|4,1:2|3:0,0:0:0:0:
24,164,87628,1,2,0:0:0:0:
24,164,87736,6,0,P|54:177|78:178,1,43.1250016450883,2|0,0:0|0:0,0:0:0:0:
102,198,87845,2,0,P|134:199|157:192,1,43.1250016450883
186,202,87954,2,0,P|217:192|265:148,1,86.2500032901765,4|2,3:0|0:0,0:0:0:0:
438,10,88171,1,0,1:0:0:0:
368,60,88279,1,4,3:0:0:0:
334,137,88388,1,4,3:0:0:0:
343,222,88497,1,4,3:0:0:0:
394,291,88606,6,0,P|455:278|489:278,1,86.2500032901765,2|2,1:3|0:0,0:0:0:0:
334,137,88823,2,0,P|273:123|239:123,1,86.2500032901765,2|4,0:0|3:0,0:0:0:0:
62,273,89041,2,0,B|128:331|128:331|213:297,1,172.500006580353,2|4,1:3|3:0,0:0:0:0:
270,241,89367,1,2,0:0:0:0:
132,141,89475,6,0,L|142:226,1,86.2500032901765,2|0,3:0|0:0,0:0:0:0:
360,311,89693,2,0,L|370:225,1,86.2500032901765,2|0,0:0|0:0,0:0:0:0:
328,62,89910,2,0,P|297:79|285:93,1,43.1250016450883,2|0,1:3|3:0,3:0:0:0:
257,112,90019,2,0,P|239:143|236:160,1,43.1250016450883,0|0,3:0|3:0,3:0:0:0:
222,192,90128,2,0,P|223:227|229:244,1,43.1250016450883,2|0,1:2|3:0,3:0:0:0:
234,278,90237,2,0,P|253:307|267:319,1,43.1250016450883,0|0,1:0|3:0,3:0:0:0:
288,346,90345,6,0,L|333:340,5,43.1250016450883,8|0|0|0|0|0,1:0|1:0|1:0|1:0|1:0|1:0,0:0:0:0:
352,265,90780,1,0,1:0:0:0:
373,189,90997,1,0,1:0:0:0:
394,113,91215,6,0,P|366:66|277:18,1,137.999995788574,2|2,1:3|1:3,1:3:0:0:
88,241,91504,1,2,1:3:0:0:
255,351,91649,6,0,P|310:350|396:297,1,137.999995788574,2|2,1:3|1:3,1:3:0:0:
296,22,91938,1,2,1:3:0:0:
118,111,92084,6,0,B|34:173|34:173|52:279,1,206.999993682861,6|0,1:0|0:0,0:0:0:0:
426,14,92520,2,0,B|510:76|510:76|492:182,1,206.999993682861,10|0,1:0|0:0,0:0:0:0:
8,361,92954,2,0,L|28:135,1,206.999993682861,2|0,1:2|0:0,0:0:0:0:
511,384,93388,2,0,L|491:158,1,206.999993682861,10|0,1:2|0:0,0:0:0:0:
68,38,93823,5,2,1:0:0:0:
470,273,94041,1,2,0:2:0:0:
216,383,94258,2,0,P|181:276|201:143,1,206.999993682861,8|2,1:0|0:1,0:0:0:0:
512,32,94693,2,0,P|436:115|311:164,1,206.999993682861,2|0,1:0|0:0,0:0:0:0:
0,107,95128,2,0,P|86:162|187:182,1,206.999993682861,10|0,1:0|0:0,0:0:0:0:
414,17,95562,5,2,1:0:0:0:
477,353,95780,1,2,0:2:0:0:
154,239,95997,2,0,L|171:18,1,206.999993682861,10|0,1:0|0:0,0:0:0:0:
351,353,96432,1,2,1:0:0:0:
414,17,96650,1,2,0:2:0:0:
91,131,96867,2,0,L|108:352,1,206.999993682861,10|0,1:0|0:0,0:0:0:0:
382,185,97302,5,2,1:2:0:0:
382,185,97519,2,0,P|298:115|301:13,1,206.999993682861,2|10,0:1|1:2,0:0:0:0:
503,8,97954,1,2,0:1:0:0:
437,345,98171,2,0,L|207:332,1,206.999993682861,2|2,1:0|0:2,0:0:0:0:
54,40,98606,2,0,L|65:246,1,206.999993682861,10|0,1:0|0:0,0:0:0:0:
474,118,99041,6,0,P|465:21|410:68,1,206.999993682861,6|0,1:3|0:0,0:0:0:0:
39,367,99475,2,0,P|48:270|103:317,1,206.999993682861,12|0,1:3|0:0,0:0:0:0:
461,357,99910,1,2,1:0:0:0:
360,18,100128,1,2,0:2:0:0:
101,307,100345,2,0,P|151:187|134:80,1,206.999993682861,10|0,1:0|0:0,0:0:0:0:
16,18,100780,5,2,1:0:0:0:
491,109,100997,1,2,0:2:0:0:
48,331,101215,2,0,L|262:339,1,206.999993682861,10|2,1:2|0:1,0:0:0:0:
491,109,101649,1,0,1:0:0:0:
31,174,101867,1,2,0:1:0:0:
405,6,102085,2,0,P|361:110|416:215,2,206.999993682861,10|2|0,1:0|0:2|1:0,0:0:0:0:
505,345,102736,5,2,0:1:0:0:
118,218,102954,2,0,P|149:121|105:30,1,206.999993682861,8|2,1:0|0:1,0:0:0:0:
19,133,103389,1,2,1:0:0:0:
474,39,103606,1,2,0:2:0:0:
151,339,103823,1,10,1:0:0:0:
309,13,104041,1,0,1:0:0:0:
329,113,104149,1,0,1:0:0:0:
281,20,104258,1,8,1:0:0:0:
281,20,105128,6,0,P|306:68|381:94,1,137.999995788574,6|0,1:2|0:0,0:0:0:0:
94,256,105418,2,0,P|123:210|108:132,1,137.999995788574,2|0,3:2|0:0,0:0:0:0:
392,299,105708,2,0,P|338:297|278:349,1,137.999995788574,2|0,3:2|0:0,0:0:0:0:
483,366,105997,5,4,1:2:0:0:
458,85,106215,1,0,0:0:0:0:
407,222,106432,2,0,L|475:226,1,68.9999978942872,4|0,0:2|0:0,0:0:0:0:
336,15,106867,2,0,L|267:19,1,68.9999978942872,14|0,1:2|0:0,0:0:0:0:
222,333,107302,1,4,0:2:0:0:
187,65,107519,1,0,0:0:0:0:
343,182,107736,6,0,P|396:188|423:183,1,68.9999978942872,4|0,1:2|0:0,0:0:0:0:
489,95,108171,1,4,0:2:0:0:
509,358,108389,1,0,0:0:0:0:
335,27,108606,1,14,1:2:0:0:
315,290,108824,1,0,0:0:0:0:
402,15,109041,2,0,P|368:18|335:27,1,68.9999978942872,4|0,0:2|0:0,0:0:0:0:
315,290,109475,5,4,1:2:0:0:
244,50,109693,1,0,0:0:0:0:
224,372,109910,1,4,0:2:0:0:
125,38,110128,1,0,0:0:0:0:
40,312,110345,2,0,L|130:316,1,68.9999978942872,14|0,1:2|0:0,0:0:0:0:
442,200,110780,2,0,L|446:290,1,68.9999978942872,4|0,0:2|0:0,0:0:0:0:
234,153,111215,6,0,L|237:84,1,68.9999978942872,4|0,1:2|0:0,0:0:0:0:
282,372,111649,1,4,0:2:0:0:
351,16,111867,1,0,0:0:0:0:
339,314,112085,6,0,B|435:355|435:355|523:276,1,206.999993682861,14|0,1:2|0:0,0:0:0:0:
411,155,112411,2,0,L|420:266,2,103.499996841431,0|8|0,1:0|1:0|3:0,0:0:0:0:
512,8,112737,2,0,L|400:0,1,103.499996841431,8|4,1:0|3:0,0:0:0:0:
218,78,112954,6,0,L|296:70,1,68.9999978942872,4|0,1:2|0:0,0:0:0:0:
511,131,113389,1,4,0:2:0:0:
171,182,113606,1,0,0:0:0:0:
453,329,113823,2,0,P|449:276|443:258,1,68.9999978942872,14|0,1:2|0:0,0:0:0:0:
171,182,114258,2,0,P|162:215|162:249,1,68.9999978942872,4|0,0:2|0:0,0:0:0:0:
248,368,114693,5,4,1:2:0:0:
308,52,114910,1,0,0:0:0:0:
372,264,115128,2,0,L|298:268,1,68.9999978942872,4|0,0:2|0:0,0:0:0:0:
197,28,115562,1,14,1:2:0:0:
248,368,115780,1,0,0:0:0:0:
308,52,115997,2,0,L|376:48,1,68.9999978942872,4|0,0:2|0:0,0:0:0:0:
488,16,116432,5,4,1:2:0:0:
504,369,116649,1,0,0:0:0:0:
333,128,116867,2,0,P|322:168|322:199,1,68.9999978942872,4|0,0:2|0:0,0:0:0:0:
504,369,117302,2,0,P|502:334|492:301,1,68.9999978942872,14|0,0:2|0:0,0:0:0:0:
218,334,117736,2,0,L|295:340,1,68.9999978942872,4|4,0:2|0:0,0:0:0:0:
286,339,118062,1,4,0:0:0:0:
286,339,118171,5,4,0:2:0:0:
36,361,118389,1,0,0:0:0:0:
138,56,118606,2,0,L|146:151,1,68.9999978942872,4|0,0:2|0:0,0:0:0:0:
274,308,119041,6,0,P|267:186|337:133,1,206.999993682861,14|0,1:2|0:0,0:0:0:0:
461,252,119367,1,4,1:3:0:0:
461,252,119475,2,0,P|409:251|359:241,1,103.499996841431,8|4,1:0|3:0,0:0:0:0:
257,32,119693,2,0,P|307:21|359:20,1,103.499996841431,8|0,1:0|3:0,0:0:0:0:
496,55,119910,5,0,1:0:0:0:
92,372,139041,6,0,L|88:335,3,28.75
149,282,139476,2,0,L|152:253,3,28.75
90,191,139911,2,0,L|86:154,3,28.75
147,101,140346,2,0,L|150:72,3,28.75
89,11,140781,5,4,1:0:0:0:
440,56,140997,2,0,P|448:96|448:180,1,115,0|0,1:0|0:0,0:0:0:0:
352,20,141649,1,8,1:0:0:0:
352,20,142084,1,0,1:0:0:0:
352,20,142519,5,0,1:0:0:0:
216,184,142736,2,0,L|208:48,1,115,0|0,1:0|0:0,0:0:0:0:
223,298,143389,1,8,1:0:0:0:
223,298,143823,1,0,1:0:0:0:
223,298,144258,5,0,1:0:0:0:
448,159,144475,2,0,P|471:202|484:280,1,115,0|0,1:0|0:0,0:0:0:0:
342,42,145128,1,8,1:0:0:0:
342,42,145562,1,0,1:0:0:0:
342,42,145997,6,0,L|271:38,1,57.5,0|0,1:0|0:0,0:0:0:0:
165,245,146432,2,0,L|222:241,1,57.5,4|0,0:0|0:0,0:0:0:0:
35,116,146867,1,8,1:0:0:0:
35,116,147193,1,0,0:0:0:0:
39,129,147302,1,0,1:0:0:0:
24,232,147519,1,0,0:0:0:0:
9,335,147737,5,4,1:0:0:0:
300,298,147954,2,0,P|247:283|178:282,1,115,0|0,1:0|0:0,0:0:0:0:
351,367,148606,1,8,1:0:0:0:
351,367,149041,1,0,1:0:0:0:
351,367,149475,5,0,1:0:0:0:
444,183,149693,2,0,L|436:53,1,115,0|0,1:0|0:0,0:0:0:0:
451,297,150345,1,8,1:0:0:0:
451,297,150780,1,0,1:0:0:0:
451,297,151215,5,0,1:0:0:0:
215,207,151432,2,0,P|275:192|341:193,1,115,0|0,1:0|0:0,0:0:0:0:
140,353,152084,1,8,1:0:0:0:
140,353,152519,1,0,1:0:0:0:
140,353,152954,6,0,L|131:274,1,57.5,0|0,1:0|0:0,0:0:0:0:
107,67,153388,2,0,L|113:124,1,57.5,0|0,1:0|1:0,0:0:0:0:
279,307,153823,5,0,1:0:0:0:
245,260,153931,1,0,1:0:0:0:
235,204,154040,1,0,1:0:0:0:
250,149,154149,1,0,1:0:0:0:
287,105,154257,1,4,0:0:0:0:
339,82,154366,1,4,0:0:0:0:
396,83,154475,1,4,0:0:0:0:
447,108,154583,1,4,0:0:0:0:
482,153,154694,6,0,B|487:192|487:192|473:228,1,57.5,6|0,1:0|0:0,0:0:0:0:
193,23,155128,2,0,B|188:62|188:62|202:98,1,57.5,2|0,0:1|0:0,0:0:0:0:
409,338,155562,2,0,L|401:268,1,57.5,10|0,1:2|0:0,0:0:0:0:
85,363,155997,2,0,L|93:293,1,57.5,2|0,0:2|0:0,0:0:0:0:
117,56,156432,5,0,1:0:0:0:
233,305,156649,1,0,0:0:0:0:
397,115,156867,2,0,P|361:115|323:129,1,57.5
464,368,157302,2,0,L|470:308,1,57.5,8|0,1:0|0:0,0:0:0:0:
488,139,157737,2,0,L|494:79,1,57.5
224,8,158171,5,0,1:0:0:0:
243,179,158388,1,0,0:0:0:0:
262,350,158605,1,0,0:0:0:0:
262,350,159041,1,8,1:0:0:0:
243,179,159258,1,0,0:0:0:0:
224,8,159475,1,0,0:0:0:0:
224,8,159910,5,0,1:0:0:0:
384,236,160128,2,2,P|404:184|416:112,1,115,0|0,0:0|0:0,0:0:0:0:
96,88,160780,1,8,1:0:0:0:
96,88,161106,1,0,1:0:0:0:
103,100,161215,1,0,1:0:0:0:
91,197,161432,1,0,0:0:0:0:
79,294,161650,6,0,P|96:305|82:285,1,57.5,6|0,1:3|0:0,0:0:0:0:
16,110,162084,2,0,P|-1:121|13:101,1,57.5,4|0,0:3|0:0,0:0:0:0:
290,33,162519,1,8,1:0:0:0:
226,343,162736,1,0,0:0:0:0:
171,10,162954,2,0,L|180:93,1,57.5
357,344,163389,6,0,L|363:286,1,57.5,0|0,1:0|0:0,0:0:0:0:
72,236,163823,1,0,0:0:0:0:
467,181,164041,1,0,0:0:0:0:
185,104,164258,2,0,P|172:151|170:174,1,57.5,8|0,1:0|0:0,0:0:0:0:
346,44,164693,2,0,P|359:91|361:114,1,57.5
292,272,165128,5,0,1:0:0:0:
421,0,165345,2,0,P|444:84|447:125,1,115
438,356,165997,2,0,P|446:299|464:244,1,115,8|0,1:0|0:0,0:0:0:0:
177,104,166649,1,0,0:0:0:0:
177,104,166758,1,0,0:0:0:0:
177,104,166867,6,2,P|257:112|321:39,1,172.5,8|0,1:0|0:0,0:0:0:0:
10,14,167736,1,2,0:0:0:0:
14,56,167844,1,2,0:0:0:0:
18,99,167953,1,0,0:0:0:0:
23,142,168062,1,2,0:0:0:0:
27,185,168170,1,2,0:0:0:0:
32,228,168279,1,0,0:0:0:0:
36,271,168388,1,2,0:0:0:0:
41,314,168496,1,2,0:0:0:0:
45,356,168607,6,0,B|147:374|147:374|209:290,1,206.999993682861,6|0,1:0|0:0,0:0:0:0:
490,160,169041,2,0,B|388:177|388:177|326:93,1,206.999993682861,10|0,1:0|0:0,0:0:0:0:
8,8,169476,2,0,L|28:234,1,206.999993682861,2|0,1:2|0:0,0:0:0:0:
498,62,169911,2,0,L|478:288,1,206.999993682861,10|0,1:2|0:0,0:0:0:0:
304,364,170345,5,2,1:0:0:0:
264,12,170562,1,2,0:2:0:0:
16,376,170780,1,10,1:2:0:0:
56,24,170997,1,2,0:1:0:0:
512,264,171215,2,0,P|429:323|327:321,1,206.999993682861,2|0,1:0|0:0,0:0:0:0:
0,120,171649,2,0,P|82:60|184:62,1,206.999993682861,10|0,1:0|0:0,0:0:0:0:
512,264,172084,6,0,L|516:40,1,206.999993682861,2|2,1:0|0:2,0:0:0:0:
233,6,172519,1,10,1:0:0:0:
229,212,172736,1,0,0:0:0:0:
434,353,172954,2,0,L|438:129,1,206.999993682861,2|2,1:0|0:2,0:0:0:0:
155,95,173389,1,10,1:0:0:0:
151,301,173606,1,0,0:0:0:0:
468,38,173823,5,0,1:0:0:0:
468,38,174041,1,2,0:1:0:0:
79,236,174257,2,0,P|41:140|54:31,1,206.999993682861,10|2,1:2|0:1,0:0:0:0:
437,139,174693,2,0,P|447:241|409:336,1,206.999993682861,2|2,1:0|0:2,0:0:0:0:
170,11,175128,2,0,L|414:5,1,206.999993682861,10|0,1:0|0:0,0:0:0:0:
472,277,175563,6,0,P|492:360|409:336,1,206.999993682861,6|0,1:3|0:0,0:0:0:0:
44,32,175998,2,0,P|23:115|106:91,1,206.999993682861,12|0,1:3|0:0,0:0:0:0:
8,289,176432,2,0,P|104:360|213:338,1,206.999993682861,2|2,1:0|0:2,0:0:0:0:
232,1,176867,1,10,1:0:0:0:
325,294,177084,1,0,0:0:0:0:
502,83,177302,6,0,L|257:70,1,206.999993682861,2|2,1:0|0:2,0:0:0:0:
224,363,177736,1,8,1:0:0:0:
84,6,177954,1,2,0:1:0:0:
0,297,178171,2,0,P|136:268|252:278,1,206.999993682861,2|2,1:2|0:1,0:0:0:0:
451,357,178606,2,0,P|510:273|496:138,2,206.999993682861,10|0|0,1:0|0:0|1:0,0:0:0:0:
78,48,179258,6,0,L|311:37,1,206.999993682861,2|8,0:1|1:0,0:0:0:0:
451,357,179693,1,2,0:1:0:0:
244,347,179910,1,2,1:0:0:0:
37,337,180127,1,0,0:0:0:0:
452,141,180345,2,0,L|245:150,1,206.999993682861,10|0,1:1|0:0,0:0:0:0:
37,337,180780,6,0,P|-10:218|6:123,1,206.999993682861,0|2,1:0|0:1,0:0:0:0:
476,268,181215,1,8,1:0:0:0:
60,49,181432,1,2,0:1:0:0:
319,303,181649,5,10,1:0:0:0:
309,220,181758,1,4,3:0:0:0:
300,136,181867,1,4,3:0:0:0:
242,270,181976,5,10,1:0:0:0:
232,186,182085,1,4,3:0:0:0:
222,103,182194,1,4,3:0:0:0:
164,236,182302,5,10,1:0:0:0:
154,152,182411,1,4,3:0:0:0:
144,69,182520,6,0,B|256:80|256:80|363:17,1,230,6|0,1:0|0:0,0:0:0:0:
512,286,182954,2,0,B|400:275|400:275|298:334,1,230,10|0,1:0|0:0,0:0:0:0:
2,230,183389,2,0,L|16:1,1,230,2|0,1:2|0:0,0:0:0:0:
497,56,183823,2,0,L|511:285,1,230,10|0,1:2|0:0,0:0:0:0:
19,363,184258,5,2,1:0:0:0:
314,382,184475,1,2,0:2:0:0:
85,32,184693,2,0,P|189:39|322:2,1,230,8|2,1:0|0:1,0:0:0:0:
301,340,185128,2,0,P|330:230|393:133,1,230,2|0,1:0|0:0,0:0:0:0:
150,350,185562,2,0,P|98:248|17:168,1,230,10|0,1:0|0:0,0:0:0:0:
36,380,185997,5,2,1:0:0:0:
301,340,186215,1,2,0:2:0:0:
10,35,186432,2,0,P|123:60|221:11,1,230,10|0,1:0|0:0,0:0:0:0:
486,49,186867,1,2,1:0:0:0:
221,10,187085,1,2,0:2:0:0:
195,355,187302,2,0,P|308:330|406:379,1,230,10|0,1:0|0:0,0:0:0:0:
486,49,187736,5,0,1:0:0:0:
486,49,187954,2,0,L|247:57,1,230,2|10,0:1|1:2,0:0:0:0:
146,354,188389,1,2,0:1:0:0:
55,0,188606,1,10,1:0:0:0:
313,219,188823,2,0,P|241:198|172:197,1,115,2|2,0:2|0:1,0:0:0:0:
9,125,189041,2,2,P|111:127|190:9,1,230,10|0,1:0|0:2,0:0:0:0:
27,293,189475,6,0,P|107:355|121:252,1,230,6|0,1:3|0:0,0:0:0:0:
454,80,189910,2,0,P|373:142|359:39,1,230,12|0,1:3|0:0,0:0:0:0:
481,362,190345,1,0,1:0:0:0:
508,5,190562,1,2,0:2:0:0:
117,41,190780,2,0,L|346:52,1,230,10|0,1:0|0:0,0:0:0:0:
481,362,191215,6,0,L|252:373,1,230,2|2,1:0|0:2,0:0:0:0:
196,8,191649,1,8,1:0:0:0:
132,296,191867,1,2,0:1:0:0:
445,28,192084,2,0,P|484:100|471:257,1,230,0|2,1:0|0:1,0:0:0:0:
20,354,192519,2,0,P|5:241|51:137,2,230,10|0|0,1:0|0:0|1:0,0:0:0:0:
477,245,193171,5,2,0:1:0:0:
219,2,193389,2,0,L|233:245,1,230,8|2,1:0|0:1,0:0:0:0:
502,18,193823,1,2,1:0:0:0:
32,311,194041,1,2,0:2:0:0:
502,366,194258,1,10,1:0:0:0:
32,73,194476,1,0,1:0:0:0:
144,92,194584,1,0,1:0:0:0:
38,44,194693,1,8,1:0:0:0:
38,44,195562,6,0,P|117:29|191:31,1,153.333333333333,2|0,1:2|0:0,0:0:0:0:
218,349,195852,2,0,P|165:287|130:222,1,153.333333333333,2|0,1:2|0:0,0:0:0:0:
393,40,196142,2,0,P|365:116|327:179,1,153.333333333333,2|0,1:2|0:0,0:0:0:0:
