osu file format v14

[General]
AudioFilename: Nightcore - Make A Move.mp3
AudioLeadIn: 0
PreviewTime: 79784
Countdown: 0
SampleSet: None
StackLeniency: 0.3
Mode: 0
LetterboxInBreaks: 0
WidescreenStoryboard: 0

[Editor]
DistanceSpacing: 1.4
BeatDivisor: 4
GridSize: 4
TimelineZoom: 2.2

[Metadata]
Title:Make A Move (Nightcore Mix)
TitleUnicode:Make A Move (Nightcore Mix)
Artist:Icon For Hire
ArtistUnicode:Icon For Hire
Creator:NeruKiromaMoge
Version:X
Source:
Tags:
BeatmapID:1194861
BeatmapSetID:565316

[Difficulty]
HPDrainRate:7
CircleSize:4
OverallDifficulty:9
ApproachRate:9.5
SliderMultiplier:1.7
SliderTickRate:2

[Events]
//Background and Video events
0,0,"black_rock_shooter_png_by_bloomsama-d6qwyo7.png",0,0
//Break Periods
2,111385,114215
//Storyboard Layer 0 (Background)
//Storyboard Layer 1 (Fail)
//Storyboard Layer 2 (Pass)
//Storyboard Layer 3 (Foreground)
//Storyboard Sound Samples

[TimingPoints]
9280,296.237780191567,4,2,0,40,1,0
9280,-111.111111111111,4,2,0,40,0,0
18759,-100,4,1,1,40,0,0
25869,-133.333333333333,4,2,0,50,0,0
28239,-100,4,1,1,40,0,0
30609,-100,4,1,1,50,0,1
39496,-200,4,1,1,40,0,0
40088,-90.9090909090909,4,1,1,50,0,1
48975,-100,4,1,1,40,0,0
63195,-133.333333333333,4,1,1,40,0,0
63787,-100,4,1,1,40,0,0
70897,-100,4,1,1,50,0,1
79784,-200,4,1,1,40,0,0
80377,-83.3333333333333,4,1,1,50,0,1
89264,-100,4,1,1,40,0,0
99336,-133.333333333333,4,1,1,40,0,0
111185,-200,4,1,1,5,0,0
114740,-100,4,1,1,40,0,0
120665,-100,4,1,1,50,0,1
129552,-100,4,1,1,40,0,0
130145,-76.9230769230769,4,1,1,50,0,1
139032,-133.333333333333,4,1,1,40,0,0
139624,-71.4285714285714,4,1,1,50,0,1
148215,-100,4,1,1,40,0,0

[Colours]
Combo1 : 162,68,255
Combo2 : 255,168,255
Combo3 : 209,165,165
Combo4 : 255,255,155
Combo5 : 255,157,157

[HitObjects]
160,184,9280,6,0,L|232:144,1,76.4999976654053,4|0,0:0|0:0,0:0:0:0:
352,200,9576,2,0,L|280:240,1,76.4999976654053
132,252,9872,2,0,P|88:212|92:172,1,76.4999976654053,8|0,0:0|0:0,0:0:0:0:
380,132,10168,2,0,P|424:172|420:212,1,76.4999976654053
292,264,10464,1,2,0:0:0:0:
256,128,10613,1,2,0:0:0:0:
220,264,10761,1,2,0:0:0:0:
256,128,10909,1,2,0:0:0:0:
256,328,11057,5,12,0:0:0:0:
256,56,11353,5,0,0:0:0:0:
132,312,11649,6,0,P|176:288|192:260,1,76.4999976654053
96,128,11946,2,0,P|52:152|36:180,1,76.4999976654053
196,164,12242,2,0,L|268:108,1,76.4999976654053,8|0,0:0|0:0,0:0:0:0:
112,224,12538,2,0,L|51:270,1,76.4999976654053
196,256,12834,1,2,0:0:0:0:
344,324,12982,1,2,0:0:0:0:
292,192,13131,1,2,0:0:0:0:
344,60,13279,1,2,0:0:0:0:
196,128,13427,5,12,0:0:0:0:
504,40,13723,5,0,0:0:0:0:
360,196,14019,6,0,P|416:208|456:188,1,76.4999976654053
328,312,14316,2,0,P|272:300|232:320,1,76.4999976654053,0|0,0:0|0:0,0:0:0:0:
180,328,14612,5,8,0:0:0:0:
164,252,14760,1,0,0:0:0:0:
180,328,14908,1,2,0:0:0:0:
196,180,15056,1,2,0:0:0:0:
180,328,15204,1,2,0:0:0:0:
260,132,15352,1,2,0:0:0:0:
180,328,15500,1,2,0:0:0:0:
340,128,15649,1,2,0:0:0:0:
180,328,15797,2,0,P|124:383|37:341,1,152.999995330811,12|0,0:0|0:0,0:0:0:0:
106,308,16241,1,0,0:0:0:0:
244,256,16389,6,0,P|280:232|336:248,1,76.4999976654053,0|2,0:0|0:0,0:0:0:0:
408,312,16685,1,0,0:0:0:0:
292,352,16834,1,0,0:0:0:0:
311,233,16982,2,0,P|352:180|348:140,1,76.4999976654053,10|0,0:0|0:0,0:0:0:0:
308,60,17278,1,0,0:0:0:0:
232,156,17426,1,0,0:0:0:0:
352,172,17574,2,0,P|416:200|488:144,1,152.999995330811,2|0,0:0|0:0,0:0:0:0:
412,116,18019,1,0,0:0:0:0:
416,280,18167,5,12,0:0:0:0:
256,72,18389,1,4,0:0:0:0:
96,280,18611,1,4,0:0:0:0:
188,296,18759,5,4,0:0:0:0:
256,232,18907,1,0,0:0:0:0:
120,108,19055,2,0,L|160:216,1,85,2|0,0:0|0:0,0:0:0:0:
256,232,19352,1,8,0:0:0:0:
324,296,19500,1,0,0:0:0:0:
362,187,19648,2,0,L|392:108,1,85,2|0,0:0|0:0,0:0:0:0:
492,44,19944,1,0,0:0:0:0:
372,36,20092,1,0,0:0:0:0:
464,112,20240,5,2,0:0:0:0:
48,112,20537,5,10,0:0:0:0:
328,236,20833,1,0,0:0:0:0:
400,128,20981,1,0,0:0:0:0:
384,288,21129,2,0,P|336:312|296:304,1,85,2|0,0:0|0:0,0:0:0:0:
308,144,21425,1,0,0:0:0:0:
416,216,21573,1,0,0:0:0:0:
256,200,21721,2,0,P|232:152|240:112,1,85,10|0,0:0|0:0,0:0:0:0:
360,180,22018,5,2,0:0:0:0:
180,256,22166,1,2,0:0:0:0:
300,88,22314,1,2,0:0:0:0:
332,256,22462,1,2,0:0:0:0:
152,180,22610,1,2,0:0:0:0:
256,324,22758,1,2,0:0:0:0:
212,88,22906,5,12,0:0:0:0:
368,205,23203,5,0,0:0:0:0:
187,282,23499,5,0,0:0:0:0:
72,308,23647,1,0,0:0:0:0:
176,184,23795,2,0,P|224:160|260:172,1,85,2|0,0:0|0:0,0:0:0:0:
187,282,24091,1,8,0:0:0:0:
84,192,24240,1,0,0:0:0:0:
252,167,24388,1,2,0:0:0:0:
104,272,24536,1,0,0:0:0:0:
172,104,24684,6,0,P|236:64|324:96,1,170,2|0,0:0|0:0,0:0:0:0:
384,264,25128,2,0,B|280:317|230:249|126:302,1,255,2|0,0:0|0:0,0:0:0:0:
56,348,25721,1,0,0:0:0:0:
60,272,25869,6,0,L|16:212,2,63.7500024318696,2|0|2,0:0|0:0|0:0,0:0:0:0:
148,156,26461,2,2,L|72:132,2,63.7500024318696,2|0|2,0:0|0:0|0:0,0:0:0:0:
224,152,26906,1,0,0:0:0:0:
268,88,27054,2,0,P|332:44|396:68,2,127.500004863739,2|2|2,0:0|0:0|0:0,0:0:0:0:
244,112,28239,5,4,0:0:0:0:
144,140,28387,1,0,0:0:0:0:
172,44,28535,1,0,0:0:0:0:
359,110,28683,5,4,0:0:0:0:
416,300,28831,1,0,0:0:0:0:
215,249,28979,1,0,0:0:0:0:
311,40,29127,5,4,0:0:0:0:
243,330,29276,1,0,0:0:0:0:
20,112,29424,1,0,0:0:0:0:
308,116,29572,5,4,0:0:0:0:
204,252,29720,1,0,0:0:0:0:
140,108,29868,5,2,0:0:0:0:
399,191,30016,1,10,0:0:0:0:
140,276,30164,1,2,0:0:0:0:
300,55,30312,1,10,0:0:0:0:
300,328,30461,1,2,0:0:0:0:
140,108,30609,2,0,P|111:90|48:96,1,85,4|0,0:0|0:0,0:0:0:0:
372,276,30905,2,0,P|401:294|464:288,1,85
376,88,31201,5,10,0:0:0:0:
424,216,31349,1,2,0:0:0:0:
294,58,31497,1,2,0:0:0:0:
456,132,31645,1,10,0:0:0:0:
336,260,31794,2,0,P|352:296|420:312,1,85,12|0,0:0|0:0,0:0:0:0:
176,124,32090,2,0,P|160:88|92:72,1,85
60,188,32386,5,10,0:0:0:0:
256,232,32534,1,2,0:0:0:0:
424,72,32682,1,2,0:0:0:0:
148,328,32830,1,10,0:0:0:0:
364,328,32979,1,10,0:0:0:0:
88,72,33127,1,2,0:0:0:0:
452,188,33275,2,0,P|496:172|496:108,1,85,2|0,0:0|0:0,0:0:0:0:
312,40,33571,5,10,0:0:0:0:
460,328,33719,1,2,0:0:0:0:
52,328,33867,1,2,0:0:0:0:
124,136,34015,1,10,0:0:0:0:
388,136,34163,1,10,0:0:0:0:
256,232,34312,1,2,0:0:0:0:
200,40,34460,2,0,P|244:32|296:80,1,85,2|0,0:0|0:0,0:0:0:0:
176,256,34756,5,10,0:0:0:0:
228,116,34904,1,2,0:0:0:0:
272,212,35052,1,2,0:0:0:0:
132,164,35200,1,10,0:0:0:0:
296,280,35348,2,0,P|331:259|344:208,1,85,12|0,0:0|0:0,0:0:0:0:
112,96,35645,2,0,P|76:116|64:168,1,85
312,136,35941,5,10,0:0:0:0:
96,240,36089,1,2,0:0:0:0:
256,300,36237,1,2,0:0:0:0:
144,80,36385,1,10,0:0:0:0:
272,368,36533,2,0,P|296:360|324:300,1,85,12|0,0:0|0:0,0:0:0:0:
128,12,36830,2,0,P|104:20|76:80,1,85,0|0,0:0|0:0,0:0:0:0:
32,216,37126,5,10,0:0:0:0:
160,336,37274,1,2,0:0:0:0:
256,88,37422,1,2,0:0:0:0:
352,336,37570,1,10,0:0:0:0:
480,216,37718,2,0,P|480:132|388:116,1,170,8|0,0:0|0:0,0:0:0:0:
256,264,38163,5,2,0:0:0:0:
424,176,38311,1,10,0:0:0:0:
352,336,38459,1,2,0:0:0:0:
316,120,38607,1,2,0:0:0:0:
456,288,38755,1,2,0:0:0:0:
212,160,38903,1,2,0:0:0:0:
408,68,39051,1,2,0:0:0:0:
252,360,39200,2,0,P|192:364|156:332,1,85,8|0,0:0|0:0,0:0:0:0:
108,316,39496,6,0,P|56:316|36:328,2,63.75,8|8|8,0:0|0:0|0:0,0:0:0:0:
172,280,40088,6,0,P|228:232|192:124,1,187.000005706787,6|8,0:0|0:0,0:0:0:0:
60,52,40533,1,0,0:0:0:0:
152,196,40681,2,0,P|240:200|280:108,1,187.000005706787,2|8,0:0|0:0,0:0:0:0:
40,136,41125,1,0,0:0:0:0:
112,308,41273,2,0,B|176:360|221:279|328:344,1,187.000005706787,2|8,0:0|0:0,0:0:0:0:
432,356,41718,1,0,0:0:0:0:
392,208,41866,2,0,P|384:144|468:80,2,140.25000428009,2|2|2,0:0|0:0|0:0,0:0:0:0:
296,304,42458,6,0,B|248:280|208:316|208:316|152:312|148:244,1,187.000005706787,6|8,0:0|0:0,0:0:0:0:
324,192,42902,1,0,0:0:0:0:
149,127,43051,2,0,B|152:72|208:68|208:68|248:104|296:80,1,187.000005706787,2|8,0:0|0:0,0:0:0:0:
212,192,43495,1,0,0:0:0:0:
56,256,43643,2,0,B|44:212|-8:192|-8:192|44:172|56:128,1,187.000005706787,2|8,0:0|0:0,0:0:0:0:
172,36,44087,1,2,0:0:0:0:
316,76,44236,5,2,0:0:0:0:
340,224,44384,2,0,L|304:260,1,46.7500014266968,2|0,0:0|0:0,0:0:0:0:
220,372,44532,2,0,L|206:322,1,46.7500014266968,10|0,0:0|0:0,0:0:0:0:
144,200,44680,2,0,L|193:213,1,46.7500014266968,2|0,0:0|0:0,0:0:0:0:
328,344,44828,6,0,B|392:352|408:296|408:296|440:268|424:220,1,187.000005706787,6|8,0:0|0:0,0:0:0:0:
256,112,45272,1,0,0:0:0:0:
88,220,45421,2,0,B|72:268|104:296|104:296|120:352|184:344,1,187.000005706787,2|8,0:0|0:0,0:0:0:0:
256,208,45865,1,0,0:0:0:0:
332,72,46013,2,0,P|252:24|180:72,1,187.000005706787,2|8,0:0|0:0,0:0:0:0:
256,156,46457,1,2,0:0:0:0:
388,208,46605,6,0,P|404:264|372:304,1,93.5000028533936,2|0,0:0|0:0,0:0:0:0:
252,260,46902,1,10,0:0:0:0:
428,152,47050,2,0,P|472:224|436:340,2,187.000005706787,2|0|0,0:0|0:0|0:0,0:0:0:0:
206,106,47790,1,2,0:0:0:0:
170,241,47939,1,2,0:0:0:0:
305,277,48087,1,10,0:0:0:0:
341,142,48235,1,2,0:0:0:0:
160,166,48383,6,0,L|224:183,1,46.7500014266968,2|0,0:0|0:0,0:0:0:0:
230,287,48531,2,0,L|247:234,1,46.7500014266968,2|0,0:0|0:0,0:0:0:0:
351,217,48679,2,0,L|284:197,1,46.7500014266968,2|0,0:0|0:0,0:0:0:0:
281,96,48827,2,0,L|258:172,1,46.7500014266968
256,192,48975,1,4,0:0:0:0:
352,328,49420,5,0,0:0:0:0:
352,328,49568,1,0,0:0:0:0:
444,240,49716,1,0,0:0:0:0:
420,116,49864,2,0,P|396:80|328:76,1,85,10|0,0:0|0:0,0:0:0:0:
164,68,50160,5,0,0:0:0:0:
72,156,50308,1,0,0:0:0:0:
96,280,50457,2,0,P|120:316|188:320,1,85,10|0,0:0|0:0,0:0:0:0:
320,232,50753,5,0,0:0:0:0:
192,232,50901,1,0,0:0:0:0:
256,336,51049,1,8,0:0:0:0:
256,192,51197,2,0,L|256:0,1,170,2|0,0:0|0:0,0:0:0:0:
164,104,51642,1,8,0:0:0:0:
348,104,51790,1,0,0:0:0:0:
296,256,51938,6,0,P|232:264|196:232,1,85,2|0,0:0|0:0,0:0:0:0:
144,144,52234,1,8,0:0:0:0:
328,192,52382,2,0,P|366:243|357:290,1,85,0|2,0:0|0:0,0:0:0:0:
307,379,52678,1,0,0:0:0:0:
256,196,52826,2,0,P|281:136|326:121,1,85,8|0,0:0|0:0,0:0:0:0:
428,120,53123,5,2,0:0:0:0:
256,196,53271,1,0,0:0:0:0:
376,196,53419,1,8,0:0:0:0:
200,120,53567,2,0,P|100:184|116:252,1,170
164,320,54011,1,8,0:0:0:0:
180,200,54160,1,0,0:0:0:0:
287,122,54308,5,2,0:0:0:0:
300,253,54456,1,0,0:0:0:0:
211,130,54604,1,8,0:0:0:0:
332,184,54752,1,0,0:0:0:0:
224,261,54900,2,0,P|179:276|132:256,1,85,2|0,0:0|0:0,0:0:0:0:
24,136,55196,6,0,P|68:120|116:141,1,85,8|0,0:0|0:0,0:0:0:0:
64,220,55493,1,2,0:0:0:0:
192,172,55641,2,0,L|284:136,1,85,2|8,0:0|0:0,0:0:0:0:
224,260,55937,2,0,P|112:220|100:160,1,170,2|0,0:0|0:0,0:0:0:0:
88,56,56381,1,8,0:0:0:0:
8,156,56529,1,0,0:0:0:0:
128,116,56678,6,0,P|164:97|220:112,1,85,2|0,0:0|0:0,0:0:0:0:
396,216,56974,2,0,P|359:234|304:220,1,85,10|0,0:0|0:0,0:0:0:0:
180,168,57270,2,0,P|152:200|172:268,1,85,2|0,0:0|0:0,0:0:0:0:
256,316,57566,1,10,0:0:0:0:
256,188,57714,1,2,0:0:0:0:
132,108,57862,1,2,0:0:0:0:
112,252,58011,1,2,0:0:0:0:
228,104,58159,1,10,0:0:0:0:
208,248,58307,1,2,0:0:0:0:
208,248,58455,1,8,0:0:0:0:
80,132,59047,5,6,0:0:0:0:
256,20,59196,1,6,0:0:0:0:
432,132,59344,2,0,P|380:224|308:200,1,170,6|0,0:0|0:0,0:0:0:0:
220,112,59788,2,0,P|316:104|368:164,1,170,2|0,0:0|0:0,0:0:0:0:
372,172,60158,1,0,0:0:0:0:
376,192,60232,2,0,B|388:252|348:284|348:284|308:256|260:280,1,170
139,321,60677,2,0,B|176:348|232:320|232:320|260:348|300:340,2,170,8|0|0,0:0|0:0|0:0,0:0:0:0:
200,136,61417,6,0,L|240:84,1,42.5,6|0,0:0|0:0,0:0:0:0:
292,188,61565,2,0,L|364:212,1,42.5,6|0,0:0|0:0,0:0:0:0:
208,252,61714,2,0,B|156:264|132:220|104:176|52:196,1,170,6|8,0:0|0:0,0:0:0:0:
228,320,62158,2,0,B|268:304|276:268|276:268|328:268|344:208,1,170,2|0,0:0|0:0,0:0:0:0:
348,192,62528,1,0,0:0:0:0:
352,172,62602,2,0,P|400:140|484:180,2,127.5,2|0|0,0:0|0:0|0:0,0:0:0:0:
416,220,63195,6,0,L|368:320,2,95.6250036478044,2|2|2,0:0|0:0|0:0,0:0:0:0:
328,240,63787,6,0,L|300:296,1,42.5,6|0,0:0|0:0,0:0:0:0:
192,336,63935,2,0,L|220:280,1,42.5,6|0,0:0|0:0,0:0:0:0:
260,192,64083,2,0,P|204:116|132:128,1,170,6|8,0:0|0:0,0:0:0:0:
47,233,64528,2,0,P|126:252|180:192,1,170,2|0,0:0|0:0,0:0:0:0:
184,172,64898,1,0,0:0:0:0:
188,152,64972,2,0,P|216:112|328:144,2,170,2|0|8,0:0|0:0|0:0,0:0:0:0:
188,152,66009,5,10,0:0:0:0:
188,152,66157,2,0,P|160:104|116:92,1,85,14|0,0:0|0:0,0:0:0:0:
328,184,66453,2,0,P|356:232|400:244,1,85,10|0,0:0|0:0,0:0:0:0:
191,234,66750,2,0,P|150:224|120:195,1,85,10|0,0:0|0:0,0:0:0:0:
326,105,67046,2,0,P|366:114|396:143,1,85,10|0,0:0|0:0,0:0:0:0:
420,340,67342,2,0,P|348:316|320:224,1,170,10|0,0:0|0:0,0:0:0:0:
256,8,67786,1,10,0:0:0:0:
256,100,67935,5,2,0:0:0:0:
256,196,68083,1,2,0:0:0:0:
256,284,68231,1,2,0:0:0:0:
256,376,68379,1,2,0:0:0:0:
188,244,68527,5,4,0:0:0:0:
340,192,68675,1,0,0:0:0:0:
188,140,68823,1,0,0:0:0:0:
328,312,68971,5,4,0:0:0:0:
256,100,69120,1,0,0:0:0:0:
184,312,69268,1,0,0:0:0:0:
416,72,69416,5,4,0:0:0:0:
120,192,69564,1,0,0:0:0:0:
416,312,69712,1,8,0:0:0:0:
256,100,69860,5,12,0:0:0:0:
256,284,70008,1,8,0:0:0:0:
400,191,70156,5,10,0:0:0:0:
139,107,70304,1,10,0:0:0:0:
300,329,70453,1,10,0:0:0:0:
300,54,70601,1,10,0:0:0:0:
139,277,70749,1,10,0:0:0:0:
464,228,70897,2,0,P|464:156|436:132,1,85,4|0,0:0|0:0,0:0:0:0:
48,156,71193,2,0,P|48:228|76:252,1,85
172,332,71489,5,10,0:0:0:0:
340,244,71638,1,2,0:0:0:0:
172,140,71786,1,2,0:0:0:0:
340,52,71934,1,10,0:0:0:0:
172,332,72082,2,0,P|88:348|72:328,1,85,12|0,0:0|0:0,0:0:0:0:
172,140,72378,2,0,P|256:124|272:144,1,85
472,200,72674,5,10,0:0:0:0:
296,352,72823,1,2,0:0:0:0:
384,80,72971,1,2,0:0:0:0:
216,352,73119,1,10,0:0:0:0:
128,80,73267,1,10,0:0:0:0:
40,200,73415,1,2,0:0:0:0:
220,120,73563,2,0,P|256:100|292:120,1,85,2|0,0:0|0:0,0:0:0:0:
460,272,73859,5,10,0:0:0:0:
256,368,74007,1,2,0:0:0:0:
52,272,74156,1,2,0:0:0:0:
332,92,74304,1,10,0:0:0:0:
180,292,74452,1,10,0:0:0:0:
156,116,74600,1,2,0:0:0:0:
356,268,74748,2,0,P|324:316|280:328,1,85,2|0,0:0|0:0,0:0:0:0:
144,372,75044,5,10,0:0:0:0:
16,272,75192,1,2,0:0:0:0:
16,112,75341,1,2,0:0:0:0:
144,12,75489,1,10,0:0:0:0:
180,292,75637,2,0,P|112:260|108:232,1,85,12|0,0:0|0:0,0:0:0:0:
244,156,75933,2,0,P|312:188|316:216,1,85
368,372,76229,5,10,0:0:0:0:
496,272,76377,1,2,0:0:0:0:
496,112,76525,1,2,0:0:0:0:
368,12,76674,1,10,0:0:0:0:
332,292,76822,2,0,P|400:260|404:232,1,85,12|0,0:0|0:0,0:0:0:0:
272,144,77118,2,0,P|204:176|200:204,1,85
84,272,77414,5,10,0:0:0:0:
256,380,77562,1,2,0:0:0:0:
428,272,77710,1,2,0:0:0:0:
144,356,77859,1,10,0:0:0:0:
368,356,78007,2,0,P|480:360|528:304,1,170,12|0,0:0|0:0,0:0:0:0:
385,232,78451,5,2,0:0:0:0:
226,104,78599,1,10,0:0:0:0:
138,287,78747,1,2,0:0:0:0:
336,332,78895,1,2,0:0:0:0:
336,129,79043,1,2,0:0:0:0:
138,174,79192,1,2,0:0:0:0:
226,357,79340,1,2,0:0:0:0:
256,232,79488,2,0,L|256:128,1,85,10|0,0:0|0:0,0:0:0:0:
256,76,79784,6,0,L|256:8,2,63.75,8|8|8,0:0|0:0|0:0,0:0:0:0:
256,148,80377,6,0,B|240:209|192:212|128:216|132:296,1,203.999993774414,6|8,0:0|0:0,0:0:0:0:
256,360,80821,1,0,0:0:0:0:
380,293,80969,2,0,B|384:216|320:212|272:209|256:148,1,203.999993774414,2|8,0:0|0:0,0:0:0:0:
112,72,81413,1,0,0:0:0:0:
188,216,81562,2,0,P|304:232|352:164,1,203.999993774414,2|8,0:0|0:0,0:0:0:0:
336,40,82006,1,0,0:0:0:0:
256,148,82154,2,0,L|300:308,2,152.999995330811,2|2|2,0:0|0:0|0:0,0:0:0:0:
112,32,82746,6,0,B|72:48|72:76|72:76|88:112|72:152|72:152|56:176|108:208,1,203.999993774414,6|8,0:0|0:0,0:0:0:0:
248,272,83191,1,0,0:0:0:0:
204,112,83339,2,0,L|0:112,1,203.999993774414,2|8,0:0|0:0,0:0:0:0:
52,268,83783,1,0,0:0:0:0:
196,188,83931,2,0,B|252:192|280:152|280:116|280:116|280:64|336:60,1,203.999993774414,2|8,0:0|0:0,0:0:0:0:
488,32,84376,1,2,0:0:0:0:
500,196,84524,5,2,0:0:0:0:
349,258,84672,2,0,L|298:281,1,50.9999984436036,2|0,0:0|0:0,0:0:0:0:
168,365,84820,2,0,L|172:308,1,50.9999984436036,10|0,0:0|0:0,0:0:0:0:
155,159,84968,2,0,L|200:190,1,50.9999984436036,2|0,0:0|0:0,0:0:0:0:
356,332,85116,6,0,P|424:260|360:184,1,203.999993774414,6|8,0:0|0:0,0:0:0:0:
256,72,85561,1,0,0:0:0:0:
139,186,85709,2,0,P|88:266|156:332,1,203.999993774414,2|8,0:0|0:0,0:0:0:0:
256,200,86153,1,0,0:0:0:0:
184,58,86301,2,0,P|255:-2|328:58,1,203.999993774414,2|8,0:0|0:0,0:0:0:0:
372,216,86746,1,2,0:0:0:0:
239,316,86894,6,0,P|190:306|156:268,1,101.999996887207,2|0,0:0|0:0,0:0:0:0:
4,232,87190,1,10,0:0:0:0:
144,192,87338,2,0,B|170:188|207:196|228:240|228:240|273:234|301:264|311:288,2,203.999993774414,2|0|0,0:0|0:0|0:0,0:0:0:0:
240,316,88079,5,10,0:0:0:0:
268,168,88227,1,2,0:0:0:0:
156,264,88375,1,10,0:0:0:0:
312,252,88523,1,2,0:0:0:0:
164,156,88671,2,0,P|174:93|232:48,1,101.999996887207,10|0,0:0|0:0,0:0:0:0:
348,228,88967,2,0,P|337:290|280:336,1,101.999996887207,10|0,0:0|0:0,0:0:0:0:
256,192,89264,5,12,0:0:0:0:
260,184,89412,1,8,0:0:0:0:
264,176,89560,1,8,0:0:0:0:
268,168,89708,1,8,0:0:0:0:
272,160,89856,6,0,P|352:76|408:80,1,170,14|0,0:0|0:0,0:0:0:0:
372,176,90301,1,0,0:0:0:0:
345,275,90449,2,0,P|427:261|472:192,1,170,10|0,0:0|0:0,0:0:0:0:
372,176,90893,1,0,0:0:0:0:
276,204,91041,2,0,P|244:268|284:352,1,170,10|0,0:0|0:0,0:0:0:0:
345,275,91485,1,0,0:0:0:0:
276,204,91634,2,0,P|212:172|128:212,1,170,10|0,0:0|0:0,0:0:0:0:
204,272,92078,5,0,0:0:0:0:
236,88,92226,2,0,P|288:32|380:68,1,170,10|0,0:0|0:0,0:0:0:0:
276,204,92670,1,0,0:0:0:0:
312,112,92819,2,0,P|288:24|196:16,1,170,10|0,0:0|0:0,0:0:0:0:
172,96,93263,1,0,0:0:0:0:
252,164,93411,2,0,B|288:200|340:184|340:184|368:268,1,170,10|0,0:0|0:0,0:0:0:0:
428,336,93855,1,0,0:0:0:0:
432,236,94004,2,0,B|410:164|410:164|462:147|471:97,1,170,10|0,0:0|0:0,0:0:0:0:
216,16,94596,6,0,B|140:32|184:140|100:132,1,170,14|0,0:0|0:0,0:0:0:0:
28,192,95040,1,0,0:0:0:0:
109,251,95188,2,0,B|184:244|140:352|216:368,1,170,10|0,0:0|0:0,0:0:0:0:
296,304,95633,1,0,0:0:0:0:
264,208,95781,2,0,B|344:188|344:188|400:272,1,170,10|0,0:0|0:0,0:0:0:0:
364,360,96225,1,0,0:0:0:0:
312,272,96373,2,0,L|380:108,1,170,10|0,0:0|0:0,0:0:0:0:
436,32,96818,1,0,0:0:0:0:
336,36,96966,5,10,0:0:0:0:
256,196,97188,1,10,0:0:0:0:
176,36,97410,1,10,0:0:0:0:
256,104,97558,2,0,P|332:144|336:168,1,85,10|0,0:0|0:0,0:0:0:0:
256,196,97855,1,10,0:0:0:0:
256,280,98003,2,0,P|180:240|176:216,1,85,2|8,0:0|0:0,0:0:0:0:
180,244,98225,5,0,0:0:0:0:
176,240,98299,2,0,P|128:220|88:236,1,85,8|8,0:0|0:0,0:0:0:0:
98,228,98521,1,0,0:0:0:0:
98,228,98595,1,8,0:0:0:0:
256,280,98743,2,0,P|316:288|356:372,2,127.5,10|2|6,0:0|0:0|0:0,0:0:0:0:
180,300,99336,6,0,P|119:233|159:152,1,191.250007295609,2|0,0:0|0:0,0:0:0:0:
320,132,99928,2,0,P|292:217|202:223,1,191.250007295609,10|0,0:0|0:0,0:0:0:0:
104,100,100521,2,0,P|191:80|241:155,1,191.250007295609,2|0,0:0|0:0,0:0:0:0:
260,268,101113,5,8,0:0:0:0:
168,82,101261,1,0,0:0:0:0:
350,178,101409,1,0,0:0:0:0:
146,207,101558,1,0,0:0:0:0:
300,63,101706,6,0,B|357:36|395:71|395:71|398:129|346:144,1,191.250007295609,2|0,0:0|0:0,0:0:0:0:
158,141,102298,2,0,B|112:120|116:68|116:68|154:36|212:63,1,191.250007295609,10|0,0:0|0:0,0:0:0:0:
336,224,102891,2,0,B|312:260|264:236|256:268|256:268|248:236|200:260|176:224,1,191.250007295609,2|0,0:0|0:0,0:0:0:0:
256,160,103483,5,10,0:0:0:0:
352,320,103631,1,2,0:0:0:0:
160,320,103779,1,2,0:0:0:0:
256,160,103927,1,6,0:0:0:0:
328,48,104076,6,0,P|400:68|368:184,1,191.250007295609,2|0,0:0|0:0,0:0:0:0:
171,189,104668,2,0,L|348:116,1,191.250007295609,10|0,0:0|0:0,0:0:0:0:
192,256,105261,2,0,P|120:236|152:120,1,191.250007295609,2|0,0:0|0:0,0:0:0:0:
256,76,105853,5,8,0:0:0:0:
328,192,106001,1,0,0:0:0:0:
256,308,106149,1,0,0:0:0:0:
184,192,106297,1,0,0:0:0:0:
372,192,106445,5,2,0:0:0:0:
256,264,106594,1,2,0:0:0:0:
140,192,106742,1,2,0:0:0:0:
256,120,106890,1,2,0:0:0:0:
256,264,107038,2,0,L|256:328,1,63.7500024318696,10|0,0:0|0:0,0:0:0:0:
176,300,107334,1,2,0:0:0:0:
336,300,107482,6,0,P|416:264|424:208,1,127.500004863739,2|0,0:0|0:0,0:0:0:0:
416,156,107927,1,2,0:0:0:0:
364,96,108075,1,2,0:0:0:0:
288,80,108223,2,0,P|244:80|212:104,1,63.7500024318696,10|0,0:0|0:0,0:0:0:0:
224,304,108519,2,0,P|268:304|300:280,1,63.7500024318696,10|0,0:0|0:0,0:0:0:0:
256,192,108815,1,14,0:0:0:0:
256,192,108889,12,0,111185,0:0:0:0:
255,184,114740,5,0,0:0:0:0:
364,56,115036,1,0,0:0:0:0:
148,56,115333,1,0,0:0:0:0:
255,184,115629,1,0,0:0:0:0:
364,56,115925,5,4,0:0:0:0:
148,56,116073,1,4,0:0:0:0:
255,184,116221,2,0,P|284:232|272:280,1,85,4|0,0:0|0:0,0:0:0:0:
160,336,116518,1,2,0:0:0:0:
208,244,116666,1,2,0:0:0:0:
288,72,116814,1,2,0:0:0:0:
336,164,116962,1,2,0:0:0:0:
136,88,117110,5,4,0:0:0:0:
376,88,117258,1,4,0:0:0:0:
256,296,117406,1,4,0:0:0:0:
216,180,117554,2,0,P|256:164|296:180,1,85,0|2,0:0|0:0,0:0:0:0:
376,276,117851,1,2,0:0:0:0:
256,368,117999,1,2,0:0:0:0:
136,276,118147,1,2,0:0:0:0:
256,272,118295,5,4,0:0:0:0:
78,374,118443,1,0,0:0:0:0:
79,170,118591,1,0,0:0:0:0:
287,16,118739,5,4,0:0:0:0:
388,193,118887,1,0,0:0:0:0:
184,192,119036,1,0,0:0:0:0:
432,84,119184,5,4,0:0:0:0:
465,283,119332,1,0,0:0:0:0:
274,212,119480,1,0,0:0:0:0:
468,180,119628,6,0,L|532:168,2,42.5,4|0|0,0:0|0:0|0:0,0:0:0:0:
352,203,119924,1,0,0:0:0:0:
142,271,120072,1,2,0:0:0:0:
272,93,120221,2,0,L|256:144,1,42.5,10|0,0:0|0:0,0:0:0:0:
272,314,120369,2,0,L|252:256,1,42.5,10|0,0:0|0:0,0:0:0:0:
142,135,120517,2,0,L|200:176,1,42.5,10|0,0:0|0:0,0:0:0:0:
344,124,120665,2,0,P|344:56|312:28,1,85,6|0,0:0|0:0,0:0:0:0:
168,260,120961,2,0,P|168:328|200:356,1,85,10|0,0:0|0:0,0:0:0:0:
272,92,121257,5,2,0:0:0:0:
240,292,121405,1,2,0:0:0:0:
272,92,121554,1,10,0:0:0:0:
240,292,121702,1,2,0:0:0:0:
180,124,121850,2,0,P|120:132|100:176,1,85,6|0,0:0|0:0,0:0:0:0:
332,260,122146,2,0,P|392:252|412:208,1,85,10|0,0:0|0:0,0:0:0:0:
336,32,122442,5,2,0:0:0:0:
180,260,122590,1,2,0:0:0:0:
432,192,122739,1,10,0:0:0:0:
176,32,122887,1,2,0:0:0:0:
332,260,123035,1,2,0:0:0:0:
80,192,123183,1,2,0:0:0:0:
256,340,123331,2,0,P|308:368|352:364,1,85,10|0,0:0|0:0,0:0:0:0:
324,160,123627,5,2,0:0:0:0:
8,52,123775,1,2,0:0:0:0:
188,160,123924,1,10,0:0:0:0:
504,52,124072,1,2,0:0:0:0:
392,308,124220,1,2,0:0:0:0:
256,104,124368,1,2,0:0:0:0:
120,308,124516,2,0,P|152:348|212:348,1,85,10|0,0:0|0:0,0:0:0:0:
272,248,124812,5,2,0:0:0:0:
384,164,124960,2,0,L|432:152,1,42.5,2|0,0:0|0:0,0:0:0:0:
348,48,125108,2,0,L|312:100,1,42.5,10|8,0:0|0:0,0:0:0:0:
224,96,125257,2,0,L|200:60,1,42.5,2|0,0:0|0:0,0:0:0:0:
104,68,125405,2,0,P|64:124|64:148,1,85,6|0,0:0|0:0,0:0:0:0:
120,308,125701,2,0,P|160:252|160:228,1,85,10|0,0:0|0:0,0:0:0:0:
168,24,125997,5,2,0:0:0:0:
292,136,126145,1,2,0:0:0:0:
220,248,126293,1,10,0:0:0:0:
344,360,126442,1,2,0:0:0:0:
436,72,126590,2,0,P|476:128|476:152,1,85,6|0,0:0|0:0,0:0:0:0:
420,312,126886,2,0,P|380:256|380:232,1,85,10|0,0:0|0:0,0:0:0:0:
220,136,127182,5,2,0:0:0:0:
396,140,127330,1,2,0:0:0:0:
220,272,127478,1,10,0:0:0:0:
220,4,127626,1,2,0:0:0:0:
288,156,127775,2,0,P|236:204|152:160,1,170,6|0,0:0|0:0,0:0:0:0:
312,84,128219,1,2,0:0:0:0:
84,200,128367,6,0,P|76:156|104:104,2,85,2|2|2,0:0|0:0|0:0,0:0:0:0:
172,304,128811,1,2,0:0:0:0:
228,180,128960,2,0,L|312:132,1,85,2|0,0:0|0:0,0:0:0:0:
232,0,129256,2,0,L|148:48,1,85,2|0,0:0|0:0,0:0:0:0:
136,200,129552,6,0,L|96:156,1,42.5
192,300,129700,2,0,L|172:348,1,42.5
320,300,129848,2,0,L|340:348,1,42.5
376,200,129996,2,0,L|416:156,1,42.5
356,76,130145,6,0,P|256:36|156:76,1,220.999989883423,6|8,0:0|0:0,0:0:0:0:
256,224,130589,1,0,0:0:0:0:
404,320,130737,2,0,B|448:288|432:236|432:236|464:220|464:220|440:168|480:128,1,220.999989883423,2|8,0:0|0:0,0:0:0:0:
504,312,131181,1,0,0:0:0:0:
336,256,131329,2,0,B|280:200|176:296|112:220,1,220.999989883423,2|8,0:0|0:0,0:0:0:0:
208,80,131774,1,0,0:0:0:0:
364,160,131922,2,0,P|456:120|456:56,2,165.749992412568,2|2|2,0:0|0:0|0:0,0:0:0:0:
225,32,132514,6,0,P|323:0|384:84,1,220.999989883423,6|8,0:0|0:0,0:0:0:0:
236,264,132959,1,0,0:0:0:0:
296,84,133107,2,0,B|312:152|268:184|268:184|336:216|316:288,1,220.999989883423,2|8,0:0|0:0,0:0:0:0:
216,116,133551,1,0,0:0:0:0:
384,168,133699,2,0,L|132:200,1,220.999989883423,2|8,0:0|0:0,0:0:0:0:
64,340,134144,1,2,0:0:0:0:
240,352,134292,1,2,0:0:0:0:
376,236,134440,6,0,L|404:184,1,55.2499974708558,2|0,0:0|0:0,0:0:0:0:
296,88,134588,2,0,L|324:140,1,55.2499974708558,2|0,0:0|0:0,0:0:0:0:
212,232,134736,2,0,L|240:180,1,55.2499974708558,2|0,0:0|0:0,0:0:0:0:
132,84,134884,2,0,P|188:28|296:92,1,220.999989883423,6|8,0:0|0:0,0:0:0:0:
412,220,135329,1,0,0:0:0:0:
260,316,135477,2,0,B|203:282|223:217|223:217|163:253|121:211,1,220.999989883423,2|8,0:0|0:0,0:0:0:0:
124,40,135921,1,0,0:0:0:0:
272,140,136069,2,0,B|328:173|308:238|308:238|368:202|410:244,1,220.999989883423,2|8,0:0|0:0,0:0:0:0:
260,316,136514,1,2,0:0:0:0:
384,136,136662,6,0,P|424:96|400:24,1,110.499994941712,2|0,0:0|0:0,0:0:0:0:
256,28,136958,1,10,0:0:0:0:
92,44,137106,2,0,B|72:116|136:152|136:152|184:112|236:144,2,220.999989883423,2|0|0,0:0|0:0|0:0,0:0:0:0:
192,208,137847,5,2,0:0:0:0:
320,264,137995,1,2,0:0:0:0:
192,312,138143,1,10,0:0:0:0:
320,368,138291,1,2,0:0:0:0:
192,208,138439,2,0,P|148:164|80:180,1,110.499994941712,2|0,0:0|0:0,0:0:0:0:
320,264,138735,2,0,P|364:308|432:292,1,110.499994941712,10|0,0:0|0:0,0:0:0:0:
388,236,139032,6,0,L|424:132,2,95.6250036478044,10|2|2,0:0|0:0|0:0,0:0:0:0:
320,264,139624,6,0,P|208:276|184:168,1,237.999992736817,14|0,0:0|0:0,0:0:0:0:
284,24,140068,1,0,0:0:0:0:
260,200,140217,2,0,P|176:260|96:168,1,237.999992736817,10|0,0:0|0:0,0:0:0:0:
284,96,140661,1,0,0:0:0:0:
372,248,140809,2,0,B|312:248|312:248|288:280|232:280|208:248|208:248|148:248,1,237.999992736817,2|0,0:0|0:0,0:0:0:0:
136,72,141253,1,0,0:0:0:0:
260,200,141402,6,0,L|260:380,2,178.499994552612,10|2|2,0:0|0:0|0:0,0:0:0:0:
440,224,141994,2,0,P|460:296|320:304,1,237.999992736817,6|0,0:0|0:0,0:0:0:0:
260,160,142438,1,0,0:0:0:0:
72,224,142587,2,0,P|52:296|192:304,1,237.999992736817,10|0,0:0|0:0,0:0:0:0:
388,276,143031,1,0,0:0:0:0:
124,276,143179,2,0,P|24:280|44:156,1,237.999992736817,2|0,0:0|0:0,0:0:0:0:
196,220,143623,1,0,0:0:0:0:
316,88,143771,2,0,P|371:43|468:96,2,178.499994552612,10|2|2,0:0|0:0|0:0,0:0:0:0:
284,252,144364,6,0,B|272:296|208:336|147:300|147:300|100:387,1,237.999992736817,6|0,0:0|0:0,0:0:0:0:
196,220,144808,1,0,0:0:0:0:
113,68,144956,2,0,B|147:131|147:131|208:96|272:136|284:180,1,237.999992736817,10|0,0:0|0:0,0:0:0:0:
304,360,145401,1,0,0:0:0:0:
196,220,145549,2,0,P|208:116|348:104,1,237.999992736817,2|0,0:0|0:0,0:0:0:0:
392,252,145993,1,2,0:0:0:0:
216,288,146141,6,0,P|144:272|124:220,1,118.999996368408,10|0,0:0|0:0,0:0:0:0:
28,84,146438,1,2,0:0:0:0:
198,34,146586,2,0,P|260:128|196:220,2,237.999992736817,2|0|0,0:0|0:0|0:0,0:0:0:0:
96,204,147326,5,10,0:0:0:0:
217,348,147474,1,10,0:0:0:0:
391,277,147623,1,10,0:0:0:0:
378,90,147771,1,10,0:0:0:0:
196,44,147919,1,10,0:0:0:0:
256,192,148067,5,10,0:0:0:0:
256,192,148215,1,14,0:0:0:0:
