osu file format v14

[General]
AudioFilename: Nightcore - Make A Move.mp3
AudioLeadIn: 0
PreviewTime: 79784
Countdown: 0
SampleSet: None
StackLeniency: 0.3
Mode: 0
LetterboxInBreaks: 0
WidescreenStoryboard: 0

[Editor]
DistanceSpacing: 1.2
BeatDivisor: 4
GridSize: 4
TimelineZoom: 2.2

[Metadata]
Title:Make A Move (Nightcore Mix)
TitleUnicode:Make A Move (Nightcore Mix)
Artist:Icon For Hire
ArtistUnicode:Icon For Hire
Creator:NeruKiromaMoge
Version:Insane
Source:
Tags:
BeatmapID:1194859
BeatmapSetID:565316

[Difficulty]
HPDrainRate:6
CircleSize:4
OverallDifficulty:8
ApproachRate:9
SliderMultiplier:1.6
SliderTickRate:2

[Events]
//Background and Video events
0,0,"Anime-brides-graphics-code-anime-brides-comments-pictures.jpg",0,0
//Break Periods
2,111385,114140
//Storyboard Layer 0 (Background)
//Storyboard Layer 1 (Fail)
//Storyboard Layer 2 (Pass)
//Storyboard Layer 3 (Foreground)
//Storyboard Sound Samples

[TimingPoints]
9280,296.237780191567,4,2,0,40,1,0
9280,-111.111111111111,4,2,0,40,0,0
18759,-100,4,1,1,40,0,0
25869,-133.333333333333,4,2,0,50,0,0
28239,-100,4,1,1,40,0,0
30609,-100,4,1,1,50,0,1
39496,-200,4,1,1,40,0,0
40088,-93.0232558139535,4,1,1,50,0,1
48975,-100,4,1,1,40,0,0
63195,-133.333333333333,4,1,1,40,0,0
63787,-100,4,1,1,40,0,0
70897,-100,4,1,1,50,0,1
79784,-200,4,1,1,40,0,0
80377,-86.9565217391304,4,1,1,50,0,1
89264,-100,4,1,1,40,0,0
99336,-133.333333333333,4,1,1,40,0,0
111185,-200,4,1,1,5,0,0
114740,-100,4,1,1,40,0,0
120665,-100,4,1,1,50,0,1
129552,-100,4,1,1,40,0,0
130145,-81.6326530612245,4,1,1,50,0,1
139032,-133.333333333333,4,1,1,40,0,0
139624,-76.9230769230769,4,1,1,50,0,1
148215,-100,4,1,1,40,0,0

[Colours]
Combo1 : 162,68,255
Combo2 : 255,168,255
Combo3 : 209,165,165
Combo4 : 255,255,155
Combo5 : 255,157,157

[HitObjects]
49,189,9279,6,0,P|137:211|196:160,1,160,4|0,0:0|0:0,0:0:0:0:
240,120,9724,1,0,0:0:0:0:
308,100,9872,1,8,0:0:0:0:
372,132,10020,1,0,0:0:0:0:
404,196,10168,2,0,P|376:204|328:188,1,71.9999978027344,0|0,0:0|0:0,0:0:0:0:
268,164,10464,5,2,0:0:0:0:
195,71,10613,1,2,0:0:0:0:
199,188,10761,1,2,0:0:0:0:
264,91,10909,1,2,0:0:0:0:
155,131,11057,2,0,P|132:160|132:212,1,71.9999978027344,12|0,0:0|0:0,0:0:0:0:
140,328,11353,2,0,P|163:299|163:247,1,71.9999978027344,0|0,0:0|0:0,0:0:0:0:
200,188,11649,6,0,P|234:168|280:176,2,71.9999978027344,0|0|0,0:0|0:0|0:0,0:0:0:0:
248,240,12094,1,0,0:0:0:0:
316,220,12242,1,8,0:0:0:0:
336,152,12390,1,0,0:0:0:0:
284,100,12538,2,0,L|264:172,1,71.9999978027344,0|0,0:0|0:0,0:0:0:0:
248,240,12834,5,2,0:0:0:0:
321,147,12983,1,2,0:0:0:0:
317,264,13131,1,2,0:0:0:0:
252,167,13279,1,2,0:0:0:0:
361,207,13427,2,0,L|424:280,1,71.9999978027344,12|0,0:0|0:0,0:0:0:0:
480,384,13723,2,0,L|417:311,1,71.9999978027344,0|0,0:0|0:0,0:0:0:0:
360,316,14019,5,0,0:0:0:0:
288,324,14167,1,0,0:0:0:0:
224,360,14316,2,0,P|176:356|148:320,2,71.9999978027344,0|0|8,0:0|0:0|0:0,0:0:0:0:
288,324,14760,1,0,0:0:0:0:
312,240,14908,1,2,0:0:0:0:
272,148,15056,5,2,0:0:0:0:
160,124,15204,2,0,P|96:140|72:176,1,71.9999978027344,2|2,0:0|0:0,0:0:0:0:
128,268,15500,2,0,P|192:252|216:216,1,71.9999978027344,2|2,0:0|0:0,0:0:0:0:
68,216,15797,1,12,0:0:0:0:
68,216,15945,2,0,P|52:300|120:348,1,143.999995605469
128,268,16389,5,0,0:0:0:0:
196,244,16537,2,0,P|232:236|280:260,1,71.9999978027344,2|0,0:0|0:0,0:0:0:0:
324,288,16834,1,0,0:0:0:0:
304,220,16982,1,10,0:0:0:0:
320,148,17130,1,0,0:0:0:0:
376,100,17278,2,0,P|336:96|300:52,1,71.9999978027344,0|0,0:0|0:0,0:0:0:0:
392,172,17574,6,0,P|312:168|252:124,1,143.999995605469,2|0,0:0|0:0,0:0:0:0:
208,84,18019,1,0,0:0:0:0:
208,84,18167,2,0,P|144:68|92:108,2,107.999996704102,12|4|4,0:0|0:0|0:0,0:0:0:0:
160,148,18759,5,4,0:0:0:0:
188,224,18907,1,0,0:0:0:0:
108,212,19055,1,2,0:0:0:0:
240,160,19203,1,0,0:0:0:0:
368,208,19352,1,8,0:0:0:0:
288,220,19500,1,0,0:0:0:0:
316,144,19648,2,0,P|364:124|408:136,1,80,2|0,0:0|0:0,0:0:0:0:
448,184,19944,5,0,0:0:0:0:
448,184,20092,1,0,0:0:0:0:
368,208,20240,2,0,P|312:224|292:264,1,80,2|0,0:0|0:0,0:0:0:0:
200,344,20537,2,0,P|256:328|276:288,1,80,10|0,0:0|0:0,0:0:0:0:
376,140,20833,5,0,0:0:0:0:
296,128,20981,1,0,0:0:0:0:
228,172,21129,2,0,P|212:236|224:256,1,80,2|0,0:0|0:0,0:0:0:0:
376,140,21425,1,0,0:0:0:0:
296,128,21573,1,0,0:0:0:0:
228,172,21721,2,0,P|180:188|136:176,1,80,10|0,0:0|0:0,0:0:0:0:
76,160,22018,1,2,0:0:0:0:
76,160,22166,1,2,0:0:0:0:
170,45,22314,5,2,0:0:0:0:
300,204,22462,1,2,0:0:0:0:
154,129,22610,1,2,0:0:0:0:
164,288,22758,1,2,0:0:0:0:
300,204,22906,1,12,0:0:0:0:
208,208,23055,1,0,0:0:0:0:
208,208,23129,1,0,0:0:0:0:
208,208,23203,2,0,L|112:212,1,80,0|0,0:0|0:0,0:0:0:0:
68,264,23499,5,0,0:0:0:0:
116,136,23647,1,0,0:0:0:0:
180,284,23795,2,0,P|240:284|288:200,1,160,2|8,0:0|0:0,0:0:0:0:
288,124,24240,1,0,0:0:0:0:
340,64,24388,1,2,0:0:0:0:
420,52,24536,1,0,0:0:0:0:
420,52,24684,2,0,P|476:56|504:80,1,80,2|0,0:0|0:0,0:0:0:0:
440,128,24980,1,0,0:0:0:0:
440,128,25128,2,0,B|344:180|288:104|200:140,1,240,2|0,0:0|0:0,0:0:0:0:
136,176,25721,1,0,0:0:0:0:
136,176,25869,6,0,L|92:248,2,60.0000022888184,2|0|2,0:0|0:0|0:0,0:0:0:0:
196,72,26461,2,0,L|152:0,2,60.0000022888184,2|0|2,0:0|0:0|0:0,0:0:0:0:
256,116,26906,1,0,0:0:0:0:
256,116,27054,2,0,P|320:104|368:136,2,120.000004577637,2|2|2,0:0|0:0|0:0,0:0:0:0:
277,256,28239,5,4,0:0:0:0:
277,256,28387,1,0,0:0:0:0:
277,256,28535,1,0,0:0:0:0:
200,151,28683,5,4,0:0:0:0:
200,151,28831,1,0,0:0:0:0:
200,151,28979,1,0,0:0:0:0:
324,192,29127,5,4,0:0:0:0:
324,192,29276,1,0,0:0:0:0:
324,192,29424,1,0,0:0:0:0:
200,231,29572,5,4,0:0:0:0:
200,231,29720,1,0,0:0:0:0:
200,231,29868,5,2,0:0:0:0:
277,127,30016,1,10,0:0:0:0:
277,256,30164,1,2,0:0:0:0:
200,151,30312,1,10,0:0:0:0:
324,192,30461,1,2,0:0:0:0:
132,188,30609,2,0,P|56:204|40:232,1,80,4|0,0:0|0:0,0:0:0:0:
84,332,30905,2,0,P|160:316|176:288,1,80,0|0,0:0|0:0,0:0:0:0:
108,260,31201,5,10,0:0:0:0:
16,280,31349,1,2,0:0:0:0:
4,184,31497,1,2,0:0:0:0:
96,164,31645,1,10,0:0:0:0:
240,212,31794,2,0,P|164:196|148:168,1,80,12|0,0:0|0:0,0:0:0:0:
192,68,32090,2,0,P|268:84|284:112,1,80,0|0,0:0|0:0,0:0:0:0:
216,140,32386,5,10,0:0:0:0:
40,40,32534,1,2,0:0:0:0:
92,256,32682,1,2,0:0:0:0:
192,68,32830,1,10,0:0:0:0:
360,192,32979,1,10,0:0:0:0:
360,192,33127,1,2,0:0:0:0:
360,192,33275,2,0,P|288:216|260:204,1,80,2|0,0:0|0:0,0:0:0:0:
144,124,33571,5,10,0:0:0:0:
328,52,33719,1,2,0:0:0:0:
192,240,33867,1,2,0:0:0:0:
216,32,34015,1,10,0:0:0:0:
68,220,34163,1,10,0:0:0:0:
68,220,34312,1,2,0:0:0:0:
68,220,34460,2,0,L|28:316,1,80,2|0,0:0|0:0,0:0:0:0:
80,360,34756,5,10,0:0:0:0:
160,292,34904,1,2,0:0:0:0:
256,256,35052,1,2,0:0:0:0:
352,292,35200,1,10,0:0:0:0:
432,360,35348,2,0,P|464:296|448:264,1,80,12|0,0:0|0:0,0:0:0:0:
488,132,35645,2,0,P|456:196|472:228,1,80,0|0,0:0|0:0,0:0:0:0:
396,252,35941,5,10,0:0:0:0:
340,164,36089,1,2,0:0:0:0:
260,232,36237,1,2,0:0:0:0:
204,144,36385,1,10,0:0:0:0:
124,212,36533,2,0,L|116:304,1,80,12|0,0:0|0:0,0:0:0:0:
204,144,36830,2,0,L|210:64,1,80,0|0,0:0|0:0,0:0:0:0:
356,12,37126,5,10,0:0:0:0:
156,12,37274,1,2,0:0:0:0:
300,64,37422,2,0,L|307:144,1,80,2|10,0:0|0:0,0:0:0:0:
377,180,37718,2,0,P|321:220|237:184,1,160,8|0,0:0|0:0,0:0:0:0:
212,116,38163,1,2,0:0:0:0:
156,60,38311,2,0,P|96:29|66:40,2,80,10|2|2,0:0|0:0|0:0,0:0:0:0:
212,116,38755,1,2,0:0:0:0:
148,160,38903,2,0,P|120:224|136:256,1,80,2|2,0:0|0:0,0:0:0:0:
200,216,39200,2,0,P|216:284|248:304,1,80,8|0,0:0|0:0,0:0:0:0:
276,232,39496,6,0,L|340:212,2,60,8|8|8,0:0|0:0|0:0,0:0:0:0:
192,252,40088,6,0,P|112:256|48:172,1,172.000002624512,6|8,0:0|0:0,0:0:0:0:
148,160,40533,1,0,0:0:0:0:
244,128,40681,2,0,P|187:66|104:69,1,172.000002624512,2|8,0:0|0:0,0:0:0:0:
40,152,41125,1,0,0:0:0:0:
148,160,41273,2,0,L|216:0,1,172.000002624512,2|8,0:0|0:0,0:0:0:0:
272,64,41718,1,0,0:0:0:0:
100,84,41866,2,0,L|64:162,1,86.0000013122559,2|0,0:0|0:0,0:0:0:0:
64,184,42088,1,2,0:0:0:0:
64,204,42162,1,0,0:0:0:0:
132,288,42310,1,2,0:0:0:0:
232,236,42458,6,0,P|352:208|408:240,1,172.000002624512,6|8,0:0|0:0,0:0:0:0:
308,112,42902,1,0,0:0:0:0:
232,236,43051,2,0,P|176:268|76:236,1,172.000002624512,2|8,0:0|0:0,0:0:0:0:
116,124,43495,1,0,0:0:0:0:
232,156,43643,2,0,L|232:348,1,172.000002624512,2|8,0:0|0:0,0:0:0:0:
148,328,44087,5,2,0:0:0:0:
148,240,44236,1,2,0:0:0:0:
148,208,44310,1,0,0:0:0:0:
148,176,44384,1,2,0:0:0:0:
148,144,44458,1,0,0:0:0:0:
148,112,44532,1,10,0:0:0:0:
124,128,44606,1,0,0:0:0:0:
96,140,44680,1,2,0:0:0:0:
66,146,44754,1,0,0:0:0:0:
36,152,44828,6,0,P|116:108|136:28,1,172.000002624512,6|8,0:0|0:0,0:0:0:0:
224,104,45272,1,0,0:0:0:0:
352,208,45421,2,0,B|300:216|272:180|272:180|228:204|184:184,1,172.000002624512,2|8,0:0|0:0,0:0:0:0:
336,128,45865,1,0,0:0:0:0:
252,264,46013,2,0,B|200:284|200:284|148:260|148:260|64:288,2,172.000002624512,2|8|2,0:0|0:0|0:0,0:0:0:0:
204,192,46754,5,0,0:0:0:0:
144,348,46902,1,10,0:0:0:0:
252,264,47050,1,2,0:0:0:0:
252,264,47124,1,0,0:0:0:0:
252,264,47198,2,0,P|296:252|364:280,1,86.0000013122559,0|0,0:0|0:0,0:0:0:0:
168,324,47494,2,0,P|124:336|56:308,1,86.0000013122559,8|0,0:0|0:0,0:0:0:0:
130,171,47790,6,0,P|139:212|124:252,2,86.0000013122559,2|2|10,0:0|0:0|0:0,0:0:0:0:
52,204,48235,1,2,0:0:0:0:
68,304,48383,1,2,0:0:0:0:
104,324,48457,1,0,0:0:0:0:
148,324,48531,1,2,0:0:0:0:
184,300,48605,1,0,0:0:0:0:
200,260,48679,1,2,0:0:0:0:
192,220,48753,1,0,0:0:0:0:
168,184,48827,1,0,0:0:0:0:
160,144,48901,1,0,0:0:0:0:
176,104,48975,1,4,0:0:0:0:
176,104,49420,5,0,0:0:0:0:
176,104,49568,2,0,L|96:64,2,80,0|0|10,0:0|0:0|0:0,0:0:0:0:
248,140,50012,1,0,0:0:0:0:
320,176,50160,2,0,L|400:136,2,80,0|0|10,0:0|0:0|0:0,0:0:0:0:
248,212,50605,1,0,0:0:0:0:
192,268,50753,5,0,0:0:0:0:
204,348,50901,1,0,0:0:0:0:
128,320,51049,1,8,0:0:0:0:
52,344,51197,2,0,L|64:256,1,80,2|0,0:0|0:0,0:0:0:0:
104,196,51493,1,0,0:0:0:0:
104,196,51642,1,8,0:0:0:0:
104,196,51790,1,0,0:0:0:0:
180,224,51938,6,0,P|232:232|284:212,1,80,2|0,0:0|0:0,0:0:0:0:
312,164,52234,1,8,0:0:0:0:
180,224,52382,2,0,P|147:265|138:320,1,80,0|2,0:0|0:0,0:0:0:0:
165,368,52678,1,0,0:0:0:0:
180,224,52826,2,0,P|160:174|117:139,1,80,8|0,0:0|0:0,0:0:0:0:
62,139,53122,1,2,0:0:0:0:
139,290,53271,5,0,0:0:0:0:
260,224,53419,1,8,0:0:0:0:
142,155,53567,2,0,B|96:140|64:176|64:176|88:216|56:268,1,160,0|0,0:0|0:0,0:0:0:0:
67,246,53937,1,0,0:0:0:0:
67,246,54011,1,8,0:0:0:0:
180,224,54160,1,0,0:0:0:0:
216,208,54234,1,0,0:0:0:0:
256,216,54308,6,0,P|300:220|356:188,1,80,2|0,0:0|0:0,0:0:0:0:
400,160,54604,1,8,0:0:0:0:
372,236,54752,1,0,0:0:0:0:
396,312,54900,2,0,P|324:252|264:288,2,160,2|8|2,0:0|0:0|0:0,0:0:0:0:
274,390,55641,2,0,L|324:328,1,80,2|8,0:0|0:0,0:0:0:0:
260,176,55937,2,0,L|161:302,1,160,2|0,0:0|0:0,0:0:0:0:
88,332,56381,1,8,0:0:0:0:
88,332,56529,1,0,0:0:0:0:
224,340,56678,6,0,L|274:278,1,80,2|0,0:0|0:0,0:0:0:0:
168,176,56974,2,0,L|218:114,1,80,10|0,0:0|0:0,0:0:0:0:
352,180,57270,2,0,L|402:118,1,80,2|0,0:0|0:0,0:0:0:0:
428,12,57566,1,10,0:0:0:0:
360,56,57714,1,2,0:0:0:0:
280,56,57862,1,2,0:0:0:0:
204,28,58011,1,2,0:0:0:0:
124,44,58159,1,10,0:0:0:0:
92,116,58307,2,0,P|84:156|116:216,1,80,2|0,0:0|0:0,0:0:0:0:
95,192,59047,6,0,L|144:200,1,40,6|0,0:0|0:0,0:0:0:0:
180,260,59196,2,0,L|228:267,1,40,6|0,0:0|0:0,0:0:0:0:
276,320,59344,2,0,B|316:288|300:236|288:220|288:220|296:140,1,160,6|0,0:0|0:0,0:0:0:0:
164,167,59788,2,0,B|152:256|152:256|184:244|219:265,1,160,2|0,0:0|0:0,0:0:0:0:
228,272,60158,1,0,0:0:0:0:
236,280,60232,2,0,B|280:316|336:292|336:292|372:316|372:316|412:292|412:292|472:328|528:284,1,320,0|8,0:0|0:0,0:0:0:0:
324,120,61417,6,0,L|260:104,1,40,6|0,0:0|0:0,0:0:0:0:
176,140,61565,2,0,L|240:156,1,40,6|0,0:0|0:0,0:0:0:0:
300,216,61714,2,0,B|368:244|368:244|344:292|384:336,1,160,6|8,0:0|0:0,0:0:0:0:
512,318,62158,2,0,B|488:276|432:280|432:280|460:216,1,160,2|0,0:0|0:0,0:0:0:0:
464,208,62528,1,0,0:0:0:0:
468,196,62602,2,0,B|372:264|320:136|224:220,1,240,2|0,0:0|0:0,0:0:0:0:
296,284,63195,6,0,L|400:320,2,90.0000034332277,2|2|2,0:0|0:0|0:0,0:0:0:0:
220,276,63787,6,0,P|196:272|160:288,1,40,6|0,0:0|0:0,0:0:0:0:
104,292,63935,2,0,P|84:295|64:290,1,40,6|0,0:0|0:0,0:0:0:0:
0,248,64083,2,0,P|40:176|16:76,1,160,6|8,0:0|0:0,0:0:0:0:
68,28,64528,2,0,P|208:36|232:20,1,160,2|0,0:0|0:0,0:0:0:0:
240,24,64898,1,0,0:0:0:0:
260,20,64972,2,0,B|252:128|252:128|312:92|352:152|352:152|332:212|268:200,1,320,2|8,0:0|0:0,0:0:0:0:
280,201,66009,1,10,0:0:0:0:
281,201,66157,6,0,L|233:296,1,80,14|0,0:0|0:0,0:0:0:0:
121,192,66453,2,0,L|227:187,1,80,10|0,0:0|0:0,0:0:0:0:
197,332,66750,2,0,L|139:242,1,80,10|0,0:0|0:0,0:0:0:0:
281,201,67046,1,10,0:0:0:0:
197,332,67194,1,0,0:0:0:0:
121,192,67342,2,0,P|113:108|177:64,1,160,10|0,0:0|0:0,0:0:0:0:
185,144,67786,1,10,0:0:0:0:
32,184,67935,5,2,0:0:0:0:
52,220,68083,1,2,0:0:0:0:
72,256,68231,1,2,0:0:0:0:
96,288,68379,1,2,0:0:0:0:
120,320,68527,5,4,0:0:0:0:
159,247,68675,1,0,0:0:0:0:
116,177,68823,1,0,0:0:0:0:
242,245,68971,5,4,0:0:0:0:
159,247,69120,1,0,0:0:0:0:
120,320,69268,1,0,0:0:0:0:
116,177,69416,5,4,0:0:0:0:
159,247,69564,1,0,0:0:0:0:
242,245,69712,1,8,0:0:0:0:
120,320,69860,5,12,0:0:0:0:
116,177,70008,1,8,0:0:0:0:
202,317,70156,5,10,0:0:0:0:
76,249,70304,1,10,0:0:0:0:
199,174,70452,1,10,0:0:0:0:
120,320,70601,1,10,0:0:0:0:
116,177,70749,1,10,0:0:0:0:
242,245,70897,2,0,P|282:292|283:325,1,80,4|0,0:0|0:0,0:0:0:0:
304,168,71193,2,0,P|264:121|263:88,1,80,0|0,0:0|0:0,0:0:0:0:
268,8,71489,5,10,0:0:0:0:
188,60,71637,1,2,0:0:0:0:
96,40,71785,1,2,0:0:0:0:
96,40,71933,1,10,0:0:0:0:
124,132,72082,2,0,L|144:228,1,80,12|0,0:0|0:0,0:0:0:0:
232,344,72378,2,0,L|212:248,1,80,0|0,0:0|0:0,0:0:0:0:
228,172,72674,5,10,0:0:0:0:
128,304,72822,1,2,0:0:0:0:
124,132,72970,1,2,0:0:0:0:
124,132,73118,1,10,0:0:0:0:
228,172,73267,1,10,0:0:0:0:
37,202,73415,1,2,0:0:0:0:
106,21,73563,2,0,P|176:24|196:48,1,80,2|0,0:0|0:0,0:0:0:0:
256,88,73859,5,10,0:0:0:0:
144,232,74007,1,2,0:0:0:0:
355,192,74156,1,2,0:0:0:0:
355,192,74304,1,10,0:0:0:0:
422,281,74453,1,10,0:0:0:0:
244,205,74601,1,2,0:0:0:0:
399,88,74749,2,0,P|432:60|432:8,1,80,2|0,0:0|0:0,0:0:0:0:
452,148,75044,5,10,0:0:0:0:
440,252,75192,1,2,0:0:0:0:
344,208,75340,1,2,0:0:0:0:
248,244,75488,1,10,0:0:0:0:
216,344,75636,2,0,P|152:356|120:336,1,80,12|0,0:0|0:0,0:0:0:0:
312,320,75933,2,0,P|376:308|408:328,1,80,0|0,0:0|0:0,0:0:0:0:
480,356,76229,5,10,0:0:0:0:
440,260,76377,1,2,0:0:0:0:
468,160,76525,1,2,0:0:0:0:
368,132,76673,1,10,0:0:0:0:
308,48,76821,2,0,P|256:32|204:60,1,80,12|0,0:0|0:0,0:0:0:0:
64,88,77118,2,0,P|116:104|168:76,1,80,0|0,0:0|0:0,0:0:0:0:
260,112,77414,5,10,0:0:0:0:
112,24,77562,1,2,0:0:0:0:
196,176,77710,2,0,P|232:200|272:200,1,80,2|10,0:0|0:0,0:0:0:0:
176,92,78006,2,0,P|116:132|132:232,1,160,12|0,0:0|0:0,0:0:0:0:
196,176,78451,1,2,0:0:0:0:
260,112,78599,2,0,P|260:60|224:24,2,80,10|2|2,0:0|0:0|0:0,0:0:0:0:
176,92,79043,1,2,0:0:0:0:
92,116,79192,2,0,L|16:148,1,80,2|2,0:0|0:0,0:0:0:0:
80,208,79488,2,0,L|30:273,1,80,10|0,0:0|0:0,0:0:0:0:
108,300,79784,6,0,L|101:368,2,60,8|8|8,0:0|0:0|0:0,0:0:0:0:
172,232,80377,6,0,B|260:192|264:280|380:216,1,184.000003509522,6|8,0:0|0:0,0:0:0:0:
304,152,80821,1,0,0:0:0:0:
260,72,80969,2,0,B|344:36|350:110|438:70,1,184.000003509522,2|8,0:0|0:0,0:0:0:0:
508,12,81413,1,0,0:0:0:0:
460,156,81562,2,0,B|436:200|464:244|464:244|416:264|412:320,1,184.000003509522,2|8,0:0|0:0,0:0:0:0:
504,328,82006,1,0,0:0:0:0:
376,220,82154,2,0,P|328:200|268:228,1,92.0000017547608,2|0,0:0|0:0,0:0:0:0:
272,220,82376,1,2,0:0:0:0:
248,220,82450,1,0,0:0:0:0:
148,176,82598,1,2,0:0:0:0:
252,144,82746,6,0,P|364:128|428:164,1,184.000003509522,6|8,0:0|0:0,0:0:0:0:
328,252,83190,1,0,0:0:0:0:
200,198,83339,2,0,P|288:128|362:127,1,184.000003509522,2|8,0:0|0:0,0:0:0:0:
328,252,83783,1,0,0:0:0:0:
181,272,83931,2,0,P|223:167|286:129,1,184.000003509522,2|8,0:0|0:0,0:0:0:0:
328,252,84375,5,2,0:0:0:0:
201,344,84524,1,2,0:0:0:0:
187,314,84598,1,0,0:0:0:0:
180,283,84672,1,2,0:0:0:0:
181,251,84746,1,0,0:0:0:0:
188,220,84820,1,10,0:0:0:0:
203,191,84894,1,0,0:0:0:0:
223,166,84968,1,2,0:0:0:0:
248,146,85042,1,0,0:0:0:0:
277,132,85116,6,0,B|196:184|152:96|88:152,1,184.000003509522,6|8,0:0|0:0,0:0:0:0:
224,56,85560,1,0,0:0:0:0:
140,208,85709,2,0,B|164:296|164:296|216:248|288:296,1,184.000003509522,2|8,0:0|0:0,0:0:0:0:
320,348,86153,1,0,0:0:0:0:
220,352,86301,2,0,B|168:392|120:360|120:360|76:376|36:336,2,184.000003509522,2|8|2,0:0|0:0|0:0,0:0:0:0:
204,192,87042,5,0,0:0:0:0:
96,292,87190,1,10,0:0:0:0:
180,276,87338,1,2,0:0:0:0:
180,276,87412,1,0,0:0:0:0:
180,276,87486,2,0,L|292:260,1,92.0000017547608,0|0,0:0|0:0,0:0:0:0:
408,156,87783,2,0,L|296:140,1,92.0000017547608,0|0,0:0|0:0,0:0:0:0:
333,305,88078,6,0,P|348:265|332:216,2,92.0000017547608,10|0|0,0:0|0:0|0:0,0:0:0:0:
228,380,88523,1,2,0:0:0:0:
272,260,88671,1,10,0:0:0:0:
272,260,88819,1,0,0:0:0:0:
180,276,88967,2,0,P|212:188|300:172,1,184.000003509522,10|12,0:0|0:0,0:0:0:0:
328,180,89412,5,8,0:0:0:0:
368,192,89560,1,8,0:0:0:0:
408,204,89708,1,8,0:0:0:0:
444,216,89856,6,0,P|456:140|504:116,2,120,14|0|0,0:0|0:0|0:0,0:0:0:0:
492,280,90449,2,0,P|456:296|400:280,1,80,10|0,0:0|0:0,0:0:0:0:
344,260,90745,2,0,P|304:254|268:270,1,80,0|0,0:0|0:0,0:0:0:0:
200,312,91041,6,0,B|144:336|144:336|72:304,2,120,10|0|0,0:0|0:0|0:0,0:0:0:0:
144,252,91634,2,0,L|64:216,1,80,10|0,0:0|0:0,0:0:0:0:
124,160,91930,2,0,L|44:124,1,80,0|0,0:0|0:0,0:0:0:0:
196,104,92226,6,0,P|264:64|348:104,1,160,10|0,0:0|0:0,0:0:0:0:
392,144,92670,1,0,0:0:0:0:
336,200,92819,2,0,P|300:224|240:208,1,80,10|0,0:0|0:0,0:0:0:0:
184,212,93115,2,0,P|144:211|112:234,1,80,0|0,0:0|0:0,0:0:0:0:
48,188,93411,6,0,P|108:140|212:140,1,160,10|0,0:0|0:0,0:0:0:0:
268,144,93855,1,0,0:0:0:0:
348,128,94004,2,0,P|404:112|472:136,2,120,10|0|0,0:0|0:0|0:0,0:0:0:0:
380,248,94596,6,0,P|440:220|380:196,1,160,14|0,0:0|0:0,0:0:0:0:
308,212,95040,1,0,0:0:0:0:
248,268,95188,2,0,L|176:332,1,80,10|0,0:0|0:0,0:0:0:0:
168,244,95485,2,0,L|96:180,1,80,0|0,0:0|0:0,0:0:0:0:
88,268,95781,6,0,P|56:324|0:336,2,120,10|0|0,0:0|0:0|0:0,0:0:0:0:
62,121,96373,2,0,B|24:128|12:168|12:168|32:216|8:252,1,160,10|0,0:0|0:0,0:0:0:0:
88,268,96818,1,0,0:0:0:0:
156,224,96966,6,0,P|192:204|256:224,1,80,10|0,0:0|0:0,0:0:0:0:
264,224,97188,2,0,P|312:236|364:204,1,80,10|0,0:0|0:0,0:0:0:0:
376,216,97410,1,10,0:0:0:0:
208,280,97558,2,0,P|144:300|80:236,1,160,10|10,0:0|0:0,0:0:0:0:
96,164,98003,1,2,0:0:0:0:
156,108,98151,5,8,0:0:0:0:
156,108,98225,1,0,0:0:0:0:
156,108,98299,1,8,0:0:0:0:
315,200,98447,1,8,0:0:0:0:
315,200,98521,1,0,0:0:0:0:
315,200,98595,1,8,0:0:0:0:
156,108,98743,5,10,0:0:0:0:
169,189,98891,1,0,0:0:0:0:
238,229,99040,1,0,0:0:0:0:
315,200,99188,1,6,0:0:0:0:
168,268,99336,5,2,0:0:0:0:
216,304,99484,1,0,0:0:0:0:
276,300,99632,1,0,0:0:0:0:
312,252,99780,1,0,0:0:0:0:
308,192,99928,2,0,P|304:160|280:132,1,60.0000022888184,10|0,0:0|0:0,0:0:0:0:
236,188,100224,2,0,P|219:163|216:133,1,60.0000022888184,0|0,0:0|0:0,0:0:0:0:
287,138,100521,2,0,P|283:106|259:78,1,60.0000022888184,2|0,0:0|0:0,0:0:0:0:
216,133,100817,1,0,0:0:0:0:
216,133,100965,1,0,0:0:0:0:
216,133,101113,2,0,P|179:157|116:148,2,90.0000034332277,8|0|0,0:0|0:0|0:0,0:0:0:0:
264,96,101706,5,2,0:0:0:0:
268,156,101854,1,0,0:0:0:0:
304,204,102002,1,0,0:0:0:0:
360,224,102150,1,0,0:0:0:0:
416,200,102298,2,0,L|384:280,1,60.0000022888184,10|0,0:0|0:0,0:0:0:0:
336,208,102594,2,0,L|304:288,1,60.0000022888184,0|0,0:0|0:0,0:0:0:0:
393,255,102891,2,0,L|361:335,1,60.0000022888184,2|0,0:0|0:0,0:0:0:0:
313,263,103187,1,0,0:0:0:0:
313,263,103335,1,0,0:0:0:0:
313,263,103483,2,0,P|264:256|220:284,2,90.0000034332277,10|0|6,0:0|0:0|0:0,0:0:0:0:
280,328,104076,5,2,0:0:0:0:
224,348,104224,1,0,0:0:0:0:
172,320,104372,1,0,0:0:0:0:
120,348,104520,1,0,0:0:0:0:
68,320,104668,2,0,P|52:288|56:256,1,60.0000022888184,10|0,0:0|0:0,0:0:0:0:
112,216,104964,2,0,P|128:248|124:280,1,60.0000022888184,0|0,0:0|0:0,0:0:0:0:
53,264,105261,2,0,P|37:232|41:200,1,60.0000022888184,2|0,0:0|0:0,0:0:0:0:
80,148,105557,1,0,0:0:0:0:
80,148,105705,1,0,0:0:0:0:
80,148,105853,2,0,P|28:136|-16:160,2,90.0000034332277,8|0|0,0:0|0:0|0:0,0:0:0:0:
152,144,106445,6,0,P|188:88|180:56,2,90.0000034332277,2|2|2,0:0|0:0|0:0,0:0:0:0:
116,212,107038,2,0,L|180:240,1,60.0000022888184,10|0,0:0|0:0,0:0:0:0:
244,236,107334,1,2,0:0:0:0:
300,284,107482,1,2,0:0:0:0:
300,284,107630,2,0,P|256:309|184:280,1,120.000004577637,0|2,0:0|0:0,0:0:0:0:
244,236,108075,1,2,0:0:0:0:
292,180,108223,5,10,0:0:0:0:
252,120,108371,2,0,L|268:83,2,30.0000011444092,0|0|10,0:0|0:0|0:0,0:0:0:0:
180,136,108667,1,0,0:0:0:0:
172,208,108815,1,14,0:0:0:0:
256,192,108964,12,0,111185,0:0:0:0:
182,138,114740,5,0,0:0:0:0:
202,265,115036,1,0,0:0:0:0:
329,245,115333,1,0,0:0:0:0:
309,118,115629,1,0,0:0:0:0:
182,138,115925,5,4,0:0:0:0:
202,265,116073,1,4,0:0:0:0:
329,245,116221,2,0,P|412:228|464:296,1,160,4|2,0:0|0:0,0:0:0:0:
384,304,116666,1,2,0:0:0:0:
308,320,116814,2,0,P|264:292|256:256,1,80,2|2,0:0|0:0,0:0:0:0:
309,118,117110,5,4,0:0:0:0:
329,245,117258,1,4,0:0:0:0:
202,265,117406,2,0,P|104:284|88:336,1,160,4|2,0:0|0:0,0:0:0:0:
168,336,117851,1,2,0:0:0:0:
248,328,117999,2,0,P|280:288|276:240,1,80,2|2,0:0|0:0,0:0:0:0:
190,134,118295,5,4,0:0:0:0:
282,104,118443,1,0,0:0:0:0:
338,182,118591,1,0,0:0:0:0:
190,230,118739,5,4,0:0:0:0:
190,134,118887,1,0,0:0:0:0:
282,104,119035,1,0,0:0:0:0:
282,261,119183,5,4,0:0:0:0:
190,230,119331,1,0,0:0:0:0:
190,134,119480,1,0,0:0:0:0:
257,182,119628,5,4,0:0:0:0:
257,182,119702,1,0,0:0:0:0:
257,182,119776,1,0,0:0:0:0:
190,230,119924,5,0,0:0:0:0:
338,182,120072,1,2,0:0:0:0:
190,134,120220,2,0,L|230:160,1,40,10|0,0:0|0:0,0:0:0:0:
282,261,120368,2,0,L|262:198,1,40,10|0,0:0|0:0,0:0:0:0:
282,104,120516,2,0,L|263:156,1,40,10|0,0:0|0:0,0:0:0:0:
190,230,120665,2,0,P|116:252|96:240,1,80,6|0,0:0|0:0,0:0:0:0:
258,182,120961,2,0,P|332:160|352:172,1,80,10|0,0:0|0:0,0:0:0:0:
316,240,121257,5,2,0:0:0:0:
248,308,121405,1,2,0:0:0:0:
220,216,121554,1,10,0:0:0:0:
198,118,121702,1,2,0:0:0:0:
130,186,121850,2,0,P|88:196|44:180,1,80,6|0,0:0|0:0,0:0:0:0:
96,40,122146,2,0,L|92:128,1,80,10|0,0:0|0:0,0:0:0:0:
116,268,122442,5,2,0:0:0:0:
284,164,122590,1,2,0:0:0:0:
40,196,122738,1,10,0:0:0:0:
232,248,122886,1,2,0:0:0:0:
248,68,123035,1,2,0:0:0:0:
388,168,123183,1,2,0:0:0:0:
184,152,123331,2,0,L|80:144,1,80,10|0,0:0|0:0,0:0:0:0:
20,20,123627,5,2,0:0:0:0:
40,196,123775,1,2,0:0:0:0:
168,72,123924,1,10,0:0:0:0:
256,192,124072,1,2,0:0:0:0:
96,288,124221,1,2,0:0:0:0:
76,104,124369,1,2,0:0:0:0:
200,284,124517,2,0,P|244:300|292:288,1,80,10|0,0:0|0:0,0:0:0:0:
368,276,124812,5,2,0:0:0:0:
400,188,124960,1,2,0:0:0:0:
360,100,125108,1,10,0:0:0:0:
324,68,125183,1,8,0:0:0:0:
276,64,125256,1,2,0:0:0:0:
228,80,125331,1,0,0:0:0:0:
200,116,125404,2,0,P|156:136|104:108,1,80,6|0,0:0|0:0,0:0:0:0:
288,156,125701,2,0,P|352:144|384:164,1,80,10|0,0:0|0:0,0:0:0:0:
448,192,125997,5,2,0:0:0:0:
404,276,126145,1,2,0:0:0:0:
332,216,126293,1,10,0:0:0:0:
260,152,126442,1,2,0:0:0:0:
348,120,126589,2,0,L|332:212,1,80,6|0,0:0|0:0,0:0:0:0:
172,176,126886,2,0,L|188:84,1,80,10|0,0:0|0:0,0:0:0:0:
312,48,127182,5,2,0:0:0:0:
200,252,127330,1,2,0:0:0:0:
260,152,127478,2,0,P|320:152|344:176,1,80,10|2,0:0|0:0,0:0:0:0:
344,260,127774,2,0,P|277:289|216:212,1,160,6|0,0:0|0:0,0:0:0:0:
288,216,128219,1,2,0:0:0:0:
144,240,128367,2,0,P|148:208|184:172,2,80,2|2|2,0:0|0:0|0:0,0:0:0:0:
76,280,128811,1,2,0:0:0:0:
80,200,128960,2,0,P|121:212|149:260,1,80,2|0,0:0|0:0,0:0:0:0:
240,384,129256,2,0,P|198:369|170:323,1,80,2|0,0:0|0:0,0:0:0:0:
260,292,129552,5,0,0:0:0:0:
282,259,129626,1,0,0:0:0:0:
281,220,129700,1,0,0:0:0:0:
258,188,129774,1,0,0:0:0:0:
220,176,129848,1,0,0:0:0:0:
182,186,129922,1,0,0:0:0:0:
144,175,129996,1,0,0:0:0:0:
117,146,130070,1,0,0:0:0:0:
110,107,130145,6,0,L|64:300,1,196.000001869202,6|8,0:0|0:0,0:0:0:0:
0,376,130589,1,0,0:0:0:0:
8,228,130737,2,0,P|84:212|152:296,1,196.000001869202,2|8,0:0|0:0,0:0:0:0:
64,297,131181,1,0,0:0:0:0:
298,210,131329,2,0,P|205:204|156:284,1,196.000001869202,2|8,0:0|0:0,0:0:0:0:
248,288,131774,1,0,0:0:0:0:
155,186,131922,2,0,L|155:284,1,98.0000009346008,2|0,0:0|0:0,0:0:0:0:
156,308,132144,1,2,0:0:0:0:
156,332,132218,1,0,0:0:0:0:
76,240,132366,1,2,0:0:0:0:
240,240,132514,6,0,B|328:196|336:296|472:224,1,196.000001869202,6|8,0:0|0:0,0:0:0:0:
384,144,132958,1,0,0:0:0:0:
240,240,133107,2,0,B|152:284|144:184|8:256,1,196.000001869202,2|8,0:0|0:0,0:0:0:0:
96,336,133551,1,0,0:0:0:0:
240,240,133699,2,0,P|268:152|204:184,1,196.000001869202,2|8,0:0|0:0,0:0:0:0:
124,240,134143,5,2,0:0:0:0:
268,312,134292,1,2,0:0:0:0:
313,295,134366,1,0,0:0:0:0:
349,262,134440,1,2,0:0:0:0:
368,217,134514,1,0,0:0:0:0:
368,169,134588,1,2,0:0:0:0:
349,124,134662,1,0,0:0:0:0:
313,91,134736,1,2,0:0:0:0:
267,75,134810,1,0,0:0:0:0:
219,78,134884,6,0,B|168:80|152:140|152:140|104:88|36:128,1,196.000001869202,6|8,0:0|0:0,0:0:0:0:
128,40,135329,1,0,0:0:0:0:
235,153,135477,2,0,P|174:222|88:192,1,196.000001869202,2|8,0:0|0:0,0:0:0:0:
40,100,135921,1,0,0:0:0:0:
152,140,136069,2,0,L|208:348,1,196.000001869202,2|8,0:0|0:0,0:0:0:0:
296,364,136514,1,2,0:0:0:0:
296,364,136662,5,2,0:0:0:0:
276,268,136810,1,0,0:0:0:0:
196,212,136958,1,10,0:0:0:0:
96,224,137106,1,2,0:0:0:0:
96,224,137180,1,0,0:0:0:0:
96,224,137254,2,0,P|56:176|60:120,1,98.0000009346008,0|0,0:0|0:0,0:0:0:0:
212,56,137550,2,0,P|252:104|248:160,1,98.0000009346008,8|0,0:0|0:0,0:0:0:0:
152,140,137846,6,0,L|92:32,2,98.0000009346008,2|2|10,0:0|0:0|0:0,0:0:0:0:
204,224,138291,1,2,0:0:0:0:
308,224,138439,1,2,0:0:0:0:
360,140,138587,1,0,0:0:0:0:
302,59,138735,2,0,P|254:43|210:59,1,98.0000009346008,10|0,0:0|0:0,0:0:0:0:
256,120,139032,6,0,L|256:212,2,90.0000034332277,10|2|2,0:0|0:0|0:0,0:0:0:0:
184,140,139624,6,0,B|184:240|184:240|216:300|292:280,1,207.999990478516,14|0,0:0|0:0,0:0:0:0:
340,176,140068,1,0,0:0:0:0:
256,84,140217,2,0,B|220:32|152:36|120:72|120:72|100:48|60:48,1,207.999990478516,10|0,0:0|0:0,0:0:0:0:
60,144,140660,1,0,0:0:0:0:
184,140,140809,2,0,B|152:184|88:184|60:144|60:144|44:184|-12:188,1,207.999990478516,2|0,0:0|0:0,0:0:0:0:
76,48,141253,1,0,0:0:0:0:
184,140,141401,2,0,P|236:164|300:144,1,103.999995239258,10|0,0:0|0:0,0:0:0:0:
304,144,141623,1,0,0:0:0:0:
324,128,141697,1,0,0:0:0:0:
388,48,141845,1,0,0:0:0:0:
328,216,141994,6,0,P|264:240|120:180,1,207.999990478516,6|0,0:0|0:0,0:0:0:0:
248,80,142437,1,0,0:0:0:0:
328,216,142587,2,0,B|340:248|384:252|384:252|336:292|336:292|384:284|412:336,1,207.999990478516,10|0,0:0|0:0,0:0:0:0:
484,240,143030,1,0,0:0:0:0:
392,172,143178,2,0,B|364:128|308:140|308:140|272:104|272:104|180:124,1,207.999990478516,2|0,0:0|0:0,0:0:0:0:
136,188,143622,5,0,0:0:0:0:
248,184,143771,1,10,0:0:0:0:
272,220,143845,1,0,0:0:0:0:
288,260,143919,1,0,0:0:0:0:
288,300,143993,1,2,0:0:0:0:
272,336,144067,1,0,0:0:0:0:
236,352,144141,1,0,0:0:0:0:
196,336,144215,1,2,0:0:0:0:
180,300,144289,1,0,0:0:0:0:
188,260,144364,6,0,P|252:220|356:300,1,207.999990478516,6|0,0:0|0:0,0:0:0:0:
264,312,144808,1,0,0:0:0:0:
116,232,144956,2,0,B|132:184|188:156|188:156|168:100|204:52,1,207.999990478516,10|0,0:0|0:0,0:0:0:0:
282,119,145400,1,0,0:0:0:0:
374,79,145549,2,0,B|392:124|368:176|368:176|412:204|428:264,1,207.999990478516,2|0,0:0|0:0,0:0:0:0:
440,368,145993,1,2,0:0:0:0:
344,328,146141,6,0,P|256:324|232:348,2,103.999995239258,10|0|2,0:0|0:0|0:0,0:0:0:0:
424,260,146585,1,2,0:0:0:0:
424,260,146659,1,0,0:0:0:0:
424,260,146733,2,0,B|412:145|480:116|548:160|540:232|336:204,1,311.999985717774,0|0,0:0|0:0,0:0:0:0:
291,301,147326,5,10,0:0:0:0:
162,259,147474,1,10,0:0:0:0:
162,124,147623,1,10,0:0:0:0:
291,82,147771,1,10,0:0:0:0:
371,192,147919,1,10,0:0:0:0:
256,192,148067,5,10,0:0:0:0:
256,192,148215,1,14,0:0:0:0:
