osu file format v12

[General]
AudioFilename: Merry-Merry-.mp3
AudioLeadIn: 0
PreviewTime: 49212
Countdown: 0
SampleSet: Soft
StackLeniency: 0.7
Mode: 0
LetterboxInBreaks: 1
WidescreenStoryboard: 0

[Editor]
Bookmarks: 130279,238135
DistanceSpacing: 0.9
BeatDivisor: 4
GridSize: 4

[Metadata]
Title:Merry Merry
TitleUnicode:メリーメリー
Artist:IchiokuyenP
ArtistUnicode:一億円P
Creator:bigfrog
Version:Normal
Source:
Tags:snowlandscape dezzy vocaloid hatsune miku
BeatmapID:333450
BeatmapSetID:132633

[Difficulty]
HPDrainRate:3
CircleSize:3
OverallDifficulty:3
ApproachRate:3
SliderMultiplier:1.4
SliderTickRate:1

[Events]
//Background and Video events
0,0,"Merry-Merry.jpg",0,0
//Break Periods
2,82604,91751
2,156087,171975
2,183054,184784
2,242380,254897
//Storyboard Layer 0 (Background)
//Storyboard Layer 1 (Fail)
//Storyboard Layer 2 (Pass)
//Storyboard Layer 3 (Foreground)
//Storyboard Sound Samples
//Background Colour Transformations
3,100,163,162,255

[TimingPoints]
2180,674.157303370787,4,2,1,70,1,0
44651,-100,4,2,1,30,0,0
46000,-100,4,2,1,50,0,0
47348,-100,4,2,1,60,0,0
48696,-100,4,2,1,70,0,0
49371,-100,4,2,1,70,0,1
59988,-100,4,2,1,70,0,0
60157,-100,4,2,1,70,0,1
70944,-100,4,2,1,50,0,1
71112,-100,4,2,1,70,0,1
74988,-100,4,2,1,70,0,0
77016,-100,4,2,1,5,0,0
77685,-100,4,2,1,50,0,1
77685,-100,4,2,1,70,0,1
77854,-100,4,2,1,70,0,1
80382,-100,4,2,1,50,0,1
80550,-100,4,2,1,70,0,1
82404,-100,4,2,1,70,0,0
93865,-100,4,2,1,50,0,0
94033,-100,4,2,1,70,0,0
112741,-100,4,2,1,10,0,0
113415,-100,4,2,1,20,0,0
114090,-100,4,2,1,30,0,0
114764,-100,4,2,1,50,0,0
115438,-100,4,2,1,70,0,1
126056,-100,4,2,1,70,0,0
126224,-100,4,2,1,70,0,1
137011,-100,4,2,1,50,0,1
137180,-100,4,2,1,70,0,1
139708,-100,4,2,1,50,0,1
139876,-100,4,2,1,70,0,1
142404,-100,4,2,1,50,0,1
142573,-100,4,2,1,70,0,1
145101,-100,4,2,1,50,0,1
145269,-100,4,2,1,70,0,1
147797,-100,4,2,1,50,0,1
147966,-100,4,2,1,70,0,1
150494,-100,4,2,1,50,0,1
150663,-100,4,2,1,70,0,1
153191,-100,4,2,1,50,0,1
153359,-100,4,2,1,70,0,1
155887,-100,4,2,1,70,0,0
182854,-100,4,2,1,5,0,0
186224,-100,4,2,1,70,0,0
186899,-100,4,2,1,70,0,1
197517,-100,4,2,1,70,0,0
197685,-100,4,2,1,70,0,1
211168,-100,4,2,1,50,0,1
211337,-100,4,2,1,70,0,1
214539,-100,4,2,1,70,0,0
215213,-100,4,2,1,70,0,1
219932,-100,4,2,1,70,0,0

[Colours]
Combo1 : 66,70,255
Combo2 : 0,15,147
Combo3 : 83,160,255

[HitObjects]
144,80,2180,21,0,0:0:0:0:
80,188,2854,2,0,P|116:248|180:284,1,140,0|0,0:0|0:0,0:0:0:0:
392,308,4876,1,0,0:0:0:0:
432,188,5550,2,0,P|396:128|332:92,1,140,0|0,0:0|0:0,0:0:0:0:
256,192,6899,1,0,0:0:0:0:
160,276,7573,6,0,P|88:296|28:268,1,140,0|0,0:0|0:0,0:0:0:0:
36,144,8921,2,0,B|96:152|120:96|120:96|156:100,1,140,0|0,0:0|0:0,0:0:0:0:
280,128,10269,5,0,0:0:0:0:
316,180,10606,2,0,P|376:220|448:216,1,140
500,196,11618,2,0,L|416:320,1,140
296,324,12966,5,0,0:0:0:0:
220,224,13640,2,0,P|152:240|104:292,1,140,2|0,0:0|0:0,0:0:0:0:
216,352,14988,2,0,P|240:268|220:224,1,140,2|0,0:0|0:0,0:0:0:0:
136,128,16337,5,2,0:0:0:0:
260,104,17011,2,0,L|404:100,2,140,0|2|0,0:0|0:0|0:0,0:0:0:0:
220,224,19033,6,0,L|364:228,1,140,2|0,0:0|0:0,0:0:0:0:
452,312,20382,1,2,0:0:0:0:
488,192,21056,1,0,0:0:0:0:
256,96,22404,5,0,0:0:0:0:
136,56,23078,1,2,0:0:0:0:
256,96,23753,2,0,P|224:152|156:188,1,140,0|2,0:0|0:0,0:0:0:0:
44,136,25101,1,0,0:0:0:0:
56,260,25775,6,0,L|192:344,1,140,2|0,0:0|0:0,0:0:0:0:
256,236,27123,1,2,0:0:0:0:
372,184,27797,6,2,P|380:216|380:256,2,70,0|0|2,0:0|0:0|0:0,0:0:0:0:
336,132,28809,1,0,0:0:0:0:
276,112,29146,6,0,P|208:116|136:88,1,140,0|2,0:0|0:0,0:0:0:0:
104,212,30494,2,0,P|168:228|228:280,1,140,0|2,0:0|0:0,0:0:0:0:
256,328,31505,5,0,0:0:0:0:
320,328,31842,2,0,B|352:324|384:304|384:304|384:276|416:240,1,140,0|2,0:0|0:0,0:0:0:0:
484,136,33191,2,0,P|416:120|348:136,1,140,0|2,0:0|0:0,0:0:0:0:
232,212,34539,6,0,L|204:276,2,70,0|0|2,0:0|0:0|0:0,0:0:0:0:
184,96,35887,1,0,0:0:0:0:
184,96,36562,1,2,0:0:0:0:
232,212,37236,6,0,L|268:280,2,70,0|0|2,0:0|0:0|0:0,0:0:0:0:
284,96,38584,1,0,0:0:0:0:
284,96,39258,1,2,0:0:0:0:
368,188,39932,6,0,P|380:260|344:324,1,140,0|2,0:0|0:0,0:0:0:0:
224,316,41281,2,0,P|194:253|206:186,1,140,0|2,0:0|0:0,0:0:0:0:
152,72,42629,6,0,B|216:72|216:72|248:88|292:88,1,140,0|2,0:0|0:0,0:0:0:0:
348,64,43640,1,0,0:0:0:0:
384,164,44651,1,2,0:0:0:0:
332,264,46000,1,2,0:0:0:0:
232,208,47348,1,2,0:0:0:0:
276,104,48696,1,2,0:0:0:0:
164,48,49371,6,0,P|124:100|112:172,1,140,4|10,0:0|0:0,0:0:0:0:
176,280,50719,2,0,P|224:248|296:280,1,140,0|10,0:0|0:0,0:0:0:0:
340,320,51730,1,0,0:0:0:0:
396,292,52067,6,0,B|424:264|424:228|424:228|388:160,1,140,0|10,0:0|0:0,0:0:0:0:
284,100,53415,2,0,B|256:128|256:164|256:164|292:232,1,140,0|10,0:0|0:0,0:0:0:0:
204,320,54764,6,0,L|172:258,2,70,0|0|10,0:0|0:0|0:0,0:0:0:0:
288,224,56112,2,0,L|320:160,2,70,0|0|10,0:0|0:0|0:0,0:0:0:0:
216,120,57460,6,0,P|264:72|336:44,1,140,0|10,0:0|0:0,0:0:0:0:
372,164,58809,2,0,P|420:200|452:276,1,140,0|10,0:0|0:0,0:0:0:0:
324,276,60157,5,4,0:0:0:0:
196,276,60831,2,0,P|200:308|216:344,2,70,10|0|0,0:0|0:0|0:0,0:0:0:0:
152,160,62180,2,0,P|164:128|168:92,1,70,10|0,0:0|0:0,0:0:0:0:
208,44,62854,6,0,P|268:52|336:92,1,140,0|10,0:0|0:0,0:0:0:0:
288,208,64202,2,0,P|216:216|160:252,1,140,0|10,0:0|0:0,0:0:0:0:
120,300,65213,1,0,0:0:0:0:
72,264,65550,6,0,B|56:208|56:208|56:168|96:140,1,140,0|10,0:0|0:0,0:0:0:0:
192,224,66899,2,0,B|224:228|256:252|256:252|284:320,1,140,0|10,0:0|0:0,0:0:0:0:
368,224,68247,6,0,L|340:152,2,70,0|0|10,0:0|0:0|0:0,0:0:0:0:
448,124,69595,2,0,L|471:190,2,70,0|0|10,0:0|0:0|0:0,0:0:0:0:
344,52,70944,6,0,B|296:60|260:56|260:56|200:88,1,140,4|10,0:0|0:0,0:0:0:0:
128,184,72292,2,0,P|184:212|264:196,1,140,0|10,0:0|0:0,0:0:0:0:
308,160,73303,1,8,0:0:0:0:
352,204,73640,2,0,B|356:264|392:304|392:304|380:332,2,140,0|10|0,0:0|0:0|0:0,0:0:0:0:
256,192,75326,12,0,77011,0:0:0:0:
144,112,77685,2,0,L|160:184,1,70,4|0,0:0|0:0,0:0:0:0:
188,236,78359,2,0,P|248:272|320:272,1,140,10|0,0:0|0:0,0:0:0:0:
280,152,79708,1,10,0:0:0:0:
388,88,80382,6,0,L|420:224,1,140,4|10,0:0|0:0,0:0:0:0:
304,268,81730,2,0,L|248:324,2,70,0|10|0,0:0|0:0|0:0,0:0:0:0:
192,92,93191,6,0,P|256:76|332:96,1,140,8|12,0:0|0:0,0:0:0:0:
396,200,94539,1,10,0:0:0:0:
280,244,95213,2,0,P|264:280|264:312,2,70,0|0|10,0:0|0:0|0:0,0:0:0:0:
272,116,96562,6,0,P|200:140|152:188,1,140,8|10,0:0|0:0,0:0:0:0:
60,268,97910,2,0,P|120:304|192:304,1,140,0|10,0:0|0:0,0:0:0:0:
284,220,99258,5,8,0:0:0:0:
284,220,99932,1,10,0:0:0:0:
376,136,100606,2,0,B|352:104|328:92|328:92|288:100|252:88,1,140,0|10,0:0|0:0,0:0:0:0:
360,16,101955,2,0,P|412:52|456:116,1,140,0|10,0:0|0:0,0:0:0:0:
428,240,103303,2,0,B|380:232|356:204|356:204|300:228,1,140,0|10,0:0|0:0,0:0:0:0:
188,176,104651,6,0,P|176:248|204:308,1,140,8|10,0:0|0:0,0:0:0:0:
304,228,106000,2,0,P|312:160|284:92,1,140,0|10,0:0|0:0,0:0:0:0:
188,176,107348,2,0,L|132:220,2,70,8|0|10,0:0|0:0|0:0,0:0:0:0:
304,228,108696,2,0,L|272:296,2,70,0|8|10,0:0|0:0|0:0,0:0:0:0:
404,152,110045,6,0,L|440:292,1,140,0|10,0:0|0:0,0:0:0:0:
256,192,112741,5,0,0:0:0:0:
356,112,113415,1,2,0:0:0:0:
256,36,114090,1,0,0:0:0:0:
152,108,114764,1,10,0:0:0:0:
152,108,115438,6,0,P|160:168|208:232,1,140,4|10,0:0|0:0,0:0:0:0:
272,124,116786,2,0,B|304:104|344:108|344:108|400:140,1,140,0|10,0:0|0:0,0:0:0:0:
328,244,118135,2,0,L|372:300,2,70,0|0|10,0:0|0:0|0:0,0:0:0:0:
200,240,119483,2,0,L|152:300,2,70,0|0|10,0:0|0:0|0:0,0:0:0:0:
260,128,120831,6,0,P|184:120|120:140,1,140,0|10,0:0|0:0,0:0:0:0:
200,240,122180,2,0,B|232:256|280:252|280:252|324:292,1,140,0|10,0:0|0:0,0:0:0:0:
368,336,123191,1,0,0:0:0:0:
424,308,123528,2,0,P|432:240|424:160,1,140,0|10,0:0|0:0,0:0:0:0:
304,132,124876,2,0,P|300:172|304:204,2,70,0|0|2,0:0|0:0|0:0,0:0:0:0:
316,72,125887,1,8,0:0:0:0:
260,44,126224,6,0,P|188:68|140:116,1,140,0|10,0:0|0:0,0:0:0:0:
92,228,127573,2,0,B|164:252|164:216|232:236,1,140,0|10,0:0|0:0,0:0:0:0:
356,268,128921,2,0,P|359:234|351:199,2,70,0|0|10,0:0|0:0|0:0,0:0:0:0:
232,236,130269,2,0,P|228:201|235:167,2,70,0|0|10,0:0|0:0|0:0,0:0:0:0:
108,204,131618,6,0,P|120:128|156:72,1,140,0|10,0:0|0:0,0:0:0:0:
236,168,132966,2,0,P|308:152|364:116,1,140,0|10,0:0|0:0,0:0:0:0:
416,84,133977,1,0,0:0:0:0:
456,124,134314,2,0,L|452:268,1,140,0|10,0:0|0:0,0:0:0:0:
336,216,135663,2,0,P|264:200|196:220,1,140,0|10,0:0|0:0,0:0:0:0:
80,180,137011,6,0,L|52:252,2,70,4|0|10,0:0|0:0|0:0,0:0:0:0:
200,216,138359,2,0,L|226:151,2,70,0|0|10,0:0|0:0|0:0,0:0:0:0:
284,308,139708,2,0,P|336:320|420:304,1,140,4|10,0:0|0:0,0:0:0:0:
348,200,141056,2,0,P|376:176|396:144,2,70,0|0|8,0:0|0:0|0:0,0:0:0:0:
288,216,142067,1,8,0:0:0:0:
228,200,142404,6,0,P|196:140|204:68,1,140,4|10,0:0|0:0,0:0:0:0:
88,124,143753,2,0,P|100:156|104:196,2,70,0|0|10,0:0|0:0|0:0,0:0:0:0:
28,236,145101,2,0,P|96:280|152:268,1,140,4|10,0:0|0:0,0:0:0:0:
248,192,146449,2,0,L|312:248,2,70,0|0|10,0:0|0:0|0:0,0:0:0:0:
220,136,147460,1,8,0:0:0:0:
248,80,147797,6,0,P|311:77|388:96,1,140,4|10,0:0|0:0,0:0:0:0:
428,216,149146,2,0,P|364:184|296:172,1,140,0|10,0:0|0:0,0:0:0:0:
172,180,150494,2,0,P|176:216|192:248,1,70,4|0,0:0|0:0,0:0:0:0:
228,296,151168,2,0,P|148:336|100:336,2,140,10|0|10,0:0|0:0|0:0,0:0:0:0:
172,180,153191,6,0,P|252:140|300:140,1,140,4|10,0:0|0:0,0:0:0:0:
360,252,154539,2,0,L|376:328,2,70,0|0|10,0:0|0:0|0:0,0:0:0:0:
300,140,155887,5,2,0:0:0:0:
152,192,173415,6,0,P|172:264|220:304,1,140,0|2,0:0|0:0,0:0:0:0:
344,288,174764,2,0,P|324:216|276:176,1,140,0|2,0:0|0:0,0:0:0:0:
176,96,176112,2,0,L|248:72,2,70,0|0|2,0:0|0:0|0:0,0:0:0:0:
144,220,177460,2,0,L|276:176,1,140,0|2,0:0|0:0,0:0:0:0:
392,128,178809,5,0,0:0:0:0:
392,128,179483,1,2,0:0:0:0:
392,128,180157,2,0,B|380:172|380:172|404:172|404:172|392:192|392:192|392:256,1,140,0|2,0:0|0:0,0:0:0:0:
256,192,181505,12,0,182854,0:0:0:0:
256,92,186224,5,8,0:0:0:0:
136,132,186899,6,0,P|136:200|168:272,1,140,0|10,0:0|0:0,0:0:0:0:
276,212,188247,2,0,P|316:264|384:260,1,140,0|10,0:0|0:0,0:0:0:0:
420,208,189258,1,0,0:0:0:0:
440,148,189595,2,0,L|420:80,2,70,0|0|10,0:0|0:0|0:0,0:0:0:0:
384,260,190944,2,0,L|404:328,2,70,0|0|10,0:0|0:0|0:0,0:0:0:0:
320,152,192292,6,0,B|276:172|264:224|264:224|224:256,1,140,0|10,0:0|0:0,0:0:0:0:
104,240,193640,2,0,L|76:312,2,70,0|0|10,0:0|0:0|0:0,0:0:0:0:
64,120,194988,2,0,B|140:92|140:136|204:108,1,140,0|10,0:0|0:0,0:0:0:0:
252,76,196000,1,0,0:0:0:0:
304,112,196337,2,0,P|324:176|324:252,1,140,0|10,0:0|0:0,0:0:0:0:
216,312,197685,6,0,P|200:232|168:184,1,140,0|10,0:0|0:0,0:0:0:0:
52,132,199033,2,0,P|92:176|172:184,1,140,0|10,0:0|0:0,0:0:0:0:
216,144,200045,1,0,0:0:0:0:
272,116,200382,2,0,P|328:108|412:128,1,140,0|10,0:0|0:0,0:0:0:0:
336,228,201730,2,0,P|400:264|440:324,1,140,0|10,0:0|0:0,0:0:0:0:
384,352,202741,1,0,0:0:0:0:
320,348,203078,6,0,L|180:344,1,140,0|10,0:0|0:0,0:0:0:0:
84,260,204427,2,0,P|152:224|216:224,1,140,0|10,0:0|0:0,0:0:0:0:
340,240,205775,2,0,P|376:224|408:200,2,70,0|0|10,0:0|0:0|0:0,0:0:0:0:
312,116,207123,2,0,P|340:100|368:60,2,70,0|0|10,0:0|0:0|0:0,0:0:0:0:
192,76,208472,6,0,P|120:96|72:144,1,140,0|10,0:0|0:0,0:0:0:0:
44,264,209820,2,0,B|80:276|112:264|112:264|132:288|184:292,1,140,0|10,0:0|0:0,0:0:0:0:
300,312,211168,6,0,P|332:296|356:272,1,70,4|8,0:0|0:0,0:0:0:0:
392,220,211842,2,0,P|384:184|384:152,1,70,10|8,0:0|0:0,0:0:0:0:
256,192,212517,12,0,214539,0:0:0:0:
156,80,215213,6,0,P|152:152|176:216,1,140,4|10,0:0|0:0,0:0:0:0:
276,140,216562,2,0,L|276:280,1,140,0|10,0:0|0:0,0:0:0:0:
312,332,217573,1,0,0:0:0:0:
372,352,217910,6,0,P|420:312|452:240,1,140,4|10,0:0|0:0,0:0:0:0:
448,116,219258,2,0,B|404:120|376:144,2,70,0|8|0,0:0|0:0|0:0,0:0:0:0:
348,40,220606,6,0,P|288:88|252:144,1,140,4|10,0:0|0:0,0:0:0:0:
216,260,221955,2,0,P|176:236|160:216,2,70,0|0|10,0:0|0:0|0:0,0:0:0:0:
276,280,222966,1,0,0:0:0:0:
336,260,223303,2,0,P|388:220|424:156,1,140,0|10,0:0|0:0,0:0:0:0:
300,140,224651,2,0,B|260:152|236:184|236:184|180:160,1,140,0|10,0:0|0:0,0:0:0:0:
96,252,226000,6,0,L|232:312,1,140,4|10,0:0|0:0,0:0:0:0:
284,288,227011,1,0,0:0:0:0:
284,224,227348,2,0,L|152:132,2,140,0|10|0,0:0|0:0|0:0,0:0:0:0:
400,268,229371,1,10,0:0:0:0:
376,144,230045,2,0,P|440:152|500:196,1,140,0|10,0:0|0:0,0:0:0:0:
400,268,231393,5,0,0:0:0:0:
400,268,232067,1,10,0:0:0:0:
272,264,232741,1,0,0:0:0:0:
272,264,233415,1,10,0:0:0:0:
156,216,234090,2,0,P|112:152|112:92,1,140,0|10,0:0|0:0,0:0:0:0:
236,120,235438,2,0,P|304:120|368:156,1,140,0|10,0:0|0:0,0:0:0:0:
272,236,236786,6,0,L|264:312,2,70,0|0|10,0:0|0:0|0:0,0:0:0:0:
164,172,238135,2,0,L|156:241,2,70,0|0|10,0:0|0:0|0:0,0:0:0:0:
104,60,239483,6,0,P|172:48|244:72,1,140,0|10,0:0|0:0,0:0:0:0:
316,168,240831,2,0,P|304:240|256:300,1,140,0|10,0:0|0:0,0:0:0:0:
144,264,242180,5,0,0:0:0:0:
256,192,256337,5,8,0:0:0:0:
256,192,257011,12,4,262404,0:0:0:0:
