osu file format v12

[General]
AudioFilename: Merry-Merry-.mp3
AudioLeadIn: 0
PreviewTime: 49212
Countdown: 0
SampleSet: Soft
StackLeniency: 0.7
Mode: 0
LetterboxInBreaks: 1
WidescreenStoryboard: 1

[Editor]
Bookmarks: 130279,238135
DistanceSpacing: 0.9
BeatDivisor: 4
GridSize: 4

[Metadata]
Title:Merry Merry
TitleUnicode:メリーメリー
Artist:IchiokuyenP
ArtistUnicode:一億円P
Creator:bigfrog
Version:Hard
Source:
Tags:snowlandscape dezzy vocaloid hatsune miku
BeatmapID:337936
BeatmapSetID:132633

[Difficulty]
HPDrainRate:6
CircleSize:4
OverallDifficulty:6
ApproachRate:5
SliderMultiplier:1.6
SliderTickRate:2

[Events]
//Background and Video events
0,0,"Merry-Merry.jpg",0,0
//Break Periods
2,82604,91991
2,156087,172215
2,181705,184350
2,242380,255137
//Storyboard Layer 0 (Background)
//Storyboard Layer 1 (Fail)
//Storyboard Layer 2 (Pass)
//Storyboard Layer 3 (Foreground)
//Storyboard Sound Samples
//Background Colour Transformations
3,100,163,162,255

[TimingPoints]
2180,674.157303370787,4,2,1,70,1,0
44651,-100,4,2,1,30,0,0
46000,-100,4,2,1,50,0,0
47348,-100,4,2,1,60,0,0
48696,-100,4,2,1,70,0,0
49371,-100,4,2,1,50,0,1
49539,-100,4,2,1,70,0,1
59988,-100,4,2,1,70,0,0
60157,-100,4,2,1,50,0,1
60326,-100,4,2,1,70,0,1
70944,-100,4,2,1,50,0,1
71112,-100,4,2,1,70,0,1
74988,-100,4,2,1,70,0,0
77016,-100,4,2,1,5,0,0
77685,-100,4,2,1,50,0,1
77854,-100,4,2,1,70,0,1
80382,-100,4,2,1,50,0,1
80550,-100,4,2,1,70,0,1
82404,-100,4,2,1,70,0,0
93865,-100,4,2,1,50,0,0
94033,-100,4,2,1,70,0,0
112741,-100,4,2,1,40,0,0
113415,-100,4,2,1,20,0,0
114090,-100,4,2,1,40,0,0
114764,-100,4,2,1,60,0,0
115438,-100,4,2,1,50,0,1
115606,-100,4,2,1,70,0,1
126056,-100,4,2,1,70,0,0
126224,-100,4,2,1,50,0,1
126393,-100,4,2,1,70,0,1
137011,-100,4,2,1,40,0,1
137180,-100,4,2,1,70,0,1
139708,-100,4,2,1,50,0,1
139876,-100,4,2,1,70,0,1
142404,-100,4,2,1,50,0,1
142573,-100,4,2,1,70,0,1
145101,-100,4,2,1,50,0,1
145269,-100,4,2,1,70,0,1
147797,-100,4,2,1,50,0,1
147966,-100,4,2,1,70,0,1
150494,-100,4,2,1,50,0,1
150663,-100,4,2,1,70,0,1
153191,-100,4,2,1,50,0,1
153359,-100,4,2,1,70,0,1
155887,-100,4,2,1,70,0,0
181505,-100,4,2,1,5,0,0
185550,-133.333333333333,4,2,1,5,0,0
186224,-100,4,2,1,70,0,0
186899,-83.3333333333333,4,2,1,70,0,1
197517,-83.3333333333333,4,2,1,70,0,0
197685,-83.3333333333333,4,2,1,70,0,1
211168,-83.3333333333333,4,2,1,50,0,1
211337,-83.3333333333333,4,2,1,70,0,1
214539,-83.3333333333333,4,2,1,70,0,0
215213,-83.3333333333333,4,2,1,70,0,1
219932,-100,4,2,1,70,0,0

[Colours]
Combo1 : 66,70,255
Combo2 : 0,15,147
Combo3 : 83,160,255

[HitObjects]
152,84,2180,1,0,0:0:0:0:
24,180,2854,2,0,P|80:236|168:252,1,160
472,248,4876,2,0,P|396:208|356:140,1,160
376,68,5887,1,0,0:0:0:0:
296,56,6224,2,0,P|248:120|240:200,1,160
336,268,7236,5,0,0:0:0:0:
284,328,7573,2,0,B|200:344|200:308|124:328,1,160
48,188,8921,2,0,P|136:192|212:164,1,160
276,132,9932,1,0,0:0:0:0:
328,192,10269,6,0,P|328:240|312:272,2,80
276,132,11281,1,0,0:0:0:0:
200,104,11618,2,0,B|160:116|132:156,1,80
68,192,12292,2,0,P|76:236|96:268,1,80
168,296,12966,6,0,P|232:280|324:304,1,160,0|2,0:0|0:0,0:0:0:0:
416,172,14314,2,0,P|340:194|262:178,1,160,0|2,0:0|0:0,0:0:0:0:
224,108,15326,1,0,0:0:0:0:
144,120,15663,2,0,L|100:188,1,80
96,268,16337,2,0,P|128:264|172:232,1,80,2|0,0:0|0:0,0:0:0:0:
228,184,17011,2,0,P|264:200|288:236,1,80
336,296,17685,6,0,L|380:296,2,40,2|0|0,0:0|0:0|0:0,0:0:0:0:
288,232,18359,2,0,P|332:184|420:152,1,160,0|2,0:0|0:0,0:0:0:0:
256,144,19708,2,0,L|200:204,1,80
136,156,20382,2,0,L|56:188,2,80,2|0|0,0:0|0:0|0:0,0:0:0:0:
136,156,22404,6,0,P|172:140|216:136,1,80
196,216,23078,2,0,P|240:216|280:232,1,80,2|0,0:0|0:0,0:0:0:0:
332,284,23753,1,0,0:0:0:0:
364,168,24090,1,0,0:0:0:0:
336,92,24427,2,0,P|300:120|284:156,1,80,2|0,0:0|0:0,0:0:0:0:
336,212,25101,5,0,0:0:0:0:
336,92,25438,1,0,0:0:0:0:
216,88,25775,2,0,P|176:104|148:132,1,80,2|0,0:0|0:0,0:0:0:0:
112,200,26449,2,0,B|156:216|192:196|192:196|220:216|244:264,1,160,0|2,0:0|0:0,0:0:0:0:
224,336,27460,1,0,0:0:0:0:
320,264,27797,5,0,0:0:0:0:
400,280,28135,1,0,0:0:0:0:
364,164,28472,1,2,0:0:0:0:
436,196,28809,1,0,0:0:0:0:
480,128,29146,6,0,P|416:68|344:52,1,160,0|2,0:0|0:0,0:0:0:0:
276,88,30157,1,0,0:0:0:0:
204,44,30494,2,0,L|124:80,1,80
120,156,31168,2,0,L|36:132,1,80,2|0,0:0|0:0,0:0:0:0:
24,212,31842,6,0,P|104:236|160:288,1,160,0|2,0:0|0:0,0:0:0:0:
232,148,33191,1,0,0:0:0:0:
292,200,33528,2,0,P|340:192|372:168,2,80,0|2|0,0:0|0:0|0:0,0:0:0:0:
232,148,34539,6,0,L|196:176,1,40
168,196,34876,1,0,0:0:0:0:
168,196,35213,1,2,0:0:0:0:
120,308,35719,1,0,0:0:0:0:
160,304,35887,2,0,P|224:296|292:316,1,120
308,336,36562,2,0,L|364:276,1,80,2|0,0:0|0:0,0:0:0:0:
400,208,37236,6,0,L|364:164,1,40
348,148,37573,1,0,0:0:0:0:
348,148,37910,1,2,0:0:0:0:
276,60,38415,1,0,0:0:0:0:
244,84,38584,2,0,P|200:112|168:116,2,80,0|0|2,0:0|0:0|0:0,0:0:0:0:
104,164,39932,6,0,P|144:232|216:280,1,160,0|2,0:0|0:0,0:0:0:0:
268,224,40944,1,0,0:0:0:0:
344,248,41281,2,0,P|320:280|284:304,1,80
268,224,41955,2,0,P|304:180|368:172,1,120,2|0,0:0|0:0,0:0:0:0:
400,188,42629,2,0,P|432:144|436:120,1,80
388,56,43303,2,0,L|340:60,2,40,2|0|0,0:0|0:0|0:0,0:0:0:0:
272,96,44651,5,2,0:0:0:0:
124,160,46000,1,2,0:0:0:0:
228,280,47348,1,2,0:0:0:0:
380,216,48696,1,2,0:0:0:0:
272,96,49371,6,0,P|192:104|132:152,1,160,4|10,0:0|0:0,0:0:0:0:
116,232,50382,1,0,0:0:0:0:
204,316,50719,2,0,P|224:280|232:236,1,80
300,200,51393,2,0,P|336:200|380:212,1,80,10|0,0:0|0:0,0:0:0:0:
440,108,52067,6,0,P|352:108|288:76,1,160,0|10,0:0|0:0,0:0:0:0:
224,28,53078,1,0,0:0:0:0:
184,140,53415,2,0,L|208:220,1,80
132,240,54090,2,0,L|192:312,1,80,10|0,0:0|0:0,0:0:0:0:
284,240,54764,6,0,P|324:288|416:324,1,160,0|10,0:0|0:0,0:0:0:0:
464,260,55775,1,0,0:0:0:0:
356,208,56112,2,0,L|276:244,1,80
172,196,56786,2,0,L|252:164,1,80,10|0,0:0|0:0,0:0:0:0:
320,132,57460,6,0,P|284:96|256:88,1,80
176,76,58135,2,0,P|136:80|96:68,1,80,10|0,0:0|0:0,0:0:0:0:
64,184,58809,1,0,0:0:0:0:
100,68,59146,1,0,0:0:0:0:
176,160,59483,1,10,0:0:0:0:
228,52,59820,1,0,0:0:0:0:
176,160,60157,6,0,P|228:224|312:248,1,160,4|10,0:0|0:0,0:0:0:0:
352,188,61168,1,0,0:0:0:0:
356,308,61505,2,0,P|396:304|432:276,1,80
352,188,62180,2,0,P|368:156|376:112,1,80,10|0,0:0|0:0,0:0:0:0:
256,116,62854,6,0,P|176:96|100:120,1,160,0|10,0:0|0:0,0:0:0:0:
60,184,63865,1,0,0:0:0:0:
72,264,64202,2,0,P|108:292|144:304,1,80
196,248,64876,2,0,L|240:320,1,80,10|0,0:0|0:0,0:0:0:0:
312,340,65550,6,0,P|340:316|364:276,1,80
376,160,66224,2,0,P|340:184|320:216,1,80,10|0,0:0|0:0,0:0:0:0:
327,96,66899,2,0,P|294:117|268:147,1,80
236,220,67573,2,0,L|168:168,1,80,10|0,0:0|0:0,0:0:0:0:
92,168,68247,6,0,P|60:196|40:228,1,80
172,172,68921,2,0,P|220:132|240:72,1,120,10|0,0:0|0:0,0:0:0:0:
272,76,69595,2,0,L|352:76,2,80,0|0|10,0:0|0:0|0:0,0:0:0:0:
356,160,70606,1,0,0:0:0:0:
312,272,70944,6,0,P|228:248|144:260,1,160,4|10,0:0|0:0,0:0:0:0:
120,328,71955,1,8,0:0:0:0:
232,284,72292,2,0,P|220:196|172:144,1,160,0|10,0:0|0:0,0:0:0:0:
100,112,73303,1,8,0:0:0:0:
212,72,73640,2,0,L|296:64,1,80
316,140,74314,2,0,L|388:104,1,80,10|0,0:0|0:0,0:0:0:0:
256,192,74988,12,0,77011,0:0:0:0:
168,256,77685,6,0,P|200:272|252:276,1,80,4|0,0:0|0:0,0:0:0:0:
300,220,78359,2,0,P|336:188|348:156,1,80,10|0,0:0|0:0,0:0:0:0:
292,100,79033,1,0,0:0:0:0:
300,220,79371,1,0,0:0:0:0:
192,172,79708,1,10,0:0:0:0:
300,220,80045,1,0,0:0:0:0:
196,292,80382,6,0,P|160:300|112:288,1,80,4|0,0:0|0:0,0:0:0:0:
76,224,81056,2,0,L|96:136,1,80,10|0,0:0|0:0,0:0:0:0:
168,116,81730,2,0,L|204:144,2,40
104,68,82404,5,0,0:0:0:0:
184,108,93191,6,8,P|256:92|340:112,1,160,8|12,0:0|0:0,0:0:0:0:
380,180,94202,1,0,0:0:0:0:
336,248,94539,2,0,P|364:280|396:300,1,80,10|0,0:0|0:0,0:0:0:0:
380,180,95213,2,0,P|340:168|300:176,1,80
260,240,95887,1,10,0:0:0:0:
184,268,96224,6,0,L|104:256,2,80
228,156,97236,2,0,L|148:145,1,80,10|0,0:0|0:0,0:0:0:0:
80,104,97910,2,0,P|112:76|152:64,1,80
228,76,98584,1,8,0:0:0:0:
304,168,98921,1,8,0:0:0:0:
304,168,99258,6,0,P|380:216|452:216,1,160,0|10,0:0|0:0,0:0:0:0:
372,124,100269,1,0,0:0:0:0:
304,168,100606,2,0,P|276:200|264:236,1,80
188,264,101281,2,0,P|160:228|152:192,1,80,10|0,0:0|0:0,0:0:0:0:
80,160,101955,5,0,0:0:0:0:
140,56,102292,1,0,0:0:0:0:
68,84,102629,1,10,0:0:0:0:
180,124,102966,1,0,0:0:0:0:
272,48,103303,2,0,P|292:80|304:124,1,80
376,156,103977,2,0,P|344:188|312:200,1,80,10|0,0:0|0:0,0:0:0:0:
248,248,104651,5,0,0:0:0:0:
160,168,104988,1,0,0:0:0:0:
248,248,105326,2,0,L|224:328,1,80,10|0,0:0|0:0,0:0:0:0:
116,272,106000,1,0,0:0:0:0:
40,180,106337,1,0,0:0:0:0:
116,272,106674,2,0,L|140:196,1,80,10|0,0:0|0:0,0:0:0:0:
176,124,107348,6,0,P|224:128|284:84,1,120
320,100,108022,2,0,P|340:132|348:176,1,80,10|0,0:0|0:0,0:0:0:0:
312,244,108696,1,0,0:0:0:0:
204,296,109033,1,0,0:0:0:0:
132,200,109371,1,10,0:0:0:0:
64,300,109708,1,0,0:0:0:0:
132,200,110045,2,0,P|164:156|172:128,2,80,0|0|10,0:0|0:0|0:0,0:0:0:0:
132,200,112741,5,0,0:0:0:0:
256,100,113415,1,2,0:0:0:0:
380,200,114090,1,0,0:0:0:0:
256,300,114764,1,10,0:0:0:0:
132,200,115438,6,0,P|108:124|148:56,1,160,4|10,0:0|0:0,0:0:0:0:
216,96,116449,1,0,0:0:0:0:
208,216,116786,2,0,P|192:248|156:276,1,80
276,252,117460,2,0,P|296:288|328:316,1,80,10|0,0:0|0:0,0:0:0:0:
380,208,118135,5,0,0:0:0:0:
276,252,118472,1,0,0:0:0:0:
224,144,118809,1,10,0:0:0:0:
336,100,119146,1,0,0:0:0:0:
224,144,119483,2,0,P|184:128|152:96,1,80
80,120,120157,2,0,P|68:160|68:200,1,80,10|0,0:0|0:0,0:0:0:0:
152,284,120831,5,0,0:0:0:0:
152,284,121168,2,0,L|232:296,2,80,0|10|0,0:0|0:0|0:0,0:0:0:0:
256,224,122180,1,0,0:0:0:0:
256,224,122517,2,0,L|332:252,2,80,0|10|0,0:0|0:0|0:0,0:0:0:0:
368,180,123528,5,0,0:0:0:0:
368,180,123865,2,0,P|352:140|328:112,1,80,0|10,0:0|0:0,0:0:0:0:
256,140,124539,2,0,P|224:104|212:72,1,80
96,44,125213,1,0,0:0:0:0:
128,160,125550,1,10,0:0:0:0:
212,76,125887,1,0,0:0:0:0:
128,160,126224,5,4,0:0:0:0:
128,160,126562,2,0,P|116:208|120:240,1,80,0|10,0:0|0:0,0:0:0:0:
184,284,127236,1,0,0:0:0:0:
252,184,127573,2,0,L|304:252,1,80
380,256,128247,2,0,L|364:352,1,80,10|0,0:0|0:0,0:0:0:0:
456,256,128921,5,0,0:0:0:0:
412,144,129258,1,0,0:0:0:0:
304,196,129595,1,10,0:0:0:0:
300,76,129932,1,0,0:0:0:0:
304,196,130269,2,0,P|280:232|248:256,1,80
136,216,130944,2,0,P|160:180|192:156,1,80,10|0,0:0|0:0,0:0:0:0:
184,276,131618,6,0,L|116:320,1,80
60,216,132292,1,10,0:0:0:0:
120,320,132629,1,0,0:0:0:0:
240,336,132966,2,0,P|288:328|316:308,1,80
380,212,133640,6,0,P|412:244|424:276,2,80,10|0|0,0:0|0:0|0:0,0:0:0:0:
304,188,134651,1,0,0:0:0:0:
192,232,134988,2,0,B|140:156|200:156|156:72,1,160,10|0,0:0|0:0,0:0:0:0:
84,56,136000,2,0,P|56:88|40:128,1,80,0|10,0:0|0:0,0:0:0:0:
64,240,136674,5,0,0:0:0:0:
64,240,137011,2,0,P|148:256|200:312,1,160,4|10,0:0|0:0,0:0:0:0:
248,200,138022,1,0,0:0:0:0:
316,240,138359,2,0,L|368:176,1,80
248,200,139033,2,0,P|260:156|280:120,1,80,10|0,0:0|0:0,0:0:0:0:
172,180,139708,6,0,P|168:88|200:28,1,160,4|10,0:0|0:0,0:0:0:0:
264,76,140719,1,0,0:0:0:0:
328,28,141056,2,0,P|344:68|336:112,1,80
328,184,141730,2,0,P|336:220|364:260,1,80
252,200,142404,6,0,P|172:200|104:248,1,160,4|10,0:0|0:0,0:0:0:0:
140,320,143415,1,0,0:0:0:0:
108,244,143753,2,0,L|88:156,1,80
164,136,144427,2,0,L|220:60,1,80,10|0,0:0|0:0,0:0:0:0:
332,64,145101,6,0,B|332:120|300:156|300:156|320:212,1,160,4|10,0:0|0:0,0:0:0:0:
400,228,146112,1,0,0:0:0:0:
296,288,146449,1,0,0:0:0:0:
212,204,146786,1,0,0:0:0:0:
184,320,147123,1,10,0:0:0:0:
296,288,147460,1,0,0:0:0:0:
212,204,147797,6,0,P|136:208|72:264,1,160,4|10,0:0|0:0,0:0:0:0:
4,220,148809,1,0,0:0:0:0:
72,184,149146,2,0,P|112:200|140:228,1,80
200,128,149820,2,0,P|216:168|208:212,1,80,10|0,0:0|0:0,0:0:0:0:
200,324,150494,6,0,B|260:324|284:296|284:296|352:328,1,160,4|10,0:0|0:0,0:0:0:0:
424,308,151505,1,0,0:0:0:0:
368,252,151842,2,0,L|288:216,1,80
252,152,152517,2,0,L|328:112,1,80,10|0,0:0|0:0,0:0:0:0:
292,40,153191,6,0,L|132:40,1,160,4|10,0:0|0:0,0:0:0:0:
96,112,154202,1,0,0:0:0:0:
112,232,154539,1,0,0:0:0:0:
212,164,154876,1,0,0:0:0:0:
112,232,155213,1,10,0:0:0:0:
224,276,155550,2,0,L|272:272,2,40,0|0|2,0:0|0:0|0:0,0:0:0:0:
372,104,173415,6,0,P|408:168|400:256,1,160,0|2,0:0|0:0,0:0:0:0:
328,284,174427,1,0,0:0:0:0:
248,291,174764,2,0,P|231:255|228:216,1,80
256,100,175438,2,0,P|228:128|192:144,1,80,2|0,0:0|0:0,0:0:0:0:
116,116,176112,5,0,0:0:0:0:
192,144,176449,1,0,0:0:0:0:
132,196,176786,1,2,0:0:0:0:
116,116,177123,1,0,0:0:0:0:
192,144,177460,2,0,B|216:184|204:220|204:220|244:216|280:240,1,160,0|2,0:0|0:0,0:0:0:0:
364,316,178472,1,0,0:0:0:0:
364,316,178809,2,0,P|392:236|376:156,1,160,0|2,0:0|0:0,0:0:0:0:
256,192,180157,12,0,181505,0:0:0:0:
416,176,185550,6,0,B|396:200|364:208|364:208|356:236|332:256,1,120.000004577637,0|10,0:0|0:0,0:0:0:0:
144,40,186899,6,0,P|184:120|156:216,1,191.999994140625,4|10,0:0|0:0,0:0:0:0:
80,272,187910,1,0,0:0:0:0:
168,312,188247,2,0,P|212:292|248:256,1,95.9999970703126
280,168,188921,2,0,P|304:196|360:224,1,95.9999970703126,10|0,0:0|0:0,0:0:0:0:
444,184,189595,5,0,0:0:0:0:
372,60,189932,1,0,0:0:0:0:
280,168,190269,1,10,0:0:0:0:
336,300,190606,1,0,0:0:0:0:
280,168,190944,2,0,P|244:184|212:232,1,95.9999970703126
336,300,191618,2,0,P|380:280|404:240,1,95.9999970703126,10|0,0:0|0:0,0:0:0:0:
280,168,192292,6,0,P|232:96|132:80,1,191.999994140625,0|10,0:0|0:0,0:0:0:0:
52,128,193303,1,0,0:0:0:0:
112,260,193640,2,0,P|152:324|260:340,1,191.999994140625,0|10,0:0|0:0,0:0:0:0:
316,208,194651,1,0,0:0:0:0:
316,208,194988,6,0,L|368:292,1,95.9999970703126
460,264,195663,2,0,L|456:168,1,95.9999970703126,10|0,0:0|0:0,0:0:0:0:
360,60,196337,1,0,0:0:0:0:
456,168,196674,1,0,0:0:0:0:
360,60,197011,1,10,0:0:0:0:
220,84,197348,1,0,0:0:0:0:
184,224,197685,6,0,P|104:260|8:224,1,191.999994140625,4|10,0:0|0:0,0:0:0:0:
12,128,198696,1,0,0:0:0:0:
156,136,199033,2,0,P|180:176|184:224,1,95.9999970703126,0|0,0:0|0:0,0:0:0:0:
116,292,199708,2,0,P|132:332|172:368,1,95.9999970703126,10|0,0:0|0:0,0:0:0:0:
184,224,200382,5,0,0:0:0:0:
272,108,200719,1,0,0:0:0:0:
272,252,201056,1,10,0:0:0:0:
188,136,201393,1,0,0:0:0:0:
324,180,201730,2,0,P|348:204|360:264,1,95.9999970703126
396,124,202404,2,0,P|372:80|372:36,1,95.9999970703126,10|0,0:0|0:0,0:0:0:0:
464,60,203078,5,0,0:0:0:0:
372,36,203415,1,0,0:0:0:0:
292,88,203753,1,10,0:0:0:0:
204,52,204090,1,0,0:0:0:0:
136,120,204427,2,0,P|136:172|148:220,1,95.9999970703126
236,184,205101,2,0,P|248:228|284:264,1,95.9999970703126,10|0,0:0|0:0,0:0:0:0:
372,228,205775,6,0,P|300:248|252:352,1,191.999994140625,0|10,0:0|0:0,0:0:0:0:
348,352,206786,1,0,0:0:0:0:
432,308,207123,2,0,P|476:252|464:136,1,191.999994140625,0|10,0:0|0:0,0:0:0:0:
344,56,208135,1,0,0:0:0:0:
344,56,208472,6,0,L|280:128,1,95.9999970703126,4|0,0:0|0:0,0:0:0:0:
168,220,209146,2,0,L|188:124,1,95.9999970703126,10|0,0:0|0:0,0:0:0:0:
128,52,209820,1,0,0:0:0:0:
128,52,210157,2,0,B|56:104|124:160|60:224,1,191.999994140625
172,316,211168,6,0,L|264:288,1,95.9999970703126,4|0,0:0|0:0,0:0:0:0:
312,204,211842,2,0,L|404:240,1,95.9999970703126,10|0,0:0|0:0,0:0:0:0:
256,192,212517,12,0,214539,0:0:0:0:
208,272,215213,6,0,P|244:288|300:288,1,95.9999970703126,4|0,0:0|0:0,0:0:0:0:
352,208,215887,2,0,L|428:276,1,95.9999970703126,10|0,0:0|0:0,0:0:0:0:
424,272,216562,1,0,0:0:0:0:
400,132,216899,1,0,0:0:0:0:
400,132,217236,2,0,L|328:68,1,95.9999970703126,10|0,0:0|0:0,0:0:0:0:
240,28,217910,6,0,P|168:64|120:160,1,191.999994140625,4|10,0:0|0:0,0:0:0:0:
148,252,218921,1,0,0:0:0:0:
268,332,219258,2,0,P|288:288|288:240,2,95.9999970703126,0|0|0,0:0|0:0|0:0,0:0:0:0:
236,92,220606,6,0,P|312:88|384:136,1,160,4|10,0:0|0:0,0:0:0:0:
392,212,221618,1,0,0:0:0:0:
316,184,221955,2,0,P|276:188|240:208,1,80
176,252,222629,2,0,L|204:340,1,80,10|0,0:0|0:0,0:0:0:0:
96,268,223303,6,0,L|72:192,1,80
72,192,223977,1,10,0:0:0:0:
160,112,224314,1,0,0:0:0:0:
160,112,224651,2,0,P|236:108|304:152,1,160,0|10,0:0|0:0,0:0:0:0:
240,256,225663,1,0,0:0:0:0:
360,264,226000,6,0,P|396:240|412:208,2,80,4|0|10,0:0|0:0|0:0,0:0:0:0:
336,188,227011,1,0,0:0:0:0:
311,112,227348,2,0,P|351:111|388:128,1,80
336,188,228022,2,0,L|256:188,1,80,10|0,0:0|0:0,0:0:0:0:
176,276,228696,2,0,L|352:276,1,160
256,188,229708,1,0,0:0:0:0:
140,160,230045,2,0,P|76:204|52:280,1,160,0|10,0:0|0:0,0:0:0:0:
176,276,231056,1,0,0:0:0:0:
256,188,231393,6,0,P|260:144|252:108,1,80,4|0,0:0|0:0,0:0:0:0:
320,68,232067,2,0,P|356:88|380:120,1,80,10|0,0:0|0:0,0:0:0:0:
368,236,232741,1,0,0:0:0:0:
368,236,233078,2,0,L|288:260,2,80,0|10|0,0:0|0:0|0:0,0:0:0:0:
308,340,234090,6,0,P|232:332|156:284,1,160,0|10,0:0|0:0,0:0:0:0:
128,212,235101,1,0,0:0:0:0:
228,144,235438,2,0,P|304:148|376:188,1,160,0|10,0:0|0:0,0:0:0:0:
272,256,236449,1,0,0:0:0:0:
376,188,236786,6,0,P|408:152|420:116,1,80,4|0,0:0|0:0,0:0:0:0:
300,96,237460,2,0,P|288:56|256:24,1,80,10|0,0:0|0:0,0:0:0:0:
180,116,238135,2,0,P|96:116|28:160,1,160,0|10,0:0|0:0,0:0:0:0:
24,236,239146,1,0,0:0:0:0:
128,296,239483,6,0,L|212:300,1,80
288,212,240157,2,0,L|208:208,1,80,10|0,0:0|0:0,0:0:0:0:
300,132,240831,2,0,P|340:152|364:184,1,80
312,288,241505,2,0,L|288:208,1,80,10|0,0:0|0:0,0:0:0:0:
224,108,242180,5,0,0:0:0:0:
256,184,256337,5,8,0:0:0:0:
256,192,257011,12,4,262404,0:0:0:0:
