osu file format v14

[General]
AudioFilename: WarabeMatsuri.mp3
AudioLeadIn: 0
PreviewTime: 69148
Countdown: 1
SampleSet: Soft
StackLeniency: 0.7
Mode: 0
LetterboxInBreaks: 1
WidescreenStoryboard: 1

[Editor]
Bookmarks: 17877
DistanceSpacing: 1.3
BeatDivisor: 4
GridSize: 4
TimelineZoom: 1.5

[Metadata]
Title:Warabematsuri
TitleUnicode:童祭
Artist:Ichimatsu Tsubaki
ArtistUnicode:市松椿
Creator:RandF
Version:Normal
Source:東方Project
Tags:Touhou Innocent Treasures Hifuu Club Usami Renko Maribel Han 君の美術館 Kimi no Bijutsukan palette ~人々が愛した幻想郷~ 夢違科学世紀 Changeability of Strange Dream
BeatmapID:718165
BeatmapSetID:323062

[Difficulty]
HPDrainRate:3
CircleSize:4
OverallDifficulty:4
ApproachRate:5
SliderMultiplier:1.2
SliderTickRate:1

[Events]
//Background and Video events
0,0,"bg3.jpg",0,0
//Break Periods
//Storyboard Layer 0 (Background)
//Storyboard Layer 1 (Fail)
//Storyboard Layer 2 (Pass)
//Storyboard Layer 3 (Foreground)
//Storyboard Sound Samples

[TimingPoints]
734,535.714285714286,4,2,1,30,1,0
734,-125,4,2,2,20,0,0
14127,-100,4,2,2,30,0,0
22170,535.714285714286,4,2,2,30,1,0
22705,535.714285714286,4,2,2,30,1,0
35539,-100,4,2,1,40,0,0
35540,535.714285714286,4,2,1,40,1,0
39815,535.714285714286,4,2,1,40,1,0
41972,535.714285714286,4,2,1,40,1,0
45171,535.714285714286,4,2,1,40,1,0
46257,535.714285714286,4,2,1,40,1,0
61247,535.714285714286,4,2,1,40,1,0
69822,535.714285714286,4,2,1,40,1,0
69822,-100,4,2,1,50,0,1
69955,-100,4,2,1,50,0,0
86964,-100,4,2,1,60,0,1
101964,-100,4,2,1,60,0,0
105182,535.714285714286,4,2,1,50,1,0
105182,-100,4,2,1,50,0,0
139467,-100,4,2,1,60,0,1
152324,-100,4,2,1,50,0,0

[Colours]
Combo1 : 254,220,131
Combo2 : 187,132,113

[HitObjects]
196,80,1270,6,0,P|286:51|376:80,1,192,2|2,0:0|0:0,0:0:0:0:
472,312,3412,2,0,P|381:340|291:311,1,192,2|2,0:0|0:0,0:0:0:0:
72,196,5555,6,0,L|40:286,1,96,2|0,0:0|0:0,0:0:0:0:
120,380,6627,2,0,L|152:288,1,96,2|0,0:0|0:0,0:0:0:0:
172,232,7430,1,0,0:0:0:0:
192,172,7698,6,0,P|244:184|300:164,1,96,2|0,0:0|0:0,0:0:0:0:
331,55,8770,2,0,P|286:43|239:54,1,96,2|0,0:0|0:0,0:0:0:0:
185,85,9573,1,0,0:0:0:0:
132,120,9841,6,0,B|96:84|96:84|32:84,1,96,2|0,0:0|0:0,0:0:0:0:
10,202,10912,2,0,B|46:238|46:238|110:238,1,96,2|0,0:0|0:0,0:0:0:0:
152,236,11716,1,0,0:0:0:0:
204,272,11984,6,0,P|236:308|256:356,1,96,2|0,0:0|0:0,0:0:0:0:
380,372,13055,2,0,P|348:336|328:288,1,96,2|0,0:0|0:0,0:0:0:0:
316,232,13859,1,0,0:0:0:0:
316,232,14127,5,2,0:0:0:0:
280,164,14395,2,0,L|216:208,2,60
344,120,15198,1,2,0:0:0:0:
416,92,15466,2,0,L|436:152,1,60,0|2,0:0|0:0,0:0:0:0:
508,176,16002,2,0,L|488:236,1,60,0|2,0:0|0:0,0:0:0:0:
436,380,16805,6,0,P|372:372|324:316,1,120,2|2,0:0|0:0,0:0:0:0:
252,200,17877,2,0,L|208:248,1,60
160,300,18412,5,2,0:0:0:0:
8,264,18948,2,0,L|108:160,1,120,0|2,0:0|0:0,0:0:0:0:
188,52,20020,2,0,P|217:50|245:39,1,60
320,12,20555,5,2,0:0:0:0:
420,132,21091,2,0,P|448:193|490:244,1,120,0|2,0:0|0:0,0:0:0:0:
420,376,22170,2,0,P|390:364|348:352,1,60
288,335,22705,6,0,P|300:277|289:218,1,120,2|0,0:0|0:0,0:0:0:0:
132,216,23776,2,0,L|160:269,1,60,2|0,0:0|0:0,0:0:0:0:
84,284,24312,2,0,L|55:230,1,60
24,160,24847,5,2,0:0:0:0:
8,83,25115,2,0,P|37:83|65:94,2,60
24,160,25919,2,0,P|81:172|129:140,1,120,2|0,0:0|0:0,0:0:0:0:
140,64,26722,1,0,0:0:0:0:
140,64,26990,6,0,B|200:48|200:48|255:65,1,120,2|0,0:0|0:0,0:0:0:0:
400,128,28062,1,2,0:0:0:0:
251,184,28597,2,0,P|258:212|279:233,1,60
348,276,29133,6,0,L|456:204,1,120,2|0,0:0|0:0,0:0:0:0:
361,81,30205,6,0,L|400:127,1,60,2|0,0:0|0:0,0:0:0:0:
344,184,30740,2,0,P|288:200|224:180,1,120,0|2,0:0|0:0,0:0:0:0:
256,192,31410,12,4,35540,0:1:0:0:
316,308,36611,6,0,P|256:344|204:356,1,120,8|0,0:0|0:0,0:0:0:0:
76,272,37682,2,0,L|32:224,2,60,2|0|2,0:0|0:0|0:0,0:0:0:0:
136,324,38486,1,0,0:0:0:0:
208,356,38754,2,0,P|258:323|316:308,1,120,8|0,0:0|0:0,0:0:0:0:
472,300,39815,6,0,B|472:252|472:252|460:228|460:228|460:160,1,120,2|0,0:0|0:0,0:0:0:0:
448,104,40618,2,0,P|384:92|320:60,1,120
276,16,41422,2,0,L|196:32,1,60,0|2,0:0|0:0,0:0:0:0:
147,72,41972,6,0,P|122:125|76:163,1,120
0,28,43043,1,8,0:0:0:0:
28,180,43579,1,0,0:0:0:0:
180,210,44114,6,0,P|252:204|305:223,1,120,6|0,0:0|0:0,0:0:0:0:
227,355,45171,1,8,0:0:0:0:
72,332,45706,2,0,P|51:312|35:276,1,60,0|2,0:0|0:0,0:0:0:0:
19,203,46257,5,2,0:0:0:0:
31,47,46792,2,0,L|72:98,1,60,2|0,0:0|0:0,0:0:0:0:
130,141,47328,2,0,P|188:130|244:107,1,120,8|0,0:0|0:0,0:0:0:0:
388,48,48399,5,2,0:0:0:0:
372,204,48935,1,0,0:0:0:0:
246,114,49471,1,8,0:0:0:0:
398,150,50007,2,0,L|372:204,1,60,0|8,0:0|0:0,0:0:0:0:
320,264,50542,6,0,P|256:248|204:188,1,120,2|0,0:0|0:0,0:0:0:0:
136,76,51614,1,8,0:0:0:0:
164,148,51882,1,8,0:3:0:0:
100,192,52149,2,0,P|64:184|36:164,1,60,8|4,0:3|0:3,0:0:0:0:
19,96,52685,6,0,P|76:78|136:76,1,120,4|0,0:0|0:0,0:0:0:0:
292,96,53757,2,0,P|252:120|200:140,2,90,8|0|0,0:0|0:0|0:0,0:0:0:0:
364,64,54828,6,0,P|404:120|440:188,1,120,2|0,0:0|0:0,0:0:0:0:
464,316,55899,2,0,P|428:344|376:360,2,90,8|0|0,0:0|0:0|0:0,0:0:0:0:
476,240,56971,6,0,P|412:224|352:180,1,120,2|0,0:0|0:0,0:0:0:0:
256,84,58042,2,0,P|304:60|360:52,2,90,8|8|8,0:0|0:0|0:0,0:0:0:0:
192,128,59114,5,6,0:0:0:0:
76,232,59649,1,6,0:0:0:0:
32,380,60185,2,0,P|88:340|140:320,1,120,6|0,0:0|0:0,0:0:0:0:
291,339,61247,6,0,P|288:280|259:228,1,120,6|0,0:0|0:0,0:0:0:0:
144,124,62318,2,0,P|120:152|72:180,2,90,8|0|0,0:0|0:0|0:0,0:0:0:0:
192,64,63389,6,0,P|256:52|328:84,1,120,2|0,0:0|0:0,0:0:0:0:
439,148,64461,2,0,P|401:169|384:210,2,90,8|0|0,0:0|0:0|0:0,0:0:0:0:
460,223,65532,6,0,P|428:271|371:286,1,120,2|0,0:0|0:0,0:0:0:0:
216,266,66604,1,8,0:0:0:0:
144,173,67005,2,0,B|131:216|131:216|89:240,1,90,8|8,0:0|0:0,0:0:0:0:
53,170,67675,6,0,L|28:107,1,60,6|8,0:0|0:0,0:0:0:0:
12,40,68211,1,8,0:3:0:0:
92,40,68479,2,0,L|168:40,1,60,8|4,0:3|0:1,0:0:0:0:
456,116,69822,6,0,P|404:152|340:156,1,120,6|0,0:0|0:0,0:0:0:0:
196,120,70893,1,8,0:0:0:0:
320,24,71429,2,0,L|288:96,1,60,2|8,0:0|0:0,0:0:0:0:
268,152,71964,6,0,B|276:212|276:212|320:264,1,120,2|0,0:0|0:0,0:0:0:0:
428,364,73036,1,8,0:0:0:0:
464,212,73572,2,0,L|408:272,1,60,2|8,0:0|0:0,0:0:0:0:
368,312,74107,6,0,P|316:340|256:320,1,120,2|0,0:0|0:0,0:0:0:0:
176,192,75179,2,0,L|140:252,1,60,8|0,0:0|0:0,0:0:0:0:
68,224,75714,2,0,L|98:172,1,60,2|8,0:0|0:0,0:0:0:0:
144,108,76250,5,2,0:0:0:0:
216,80,76518,2,0,L|216:12,2,60,0|0|2,0:0|0:0|0:0,0:0:0:0:
272,136,77322,2,0,B|292:160|292:160|316:152|316:152|336:184|380:196,1,120,8|8,0:0|0:3,0:0:0:0:
436,220,78125,1,8,0:0:0:0:
472,152,78393,6,0,P|432:96|380:68,1,120,6|0,0:0|0:0,0:0:0:0:
232,60,79464,2,0,P|181:79|92:84,1,120,8|2,0:0|0:0,0:0:0:0:
40,88,80268,1,8,0:0:0:0:
80,156,80536,6,0,P|111:207|126:264,1,120,2|0,0:0|0:0,0:0:0:0:
16,376,81607,1,8,0:0:0:0:
127,265,82143,2,0,P|156:244|180:236,1,60,2|8,0:0|0:0,0:0:0:0:
256,220,82679,6,0,P|316:228|380:268,1,120,2|0,0:0|0:0,0:0:0:0:
268,376,83750,1,8,0:0:0:0:
256,220,84286,2,0,P|236:184|204:152,1,60,2|8,0:0|0:0,0:0:0:0:
180,104,84822,5,2,0:0:0:0:
36,168,85357,2,8,P|63:220|116:247,1,120,0|0,0:0|0:0,0:0:0:0:
272,252,86429,2,0,L|328:204,1,60,8|8,0:0|0:3,0:0:0:0:
376,164,86964,5,6,0:0:0:0:
484,52,87500,2,0,B|428:32|428:32|371:54,1,120,8|0,0:0|0:0,0:0:0:0:
220,88,88572,2,0,L|220:20,2,60,2|0|2,0:0|0:0|0:0,0:0:0:0:
144,224,89643,6,0,B|87:246|87:246|31:226,1,120,8|0,0:0|0:0,0:0:0:0:
24,72,90714,2,0,L|88:92,1,60,8|0,0:0|0:0,0:0:0:0:
156,116,91250,6,0,P|200:164|228:240,1,120,2|8,0:0|0:0,0:0:0:0:
272,360,92322,1,0,0:0:0:0:
196,348,92589,2,0,P|166:335|128:308,2,60,2|8|0,0:0|0:0|0:0,0:0:0:0:
272,360,93393,5,2,0:0:0:0:
352,360,93661,1,0,0:0:0:0:
424,332,93929,1,8,0:0:0:0:
476,276,94197,1,2,0:0:0:0:
488,200,94464,2,0,B|484:152|456:112|456:112|432:136,1,120,0|8,0:0|0:0,0:0:0:0:
400,196,95268,1,0,0:0:0:0:
359,263,95536,6,0,P|322:219|329:161,1,120,6|8,0:0|0:0,0:0:0:0:
404,24,96607,1,0,0:0:0:0:
256,68,97143,2,0,L|196:88,1,60,8|0,0:0|0:0,0:0:0:0:
124,112,97679,6,0,P|124:180|148:244,1,120,2|8,0:0|0:0,0:0:0:0:
200,376,98750,2,0,L|256:357,1,60,0|2,0:0|0:0,0:0:0:0:
327,327,99286,2,0,P|315:269|325:210,1,120,8|2,0:0|0:0,0:0:0:0:
472,264,100357,5,8,0:0:0:0:
327,327,100893,1,0,0:0:0:0:
252,312,101161,2,0,P|228:304|197:286,1,60,2|8,0:0|0:0,0:0:0:0:
72,196,101964,6,0,L|88:132,1,60,10|10,0:0|0:0,0:0:0:0:
124,128,102366,2,0,L|140:64,1,60,2|10,0:0|0:0,0:0:0:0:
204,28,102902,1,2,0:0:0:0:
248,92,103170,2,0,P|268:120|288:140,1,60,2|10,0:0|0:0,0:0:0:0:
316,159,103572,2,8,P|345:155|375:160,1,60,2|10,0:0|0:0,0:0:0:0:
196,312,104643,2,0,P|166:316|136:311,1,60,8|8,0:0|0:3,0:0:0:0:
60,287,105182,6,0,P|64:228|57:168,1,120,6|8,0:0|0:0,0:0:0:0:
40,91,105985,2,0,P|97:73|150:45,1,120,2|2,0:0|0:0,0:0:0:0:
220,12,106789,1,8,0:0:0:0:
289,46,107057,1,0,0:0:0:0:
340,104,107324,6,0,L|360:172,1,60,2|0,0:0|0:0,0:0:0:0:
424,200,107860,2,0,L|404:268,1,60,0|2,0:0|0:0,0:0:0:0:
348,308,108396,2,0,P|292:292|244:228,1,120,0|8,0:0|0:0,0:0:0:0:
204,100,109467,6,0,B|172:107|128:60|85:63,1,120,2|8,0:0|0:0,0:0:0:0:
32,112,110271,2,0,B|36:208|36:208|72:192,1,120,2|2,0:0|0:0,0:0:0:0:
132,168,111074,2,0,L|163:219,1,60,8|0,0:0|0:0,0:0:0:0:
212,279,111610,6,0,P|266:255|325:258,1,120,2|8,0:0|0:0,0:0:0:0:
472,312,112682,2,0,P|464:339|440:372,1,60,0|2,0:0|0:0,0:0:0:0:
369,370,113217,2,0,L|326:259,1,120,8|2,0:0|0:0,0:0:0:0:
276,112,114289,5,8,0:0:0:0:
304,40,114557,2,0,P|344:82|347:140,1,120,2|2,0:0|0:0,0:0:0:0:
340,220,115360,2,0,P|369:218|395:204,1,60,8|0,0:0|0:0,0:0:0:0:
456,156,115896,5,2,0:0:0:0:
456,76,116164,2,0,L|456:0,2,60,0|8|2,0:0|0:0|0:0,0:0:0:0:
456,156,116967,2,0,P|426:200|368:228,1,120,0|8,0:0|0:0,0:0:0:0:
209,227,118039,6,0,P|155:203|121:155,1,120,2|8,0:0|0:0,0:0:0:0:
72,8,119110,1,0,0:0:0:0:
174,128,119646,2,0,L|121:156,1,60,8|0,0:0|0:0,0:0:0:0:
80,224,120182,6,0,B|136:236|136:236|192:280,1,120,2|8,0:0|0:0,0:0:0:0:
244,324,120985,1,0,0:0:0:0:
304,372,121253,2,0,P|332:340|372:320,1,60,2|8,0:0|0:0,0:0:0:0:
404,276,121789,2,0,L|376:240,2,30,8|8|4,0:0|0:3|0:3,0:0:0:0:
452,335,122324,6,0,P|479:284|463:228,1,120,6|8,0:0|0:0,0:0:0:0:
412,168,123128,1,2,0:0:0:0:
356,116,123396,2,0,P|339:59|367:8,1,120,0|8,0:0|0:0,0:0:0:0:
416,68,124199,1,0,0:0:0:0:
356,116,124467,6,0,P|312:156|256:216,1,120,2|8,0:0|0:0,0:0:0:0:
216,256,125271,1,2,0:0:0:0:
164,312,125539,2,0,L|122:259,1,60
52,284,126074,2,0,L|34:226,1,60,8|0,0:0|0:0,0:0:0:0:
20,147,126610,6,0,P|55:100|109:74,1,120,6|0,0:0|0:0,0:0:0:0:
188,64,127414,1,2,0:0:0:0:
265,75,127682,2,8,P|318:100|354:148,1,120,0|0,0:0|0:0,0:0:0:0:
380,220,128485,1,2,0:0:0:0:
436,168,128753,5,0,0:0:0:0:
436,168,129289,2,0,L|450:109,2,60,8|2|0,0:0|0:0|0:0,0:0:0:0:
456,244,130092,2,0,L|472:292,1,30,0|2,0:0|0:0,0:0:0:0:
476,312,130360,2,0,P|448:328|416:332,1,60,8|0,0:0|0:0,0:0:0:0:
344,312,130896,6,0,P|292:288|216:296,1,120,6|8,0:0|0:0,0:0:0:0:
156,312,131699,1,2,0:0:0:0:
115,379,131967,2,0,P|79:334|86:276,1,120,0|8,0:0|0:0,0:0:0:0:
124,204,132771,1,0,0:0:0:0:
196,178,133039,6,0,P|160:133|102:127,1,120,2|8,0:0|0:0,0:0:0:0:
48,184,133842,1,2,0:0:0:0:
102,128,134110,2,0,L|150:72,1,60
204,35,134646,2,0,P|262:23|320:36,1,120,8|12,0:0|0:0,0:0:0:0:
460,104,135717,5,12,0:0:0:0:
336,200,136253,2,2,L|276:248,1,60,12|0,0:0|0:0,0:0:0:0:
224,196,136789,2,0,L|270:158,1,60,12|0,0:0|0:0,0:0:0:0:
208,112,137324,6,0,L|154:85,1,60,12|2,0:0|0:0,0:0:0:0:
84,124,137860,1,8,0:0:0:0:
84,84,137994,2,0,L|84:16,1,60,10|6,0:3|0:3,0:0:0:0:
208,176,138932,2,0,L|208:256,1,60,4|0,0:1|0:0,0:0:0:0:
156,292,139467,5,6,0:0:0:0:
156,292,140003,2,0,P|210:312|264:287,1,120,8|0,0:0|0:0,0:0:0:0:
364,168,141074,2,0,L|317:130,1,60,8|0,0:0|0:0,0:0:0:0:
256,80,141610,6,0,P|301:41|359:28,1,120,2|8,0:0|0:0,0:0:0:0:
448,156,142682,1,0,0:0:0:0:
404,304,143217,2,0,P|373:330|340:348,1,60,8|0,0:0|0:0,0:0:0:0:
281,364,143753,6,0,P|233:344|161:332,1,120,2|0,0:0|0:0,0:0:0:0:
10,317,144824,2,0,P|34:297|74:281,1,60,0|2,0:0|0:0,0:0:0:0:
134,261,145360,2,0,P|119:234|96:216,1,60,8|0,0:0|0:0,0:0:0:0:
32,176,145896,5,2,0:0:0:0:
32,96,146164,2,0,L|32:32,2,60,0|8|2,0:0|0:0|0:0,0:0:0:0:
32,176,146967,2,0,B|72:172|96:140|96:140|128:148|148:132,1,120,0|8,0:0|0:0,0:0:0:0:
209,103,147771,1,0,0:0:0:0:
218,25,148039,6,0,P|270:51|287:107,1,120,6|8,0:0|0:0,0:0:0:0:
340,252,149110,2,0,P|393:226|426:177,1,120,0|8,0:0|0:0,0:0:0:0:
442,101,149914,1,0,0:0:0:0:
406,31,150182,6,0,P|348:45|295:72,1,120,2|8,0:0|0:0,0:0:0:0:
191,188,151253,2,0,L|231:128,1,60,0|2,0:0|0:0,0:0:0:0:
180,73,151789,2,0,P|126:46|68:31,1,120,8|2,0:0|0:0,0:0:0:0:
1,172,152860,5,8,0:0:0:0:
36,323,153396,2,0,L|84:283,1,60,0|2,0:0|0:0,0:0:0:0:
146,239,153932,2,0,P|208:253|267:237,1,120,8|2,0:0|0:0,0:0:0:0:
388,148,155003,2,0,L|388:216,1,60,8|0,0:0|0:0,0:0:0:0:
388,288,155539,5,6,0:0:0:0:
312,312,155807,2,0,L|268:328,1,30,8|8,0:0|0:0,0:0:0:0:
248,308,156074,2,0,B|236:292|236:292|248:264|248:264|228:224|240:176,1,120,8|4,0:3|0:1,0:0:0:0:
