osu file format v14

[General]
AudioFilename: WarabeMatsuri.mp3
AudioLeadIn: 0
PreviewTime: 69148
Countdown: 1
SampleSet: Soft
StackLeniency: 0.7
Mode: 0
LetterboxInBreaks: 1
WidescreenStoryboard: 1

[Editor]
Bookmarks: 17877
DistanceSpacing: 1
BeatDivisor: 4
GridSize: 4
TimelineZoom: 1.1

[Metadata]
Title:Warabematsuri
TitleUnicode:童祭
Artist:Ichimatsu Tsubaki
ArtistUnicode:市松椿
Creator:RandF
Version:Easy
Source:東方Project
Tags:Touhou Innocent Treasures Hifuu Club Usami Renko Maribel Han 君の美術館 Kimi no Bijutsukan palette ~人々が愛した幻想郷~ 夢違科学世紀 Changeability of Strange Dream
BeatmapID:718678
BeatmapSetID:323062

[Difficulty]
HPDrainRate:2
CircleSize:3
OverallDifficulty:2
ApproachRate:2
SliderMultiplier:1
SliderTickRate:1

[Events]
//Background and Video events
0,0,"bg3.jpg",0,0
//Break Periods
2,102164,103622
//Storyboard Layer 0 (Background)
//Storyboard Layer 1 (Fail)
//Storyboard Layer 2 (Pass)
//Storyboard Layer 3 (Foreground)
//Storyboard Sound Samples

[TimingPoints]
734,535.714285714286,4,2,1,30,1,0
734,-100,4,2,2,20,0,0
14127,-100,4,2,2,30,0,0
22170,535.714285714286,4,2,2,30,1,0
22705,535.714285714286,4,2,2,30,1,0
35540,535.714285714286,4,2,1,40,1,0
35540,-100,4,2,1,40,0,0
39815,535.714285714286,4,2,1,40,1,0
41972,535.714285714286,4,2,1,40,1,0
45171,535.714285714286,4,2,1,40,1,0
46257,535.714285714286,4,2,1,40,1,0
61247,535.714285714286,4,2,1,40,1,0
69822,535.714285714286,4,2,1,40,1,0
69822,-100,4,2,1,50,0,1
69955,-100,4,2,1,50,0,0
86964,-100,4,2,1,60,0,1
101964,-100,4,2,1,60,0,0
105182,535.714285714286,4,2,1,50,1,0
105182,-100,4,2,1,50,0,0
139467,-100,4,2,1,60,0,1
152324,-100,4,2,1,50,0,0

[Colours]
Combo1 : 254,220,131
Combo2 : 187,132,113

[HitObjects]
424,256,1270,6,0,P|329:279|234:251,1,200,2|0,0:0|0:0,0:0:0:0:
140,75,3412,2,0,P|236:50|331:78,1,200,2|0,0:0|0:0,0:0:0:0:
424,256,5555,6,0,B|418:374|296:381,1,200,2|0,0:0|0:0,0:0:0:0:
196,380,7162,1,0,0:0:0:0:
128,304,7698,2,0,B|95:260|48:247|48:247|74:204|69:148,1,200,2|0,0:0|0:0,0:0:0:0:
56,52,9305,1,0,0:0:0:0:
148,88,9841,6,0,L|348:24,1,200,2|0,0:0|0:0,0:0:0:0:
512,128,11984,2,0,L|321:188,1,200,2|0,0:0|0:0,0:0:0:0:
170,320,14127,6,0,P|256:363|342:319,1,200,2|0,0:0|0:0,0:0:0:0:
375,223,15734,2,0,P|326:219|281:239,1,100,0|2,0:0|0:0,0:0:0:0:
196,292,16805,2,0,L|128:220,1,100,2|2,0:0|0:0,0:0:0:0:
16,52,18412,6,0,P|112:76|208:52,1,200,2|0,0:0|0:0,0:0:0:0:
404,4,20555,2,0,P|428:100|404:196,1,200,2|0,0:0|0:0,0:0:0:0:
308,372,22705,6,0,P|215:340|96:320,1,200,2|0,0:0|0:0,0:0:0:0:
16,312,24312,1,0,0:0:0:0:
4,212,24847,2,0,B|-3:155|28:118|28:118|15:79|15:79|33:56|63:43,1,200,2|0,0:0|0:0,0:0:0:0:
256,84,26990,6,0,B|308:124|352:96|388:68|448:112,1,200,2|0,0:0|0:0,0:0:0:0:
445,310,29133,2,0,B|393:350|349:322|313:294|255:336,1,200,2|0,0:0|0:0,0:0:0:0:
256,192,31276,12,0,34490,0:0:0:0:
208,32,35540,6,8,P|108:36|32:112,1,200,6|0,0:0|0:0,0:0:0:0:
24,300,37682,2,0,P|80:288|128:260,1,100,2|2,0:0|0:0,0:0:0:0:
196,208,38754,1,8,0:0:0:0:
396,212,39815,6,0,P|371:307|302:378,1,200,2|8,0:0|0:0,0:0:0:0:
99,378,41972,2,0,L|63:282,1,100,2|2,0:0|0:0,0:0:0:0:
32,188,43043,1,8,0:0:0:0:
192,68,44114,5,6,0:0:0:0:
388,88,45171,2,0,L|352:181,1,100,8|0,0:0|0:0,0:0:0:0:
424,256,46257,2,0,L|459:162,1,100,2|2,0:0|0:0,0:0:0:0:
492,68,47328,1,8,0:0:0:0:
296,24,48399,5,2,0:0:0:0:
200,48,48935,1,0,0:0:0:0:
128,120,49471,1,8,0:0:0:0:
32,296,50542,2,0,P|124:328|218:297,1,200,2|8,0:0|0:0,0:0:0:0:
300,240,52149,1,4,0:3:0:0:
344,152,52685,6,0,P|254:103|156:60,1,200,6|8,0:0|0:0,0:0:0:0:
20,200,54828,2,0,P|108:247|199:288,1,200,2|8,0:0|0:0,0:0:0:0:
296,316,56435,1,0,0:0:0:0:
396,332,56971,6,0,P|456:288|460:164,1,200,2|8,0:0|0:0,0:0:0:0:
307,44,59114,5,6,0:0:0:0:
207,44,59649,1,6,0:0:0:0:
160,132,60185,2,0,P|208:143|256:129,1,100,6|8,0:0|0:0,0:0:0:0:
307,44,61247,6,0,P|399:65|447:165,1,200,6|8,0:0|0:0,0:0:0:0:
432,352,63389,2,0,B|372:352|372:352|356:316|356:316|256:316,1,200,2|8,0:0|0:0,0:0:0:0:
55,316,65532,5,2,0:0:0:0:
100,120,66604,2,0,P|68:96|16:84,2,75,8|8|8,0:0|0:0|0:0,0:0:0:0:
132,156,67675,2,0,P|226:183|321:157,1,200,6|4,0:0|0:1,0:0:0:0:
460,12,69822,6,0,B|420:-8|420:-8|396:20|396:20|328:-4|260:24,1,200,6|8,0:0|0:0,0:0:0:0:
124,144,71964,2,0,B|164:164|164:164|188:136|188:136|256:160|324:132,1,200,2|8,0:0|0:0,0:0:0:0:
504,144,74107,6,0,P|492:200|460:248,1,100,2|0,0:0|0:0,0:0:0:0:
396,304,75179,1,8,0:0:0:0:
304,344,75714,1,2,0:0:0:0:
200,352,76250,6,0,B|160:324|104:332|104:332|104:288|64:240,1,200,2|8,0:0|0:0,0:0:0:0:
8,160,77857,1,8,0:3:0:0:
36,64,78393,6,0,P|128:20|248:48,1,200,6|8,0:0|0:0,0:0:0:0:
300,96,80000,1,0,0:0:0:0:
360,176,80536,2,0,P|268:220|148:192,1,200,2|8,0:0|0:0,0:0:0:0:
88,156,82143,1,2,0:0:0:0:
256,192,82679,12,2,84822,0:0:0:0:
48,92,86429,6,0,L|48:192,1,100,0|6,0:0|0:0,0:0:0:0:
31,291,87500,2,0,P|81:286|123:259,1,100,8|0,0:0|0:0,0:0:0:0:
184,180,88572,1,8,0:0:0:0:
248,104,89107,2,0,P|289:77|339:71,2,100,2|8|0,0:0|0:0|0:0,0:0:0:0:
184,180,90714,1,8,0:0:0:0:
248,260,91250,6,0,L|320:328,1,100,2|8,0:0|0:0,0:0:0:0:
420,328,92322,2,0,L|492:260,1,100,0|8,0:0|0:0,0:0:0:0:
484,160,93393,2,0,B|444:131|432:76|432:76|391:91|332:70,1,200,2|0,0:0|0:0,0:0:0:0:
240,36,95000,1,8,0:0:0:0:
144,64,95536,6,0,B|64:124|64:124|140:188,1,200,6|0,0:0|0:0,0:0:0:0:
216,256,97143,1,8,0:0:0:0:
316,260,97679,6,0,L|412:204,1,100,2|8,0:0|0:0,0:0:0:0:
392,112,98750,2,0,L|305:162,1,100,0|8,0:0|0:0,0:0:0:0:
256,192,99822,12,10,101964,0:0:0:0:
156,28,105182,6,6,P|208:12|276:28,1,100,0|8,0:0|0:0,0:0:0:0:
311,100,106253,2,0,P|263:115|214:110,1,100,0|8,0:0|0:0,0:0:0:0:
114,115,107324,2,0,B|90:167|90:167|114:203|114:203|90:251|118:319,1,200,2|0,0:0|0:0,0:0:0:0:
172,380,108932,1,8,0:0:0:0:
271,377,109467,6,0,P|335:341|358:272,2,150,2|2|8,0:0|0:0|0:0,0:0:0:0:
259,277,111610,2,0,P|300:190|395:178,1,200,2|0,0:0|0:0,0:0:0:0:
461,252,113217,1,8,0:0:0:0:
360,267,113753,6,0,L|234:111,1,200,2|0,0:0|0:0,0:0:0:0:
172,32,115360,1,8,0:0:0:0:
73,51,115896,2,0,P|94:95|134:125,1,100,2|8,0:0|0:0,0:0:0:0:
233,112,116967,2,0,P|279:92|329:95,1,100,0|8,0:0|0:0,0:0:0:0:
393,174,118039,6,0,P|347:194|298:190,2,100,2|8|0,0:0|0:0|0:0,0:0:0:0:
428,80,119646,1,8,0:0:0:0:
329,96,120182,2,0,B|278:98|234:71|234:71|198:99|198:99|129:80,1,200,2|2,0:0|0:0,0:0:0:0:
20,240,122324,6,0,L|96:156,1,100,6|8,0:0|0:0,0:0:0:0:
184,196,123396,2,0,L|116:270,1,100,0|8,0:0|0:0,0:0:0:0:
52,346,124467,2,0,P|97:366|146:364,1,100,2|8,0:0|0:0,0:0:0:0:
236,319,125539,2,0,P|285:317|330:337,1,100,0|8,0:0|0:0,0:0:0:0:
424,376,126610,6,0,B|444:330|496:311|496:311|453:279|452:225,1,200,6|0,0:0|0:0,0:0:0:0:
448,124,128217,1,8,0:0:0:0:
468,24,128753,5,2,0:0:0:0:
376,60,129289,2,0,P|328:72|260:64,1,100,8|0,0:0|0:0,0:0:0:0:
180,52,130360,1,8,0:0:0:0:
88,12,130896,6,0,P|32:100|28:216,1,200,6|0,0:0|0:0,0:0:0:0:
52,288,132503,1,8,0:0:0:0:
96,376,133039,2,0,P|192:328|320:308,1,200,2|0,0:0|0:0,0:0:0:0:
384,304,134646,1,8,0:0:0:0:
484,308,135182,6,0,L|504:192,1,100,12|12,0:0|0:0,0:0:0:0:
400,204,136253,2,0,L|380:88,1,100,12|12,0:0|0:0,0:0:0:0:
308,40,137324,2,0,B|256:72|188:44|188:44|168:72|136:68,1,175,12|6,0:0|0:3,0:0:0:0:
52,272,139467,6,0,P|29:233|24:169,1,100,6|8,0:0|0:0,0:0:0:0:
44,80,140539,1,0,0:0:0:0:
132,128,141074,2,0,L|216:184,1,100,8|2,0:0|0:0,0:0:0:0:
315,183,142146,2,0,L|399:127,1,100,8|0,0:0|0:0,0:0:0:0:
480,68,143217,1,8,0:0:0:0:
492,168,143753,6,0,P|464:272|380:336,1,200,2|0,0:0|0:0,0:0:0:0:
296,348,145360,1,8,0:0:0:0:
196,348,145896,2,0,B|145:336|109:298|109:298|76:312|76:312|48:296|32:248,1,200,2|0,0:0|0:0,0:0:0:0:
28,164,147503,1,8,0:0:0:0:
88,84,148039,6,0,P|173:39|258:84,1,200,6|0,0:0|0:0,0:0:0:0:
174,139,149646,1,8,0:0:0:0:
92,197,150182,2,0,P|129:229|177:239,1,100,2|8,0:0|0:0,0:0:0:0:
280,240,151253,2,0,P|328:230|365:197,1,100,0|8,0:0|0:0,0:0:0:0:
256,192,152324,12,4,156610,0:1:0:0:
