osu file format v5

[General]
AudioFilename: Fatalize.mp3
AudioLeadIn: 993
PreviewTime: -1
Countdown: 1
SampleSet: Normal
StackLeniency: 0.7
Mode: 0
LetterboxInBreaks: 1

[Metadata]
Title:Fatalize
Artist:Ichiko Furukawa + Makoto Tonosu
Creator:supergarlic
Version:Master
Source:
Tags:

[Difficulty]
HPDrainRate:6
CircleSize:4
OverallDifficulty:5
SliderMultiplier:1.4
SliderTickRate:2

[Events]
//Background and Video events
0,0,"ToS.jpg"
//Break Periods
//Storyboard Layer 0 (Background)
//Storyboard Layer 1 (Failing)
//Storyboard Layer 2 (Passing)
//Storyboard Layer 3 (Foreground)
//Storyboard Sound Samples
//Background Colour Transformations
3,100,163,162,255

[TimingPoints]
742,377.358490566038,4,1,0,67,1

[Colours]
Combo1 : 255,255,0
Combo2 : 5,240,5
Combo3 : 5,5,240
Combo4 : 240,5,5
Combo5 : 255,150,0

[HitObjects]
256,96,364,6,0,B|192:96,4,35
256,96,2062,6,0,L|192:160,1,70
256,160,2440,1,0
256,96,2628,2,2,L|320:160,1,70
256,256,3194,1,4
256,256,3383,1,4
128,256,3760,2,2,B|96:224|128:192,4,70
192,288,4704,2,2,B|192:320|224:320,2,35
192,224,5081,1,0
192,160,5270,2,0,B|288:160,1,70
384,160,5836,1,4
256,192,6402,5,0
256,192,6591,1,0
256,256,6779,1,0
256,128,7157,1,0
256,64,7345,1,0
192,160,7723,1,0
128,160,7911,1,0
96,288,8289,2,8,B|192:256,1,70
224,256,8666,1,8
224,256,8855,1,8
352,256,9232,6,0,B|320:224|352:192,2,70
416,224,9798,2,2,B|416:128,1,70
352,160,10175,2,0,B|320:128|352:96,1,70
416,96,10553,2,6,B|416:0,1,70
288,32,11119,2,0,B|192:32,1,70
160,32,11496,1,2
160,32,11874,1,2
160,160,12251,6,0,B|160:256,1,70
160,288,12628,2,4,B|160:352,1,35
256,192,12817,12,0,14326
96,64,14892,5,0
128,128,15081,1,0
96,192,15270,1,0
128,256,15458,1,0
256,256,15836,1,0
256,128,16213,1,0
256,128,16402,1,0
352,192,16779,1,0
352,192,16968,1,0
288,192,17157,2,0,B|64:192,1,210,0|4
77,192,17911,1,4
256,160,18289,5,0
256,160,18477,1,0
259,35,18855,6,0,B|227:67|259:99,1,70
256,96,19232,2,0,B|291:131|259:163,1,70
259,163,19609,2,0,B|227:195|259:227,1,70
256,224,19987,2,0,B|291:259|259:291,1,70
263,285,20364,2,0,B|227:323|259:355,1,70
192,352,20742,2,0,B|64:224,1,140
96,256,21308,2,0,B|224:128,1,140
160,128,21874,6,0,B|96:192,1,70
160,128,22251,2,0,B|224:192,1,70
160,128,22628,2,0,B|160:32,1,70
224,64,23006,1,0
288,64,23194,2,0,B|384:128|256:256,1,210
270,241,23949,1,0
256,64,24892,6,4,B|128:128|320:288,1,280
313,282,25836,1,4
313,282,26025,1,4
384,192,26402,2,0,B|256:64|128:160,1,280
128,288,27534,1,2
256,256,27911,1,2
256,96,29421,5,0
192,96,29609,1,2
192,96,29798,1,0
192,224,30175,1,0
192,288,30364,1,2
192,288,30553,1,0
192,160,30930,6,8,B|224:128|160:128|192:96|192:96|224:64|192:32,1,140
195,36,31496,5,8
320,160,32062,6,8,B|352:128|288:128|320:96|320:96|352:64|320:32,1,140
256,160,33006,1,8
256,160,33572,1,8
256,32,33949,1,8
128,160,35458,6,0,B|96:224|128:320,3,140
256,320,36968,6,4,B|320:288|256:192,1,140
260,199,37534,1,4
96,192,38100,2,0,B|102:68|192:192,3,140
160,288,39609,1,0
288,288,39987,1,2
384,192,40364,1,2
320,160,40553,1,2
96,224,41685,5,0
96,160,41874,1,0
160,160,42062,1,0
224,160,42251,1,0
224,224,42440,1,0
160,224,42628,1,4
160,224,42817,1,4
160,224,43006,1,4
256,96,43572,2,8,B|256:192,1,70
224,288,44138,6,2,B|224:128,2,140
288,160,45270,6,2,B|288:0,2,140
288,288,46402,1,0
224,288,46591,1,0
160,288,46779,1,0
160,224,46968,2,4,B|256:224,1,70
256,192,47534,12,4,49043
256,96,49987,6,0,B|160:128|256:288,1,210
352,192,50930,1,8
352,128,51119,1,8
352,256,51496,1,8
160,32,52062,6,0,B|160:192,1,140
160,172,52628,1,8
224,128,52817,2,0,B|224:288,1,140,8|0
224,268,53383,1,8
256,96,54515,6,0,B|320:32,2,70
256,160,55081,1,0
96,224,55647,1,0
256,288,56213,1,0
192,160,56591,6,4,B|256:96|320:160,1,140
256,192,57157,1,4
352,64,57723,5,0
352,64,58100,2,0,B|160:96|160:256,2,280
256,128,60741,5,2
256,136,60836,5,2
256,144,60930,5,2
256,152,61025,5,2
256,160,61119,5,4
96,288,62251,6,0,B|128:320,2,35
96,224,62628,1,0
96,160,62817,1,0
96,160,63006,1,0
160,160,63194,1,0
288,160,63572,1,4
288,160,63760,1,4
288,288,64138,6,0,B|192:288,1,70
224,224,64515,1,8
160,224,64704,1,8
160,160,64892,2,0,B|256:160,1,70
224,96,65270,1,8
288,96,65458,1,8
288,160,65647,2,0,B|288:256,1,70
160,192,66213,1,4
384,192,66779,6,0,B|352:160,2,35
384,256,67157,1,4
256,256,67534,1,4
256,192,67723,1,8
128,192,68100,1,4
128,256,68289,1,8
0,256,68666,1,4
0,192,68855,1,8
64,96,69232,5,2
256,192,69609,12,0,72817
256,96,73194,6,0,B|160:128|256:288,1,210
248,275,73949,1,8
248,275,74138,1,0
248,275,74326,1,8
248,275,74515,1,8
352,192,75270,6,0,B|288:128,1,70
256,96,75647,2,0,B|256:192,1,70
192,128,76025,2,0,B|128:192,1,70
128,224,76402,2,2,B|224:224,2,70
256,224,77157,6,0,B|352:224,1,70
352,160,77534,1,0
352,160,77723,1,0
352,160,77911,1,0
320,96,78100,2,0,B|224:96,1,70
256,256,78666,5,4
256,256,78855,1,4
111,189,79232,6,0,B|256:160|408:192,2,280
96,256,80930,2,0,B|192:256,1,70
166,320,81308,2,0,B|70:320,1,70
96,320,81685,1,0
256,128,82251,6,0,B|160:128,3,70
160,192,83006,2,0,B|256:192,3,70
192,256,83760,1,0
192,256,84326,1,0
256,128,85270,5,4
320,160,85458,1,0
384,192,85647,1,0
384,192,85836,1,2
384,352,86402,2,0,B|224:256,3,140
160,192,87911,1,0
288,192,88289,6,2,B|192:128|352:64|160:0,1,210
192,128,89232,1,2
192,256,89609,1,2
256,288,89798,5,0
320,256,89987,1,0
320,192,90175,2,0,B|256:160,1,70
257,160,90553,2,2,B|192:192,1,70
194,190,90930,2,2,B|192:288,1,70
128,288,91308,5,4
128,128,91874,1,2
288,128,92440,1,4
288,128,92817,1,4
288,288,93383,1,2
288,288,93572,1,2
288,288,93760,1,2
224,288,93949,5,2
224,160,94326,2,0,B|160:128,1,70
96,128,94704,2,0,B|192:64,1,70
256,160,95270,1,0
384,160,95647,1,0
384,288,96025,2,0,B|288:288,6,70
448,288,97345,5,4
448,224,97534,2,0,B|352:160,2,70
448,32,98477,5,0
448,96,98666,2,0,B|352:160,2,70
384,64,99232,1,0
320,64,99421,1,0
256,192,99987,5,0
256,192,100364,2,0,B|128:128|96:288,1,210
160,288,101119,2,8,B|256:288,1,70
384,288,102062,5,0
352,224,102251,1,0
384,160,102440,1,0
352,96,102628,1,0
288,96,102817,1,0
256,160,103006,1,0
288,224,103194,1,0
256,288,103383,1,0
96,192,103949,5,4
256,192,104515,5,4
256,192,104892,5,4
416,192,105458,5,4
256,320,106025,5,4
256,320,106402,5,0
192,160,106779,2,0,B|256:128,1,70
256,128,107157,2,0,B|192:96,1,70
192,96,107534,2,0,B|192:0,1,70
256,32,107911,1,0
320,32,108100,6,0,B|320:96,10,35
256,192,109421,5,4
