osu file format v5

[General]
AudioFilename: Fatalize.mp3
AudioLeadIn: 993
PreviewTime: -1
Countdown: 1
SampleSet: Normal
StackLeniency: 0.7
Mode: 0
LetterboxInBreaks: 1

[Metadata]
Title:Fatalize
Artist:Ichiko Furukawa + Makoto Tonosu
Creator:supergarlic
Version:Arcane
Source:
Tags:

[Difficulty]
HPDrainRate:6
CircleSize:5
OverallDifficulty:6
SliderMultiplier:1.4
SliderTickRate:2

[Events]
//Background and Video events
0,0,"ToS.jpg"
//Break Periods
//Storyboard Layer 0 (Background)
//Storyboard Layer 1 (Failing)
//Storyboard Layer 2 (Passing)
//Storyboard Layer 3 (Foreground)
//Storyboard Sound Samples
//Background Colour Transformations
3,100,163,162,255

[TimingPoints]
742,377.358490566038,4,1,0,67,1

[HitObjects]
256,96,364,1,2
288,96,458,1,2
320,96,553,1,2
352,96,647,1,2
384,96,742,1,4
192,160,2062,5,0
160,160,2157,1,0
128,160,2251,2,2,L|192:224,1,70
224,256,2628,2,2,L|288:320,1,70
320,256,3006,1,0
369,204,3194,2,0,L|305:140,1,70
256,128,3572,1,0
256,64,3760,6,2,L|160:64,1,70
128,96,4138,1,2
192,128,4326,1,2
128,160,4515,1,2
176,208,4704,1,2
152,232,4798,1,2
128,256,4892,1,2
192,288,5081,1,2
224,224,5270,2,0,L|320:224,1,70,4|0
384,160,5836,1,4
288,64,6402,6,4,B|320:32,2,35
224,64,6779,1,0
160,64,6968,1,0
128,128,7157,1,0
160,192,7345,1,0
224,192,7534,1,0
288,192,7723,1,2
320,128,7911,1,2
192,128,8289,5,0
128,128,8477,2,0,B|96:192|128:224|192:192,2,140
192,160,9421,1,0
256,192,9609,1,0
320,224,9798,1,0
384,256,9987,1,0
384,192,10175,1,0
320,160,10364,1,0
384,128,10553,1,2
320,96,10742,1,2
256,64,10930,1,2
256,128,11119,2,6,B|128:160|96:96,2,140
256,256,12251,6,0,B|320:192,1,70
256,256,12628,1,2
240,240,12723,1,2
224,224,12817,2,2,B|320:160|224:128|352:224|384:128|320:256|416:160,1,210,2|0
416,128,13572,1,2
352,96,13760,1,0
288,128,13949,1,2
288,64,14138,2,4,B|288:-32,1,70
174,174,14892,5,0
128,224,15081,2,2,B|192:288,1,70
224,224,15458,2,0,B|160:160,1,70,0|2
224,128,15836,1,2
288,128,16025,1,0
224,128,16213,1,2
224,64,16402,2,0,B|160:64|192:128,1,70,2|0
128,96,16779,2,2,B|64:96|96:160,1,70
96,192,17157,1,0
128,192,17251,1,0
160,192,17345,1,0
224,192,17534,2,8,B|288:224|320:192,2,70
320,64,18289,5,4
320,64,18477,1,4
256,288,18855,6,2,B|256:192,1,70,2|8
192,224,19232,2,2,B|192:128,1,70,2|8
256,160,19609,2,2,B|256:64,1,70,2|8
192,96,19987,2,2,B|192:0,1,70,2|8
256,32,20364,2,0,B|288:64,1,35
280,56,20553,2,2,B|384:160|256:256,1,210
224,192,21308,1,4
160,192,21496,1,4
192,134,21685,1,4
192,64,21874,6,0,B|192:160,1,70
192,192,22251,2,8,B|192:288,1,70
256,256,22628,1,0
320,256,22817,1,8
288,192,23006,1,0
288,128,23194,1,8
288,64,23383,1,2
288,128,23572,2,2,B|192:128|192:128|224:192|192:256|192:256|288:256|320:256,1,350,2|4
416,96,24892,6,4,B|256:96,1,140,4|8
224,96,25458,1,0
192,160,25647,2,4,L|352:160,1,140,4|8
384,160,26213,1,8
352,224,26402,2,4,L|192:224,1,140,4|0
160,224,26968,1,8
128,288,27157,2,4,L|288:288,1,140,4|0
320,288,27723,1,8
352,224,27911,5,4
256,64,28289,1,8
256,64,28477,1,8
256,192,28855,1,8
256,320,29232,1,8
128,320,29609,1,8
128,256,29798,1,8
128,192,29987,1,8
256,192,30364,1,0
320,192,30553,1,2
320,192,30742,1,2
256,192,30930,6,0,B|96:160|256:128|64:96,1,210
96,288,32062,1,0
160,288,32251,1,0
224,288,32440,2,0,B|192:224|256:160|192:64,2,210
352,288,33949,2,0,B|288:256|224:320|128:288,1,210
128,192,34892,5,4
128,192,35081,1,4
128,128,35270,1,4
192,128,35458,1,0
320,128,35836,1,0
458,128,36213,2,0,B|298:128,1,140
256,224,36968,6,8,L|160:224,2,70
256,160,37534,1,4
256,96,37723,1,4
320,96,37911,2,8,L|416:96,2,70
320,160,38477,1,4
320,224,38666,1,4
320,288,38855,2,8,L|416:288,2,70
256,288,39421,1,4
256,288,39609,1,4
220,128,39987,5,0
224,256,40364,2,4,B|320:256,1,70
288,128,40930,2,8,B|192:128,1,70
224,128,41308,1,8
224,256,41685,5,2
288,224,41874,1,2
352,256,42062,1,2
288,288,42251,1,2
288,224,42440,1,2
288,160,42628,1,2
288,96,42817,2,4,B|256:64|320:64|288:32,1,70
256,352,43572,5,8
192,192,44138,5,4
320,192,44515,1,4
256,32,45081,5,8
128,192,45647,6,0,B|160:128|192:256|256:160,1,140
256,320,46402,2,8,B|256:224,1,70
256,192,46779,2,8,B|256:96,1,70
256,64,47157,2,0,B|256:-32,1,70
224,160,47723,5,0
224,160,47817,1,0
224,160,47911,1,0
288,128,48100,5,0
288,128,48194,1,0
288,128,48289,1,0
224,96,48477,5,0
224,96,48572,1,0
224,96,48666,1,0
288,64,48855,5,0
288,64,48949,1,0
288,64,49043,1,4
256,320,49987,5,8
192,288,50175,1,8
256,256,50364,1,8
192,224,50553,1,0
320,224,50930,1,8
256,192,51119,1,8
256,64,51496,5,0
256,192,52062,5,2
256,256,52251,1,2
256,320,52440,1,2
192,192,52817,1,2
192,256,53006,1,2
192,320,53194,1,2
256,256,53383,1,4
320,192,53572,1,2
320,256,53760,1,2
320,320,53949,1,2
256,192,54515,5,0
256,128,54704,1,0
192,128,54892,1,0
192,192,55081,1,0
192,192,55270,1,0
224,256,55458,1,0
288,256,55647,1,0
256,64,56213,5,0
256,64,56591,2,8,B|160:96|192:224|352:160|320:64,2,210
256,192,58100,2,0,B|256:352,2,140
256,128,59043,1,8
256,128,59138,1,8
256,128,59232,1,8
192,128,59421,1,8
224,192,59609,2,0,B|160:224|320:256|192:320,1,140
160,288,60175,5,0
160,224,60364,1,0
160,160,60553,1,0
288,160,60930,5,4
224,160,61119,2,4,B|256:64|288:320,1,210
320,192,62062,1,8
320,128,62251,1,8
256,128,62440,5,0
256,128,62534,1,0
256,128,62628,1,0
256,192,62817,1,0
256,256,63006,1,0
192,256,63194,1,0
192,128,63572,1,2
192,192,63760,1,2
192,64,64138,5,8
128,64,64326,1,4
160,128,64515,1,4
128,192,64704,1,8
160,256,64892,1,4
224,224,65081,1,8
256,160,65270,1,4
224,96,65458,1,4
288,96,65647,1,8
320,160,65836,1,4
288,224,66025,1,8
352,224,66213,1,4
160,128,66968,5,0
192,128,67062,1,0
224,128,67157,1,0
288,128,67345,1,2
288,192,67534,1,8
288,128,67723,1,8
160,128,68100,1,0
160,192,68289,1,0
160,320,68666,6,0,B|256:320,1,70
288,320,69043,2,0,B|224:256,1,70
224,160,69609,2,0,B|224:256,1,70
288,192,69987,1,0
288,128,70175,1,8
224,96,70364,1,0
160,128,70553,1,0
224,160,70741,1,8
160,192,70930,1,0
224,224,71119,1,0
224,352,71496,2,0,B|224:256,1,70
224,224,71874,1,0
224,96,72251,1,0
352,64,72628,5,0
320,128,72817,1,0
288,192,73006,1,4
288,192,73100,1,4
288,192,73194,1,4
128,192,73760,6,8,B|128:96,1,70
192,32,74326,1,8
192,32,74421,1,8
192,32,74515,1,8
192,96,74704,1,8
192,160,74892,2,8,B|288:160,1,70
320,160,75270,5,0
320,224,75458,2,0,B|384:224,2,35
256,256,75836,2,0,B|320:256,2,35
192,288,76213,2,0,B|256:288,2,35
128,256,76591,2,0,B|128:160,1,70
192,64,77157,1,0
192,128,77345,1,0
192,192,77534,1,0
261,128,77723,2,4,B|165:128,1,70
128,128,78100,1,4
128,128,78289,1,4
256,288,78666,5,8
256,224,78855,1,8
256,32,79232,6,4,B|192:96,1,70,4|8
256,96,79609,2,4,B|320:160,1,70,4|8
256,160,79987,2,4,B|192:224,1,70,4|8
256,224,80364,2,4,B|320:288,1,70,4|8
256,288,80741,2,4,B|192:352,1,70,4|8
160,320,81119,2,0,B|96:224|352:256|96:96,1,280
117,109,81968,1,0
117,109,82062,1,0
64,96,82251,2,2,B|64:192,3,70
64,288,83194,2,2,B|64:384,4,70
256,192,84326,5,4
256,192,84421,1,4
256,192,84515,1,4
256,64,85270,6,0,B|128:96|256:128,1,140,0|8
256,192,85836,1,8
256,256,86025,2,0,B|384:288|256:320,1,140,0|8
264,317,86591,1,8
192,320,86779,2,0,B|192:160,1,140,0|8
256,180,87345,1,8
320,180,87534,2,4,B|320:20,2,140
288,256,88477,5,4
256,192,88666,1,4
256,128,88855,1,4
160,32,89232,1,4
160,160,89609,1,0
224,192,89798,1,0
224,320,90175,1,0
224,256,90364,1,0
224,192,90553,1,0
288,160,90741,1,0
224,128,90930,1,8
224,128,91119,1,8
256,192,91308,6,8,B|128:224|416:256|256:320,2,210
160,160,92817,2,8,B|253:84|377:170,2,210,0|0|0
256,192,94326,2,8,L|192:128|128:192|256:320|384:192|256:64,1,700
256,192,96591,1,0
256,320,96968,1,0
256,192,97345,5,4
256,192,97911,1,2
256,64,98477,1,4
256,64,98855,1,4
256,64,99421,1,2
256,64,99987,1,0
192,96,100175,1,0
256,128,100364,5,0
256,256,100741,1,8
256,320,100930,1,8
128,320,101308,1,0
128,192,101685,1,0
128,64,102062,5,4
128,64,102251,1,4
192,64,102440,1,8
192,128,102628,1,4
192,128,102817,1,4
256,128,103006,1,2
256,192,103194,1,4
256,192,103383,1,4
320,192,103572,1,8
320,256,103760,1,4
320,256,103949,1,4
384,256,104138,1,2
256,256,104515,6,4,L|256:160,1,70
256,186,104892,2,4,L|169:186,2,70
320,184,105458,1,4
320,192,106025,1,4
192,192,106402,2,2,L|192:160|224:160|224:128|256:128|256:96|288:96|288:64,1,210
288,128,107157,2,2,L|288:160|256:160|256:192|224:192|224:224|192:224|192:256,1,210
256,192,108289,12,4,109421
