osu file format v5

[General]
AudioFilename: Magic of Love.mp3
AudioLeadIn: 2000
PreviewTime: 3381
Countdown: 0
SampleSet: Normal
StackLeniency: 0.7
Mode: 0
LetterboxInBreaks: 1
EditorBookmarks: 10829,24032,42828,57818,73992

[Metadata]
Title:Magic of Love
Artist:Ichiko
Creator:ztrot
Version:Yuna (Normal)
Source:Maburaho
Tags:anime magic of love ichiko maburaho

[Difficulty]
HPDrainRate:5
CircleSize:3
OverallDifficulty:4
SliderMultiplier:1.4
SliderTickRate:2

[Events]
//Background and Video events
0,0,"maburaho_127_1280.jpg"
1,-384,"[A4L]_Maburaho_19_[1B135DB2]_xvid_xvid.avi"
//Break Periods
2,21529,27582
//Storyboard Layer 0 (Background)
//Storyboard Layer 1 (Failing)
//Storyboard Layer 2 (Passing)
//Storyboard Layer 3 (Foreground)
//Storyboard Sound Samples
//Background Colour Transformations
3,100,163,162,255

[TimingPoints]
778,394.736842105263,4,1,0,50,1,0
56832,-100,4,1,0,50,0,0
89179,-100,4,1,0,50,0,0

[Colours]
Combo1 : 238,238,238
Combo2 : 253,174,255

[HitObjects]
56,80,2356,1,4
152,80,2751,1,4
88,208,3343,5,0
88,208,3541,1,0
88,208,3738,2,2,C|88:280|416:288,1,420,2|0
480,240,5120,6,0,C|480:160,1,70,0|8
392,120,5712,1,0
344,120,5909,1,8
488,40,6501,5,0
448,64,6699,1,0
400,40,6896,2,2,B|0:40|48:176,1,420,2|0
48,216,8278,5,0
48,264,8475,1,12
152,304,8870,1,0
200,304,9067,1,8
152,208,9462,5,0
200,208,9659,1,8
200,160,9856,1,8
200,112,10054,2,2,B|408:112|456:288|156:297,1,420
192,240,11435,5,8
192,184,11633,2,2,B|-42:182|-17:-44|232:10,1,420
240,56,13014,5,8
296,56,13212,2,2,C|400:56|312:144|408:152|336:208,1,420
376,248,14593,5,2
432,248,14791,2,2,C|432:336|312:304,1,210
264,304,15580,1,8
264,256,15777,1,8
264,208,15975,2,2,L|163:108,1,140
112,96,16567,1,4
88,48,18343,5,0
56,88,18541,1,0
88,120,18738,1,0
56,152,18935,1,0
88,192,19133,1,0
48,224,19330,1,0
88,256,19527,1,0
144,256,19725,5,4
288,256,20317,1,4
424,200,20909,1,4
424,104,21304,1,4
56,56,28606,5,0
56,104,28804,1,0
56,152,29001,1,0
56,200,29199,5,0
152,200,29593,1,0
248,200,29988,1,0
304,120,30383,1,0
352,200,30778,2,0,C|376:144|424:152|480:120|432:120,2,210,8|0|8
384,264,32159,5,0
336,264,32356,1,0
288,264,32554,1,0
240,264,32751,1,0
192,264,32949,2,0,L|192:112,1,140
192,72,33541,1,0
144,72,33738,1,0
48,72,34133,1,8
48,72,34330,1,4
192,72,34922,5,0
288,72,35317,1,0
288,72,35514,1,0
368,128,35909,1,0
400,224,36304,1,0
312,272,36699,1,0
216,272,37093,2,0,L|96:152,3,140,0|8|0|8
117,173,38475,5,0
120,120,38672,1,0
120,64,38870,1,0
176,64,39067,2,0,L|328:64,1,140
368,64,39659,1,0
368,176,40054,1,0
408,280,40449,5,0
352,280,40646,1,0
296,280,40843,1,0
296,336,41041,1,0
296,336,41238,1,0
240,336,41435,1,8
184,336,41633,1,8
184,336,41830,1,4
72,336,42225,5,0
72,224,42620,1,8
72,112,43014,5,0
168,48,43409,1,0
256,112,43804,1,0
352,48,44199,1,0
432,120,44593,1,0
512,48,44988,2,4,C|504:176|432:240|496:256|496:304|328:304,1,490,4|0
248,304,46764,5,0
192,304,46962,1,0
136,304,47159,1,0
136,248,47356,2,0,L|136:176|136:104,1,140,0|8
136,48,47949,1,8
192,48,48146,2,0,C|256:8|304:64|368:8|416:64|480:16|512:40,1,420
448,256,49725,5,0
352,192,50120,1,0
264,264,50514,1,0
176,192,50909,1,0
88,264,51304,5,4
96,160,51699,1,0
96,160,51896,1,0
144,72,52291,1,0
144,72,52488,1,0
240,72,52883,5,0
336,72,53277,1,0
432,72,53672,1,0
432,168,54067,1,8
432,264,54462,1,4
256,192,54659,12,4,56633
72,56,57027,5,0
72,56,57225,1,0
72,56,57422,2,2,C|32:160|152:184|72:320|72:320,1,420,2|0
118,323,58804,5,8
166,325,59001,1,0
264,325,59396,1,0
312,325,59593,1,8
384,200,60185,5,0
408,152,60383,1,0
384,104,60580,2,2,C|296:168|208:104|128:168|24:176,1,420,2|0
40,224,61962,5,0
40,272,62159,1,8
136,272,62554,1,0
184,272,62751,1,8
280,272,63146,1,8
376,272,63541,1,8
376,224,63738,2,2,C|376:144|456:128|416:40|328:56|288:128,1,420
248,104,65120,5,8
200,104,65317,2,2,C|80:104|64:328,1,350
112,328,66501,5,8
160,328,66699,1,8
208,328,66896,2,2,C|392:328|496:328|432:272|496:256,1,420
472,208,68277,5,0
472,160,68475,1,8
376,160,68870,1,0
376,112,69067,1,0
328,112,69264,1,0
328,64,69462,1,0
280,64,69659,1,0
232,64,69856,1,8
184,64,70054,2,2,C|40:72|24:280,1,350
120,272,71435,5,0
168,272,71633,1,8
264,272,72027,1,0
264,224,72225,1,8
408,216,72817,5,0
408,168,73014,1,0
408,120,73212,1,0
96,96,74396,5,0
96,144,74593,1,0
96,192,74791,1,8
96,288,75185,1,0
96,288,75383,1,8
192,288,75777,1,8
192,192,76172,1,8
192,192,76370,1,4
480,296,77554,5,0
480,248,77751,1,0
480,200,77949,1,4
192,192,79133,5,0
192,240,79330,1,0
192,288,79527,1,4
488,288,80712,5,0
488,240,80909,1,0
488,192,81106,1,4
488,96,81501,1,0
488,48,81699,1,8
392,48,82093,1,2
296,48,82488,1,8
296,48,82685,1,4
48,48,84659,5,0
80,80,84856,1,0
120,112,85054,1,0
152,144,85251,1,0
224,208,85646,1,8
224,208,85843,1,4
256,192,85942,12,4,89199
