osu file format v5

[General]
AudioFilename: Magic of Love.mp3
AudioLeadIn: 2000
PreviewTime: 3381
Countdown: 0
SampleSet: Normal
StackLeniency: 0.7
Mode: 0
LetterboxInBreaks: 1
EditorBookmarks: 10829,24032,42828,57818,73992

[Metadata]
Title:Magic of Love
Artist:Ichiko
Creator:ztrot
Version:Kuriko (Hard)
Source:Maburaho
Tags:anime magic of love ichiko maburaho

[Difficulty]
HPDrainRate:6
CircleSize:4
OverallDifficulty:6
SliderMultiplier:1.6
SliderTickRate:2

[Events]
//Background and Video events
0,0,"maburaho_127_1280.jpg"
1,-384,"[A4L]_Maburaho_19_[1B135DB2]_xvid_xvid.avi"
//Break Periods
//Storyboard Layer 0 (Background)
//Storyboard Layer 1 (Failing)
//Storyboard Layer 2 (Passing)
//Storyboard Layer 3 (Foreground)
//Storyboard Sound Samples
//Background Colour Transformations
3,100,163,162,255

[TimingPoints]
778,394.736842105263,4,1,0,50,1,0
56832,-100,4,1,0,50,0,0
89179,-100,4,1,0,50,0,0

[Colours]
Combo1 : 238,238,238
Combo2 : 253,174,255

[HitObjects]
448,56,2356,1,4
304,56,2751,1,4
88,56,3343,5,0
88,128,3541,1,0
88,200,3738,2,2,B|40:328|280:288,1,240
392,312,4725,1,8
480,312,4922,5,0
480,240,5120,2,0,C|480:160,1,80
344,112,5712,1,0
344,40,5909,1,8
344,184,6304,1,8
272,184,6501,5,0
240,120,6699,1,0
176,80,6896,2,2,B|64:32|40:200|120:232,1,240
248,224,7883,1,8
176,224,8080,5,0
144,296,8278,2,0,C|240:296,1,80,0|8
368,296,8870,1,0
368,224,9067,1,8
464,352,9462,1,0
464,280,9659,1,0
464,208,9856,1,0
464,136,10054,2,2,B|184:136,1,240
48,312,11041,1,8
120,312,11238,5,0
176,272,11435,1,0
232,312,11633,2,2,B|496:312,1,240
472,168,12620,1,8
416,120,12817,5,0
360,168,13014,1,0
304,120,13212,2,2,B|24:120,1,240
64,264,14199,1,8
136,264,14396,5,0
200,232,14593,1,0
264,264,14791,1,4
352,152,15185,1,0
296,104,15383,1,4
352,56,15580,1,0
416,104,15777,1,0
488,104,15975,2,8,L|488:208,1,80,0|12
488,256,16370,1,4
256,192,16567,12,8,18146
48,32,18343,5,0
104,80,18541,1,0
48,120,18738,1,0
104,168,18935,1,0
48,208,19133,1,0
96,264,19330,1,0
136,320,19527,1,0
32,320,19725,5,4
472,320,20317,1,4
472,40,20909,1,4
144,40,21304,1,4
392,288,22488,5,0
256,232,22883,1,0
312,176,23080,1,0
256,128,23278,1,0
200,176,23475,1,0
80,104,23870,1,0
80,248,24264,1,0
200,176,24659,1,0
256,128,24856,1,0
200,80,25054,1,0
424,104,25449,5,4
112,104,25843,1,4
424,280,26238,1,4
112,280,26633,1,4
424,192,27028,1,4
112,192,27422,1,4
184,192,27620,6,8,B|208:112|232:224,3,80
464,208,28606,5,0
464,136,28804,1,0
392,136,29001,1,0
392,208,29199,2,0,B|296:208|272:120,3,160,0|0|0|0
272,264,30778,2,0,B|176:264|152:176,3,160,0|0|0|8
80,160,32159,5,0
80,88,32356,1,0
152,88,32554,1,0
224,88,32751,1,0
296,88,32949,2,8,L|296:192,1,80
368,176,33343,2,8,B|368:264,1,80
440,256,33738,1,8
440,112,34133,2,0,B|440:16,1,80,0|8
104,80,34922,5,0
104,224,35317,1,0
104,224,35514,1,8
248,224,35909,1,0
392,224,36304,1,0
392,80,36699,1,0
248,80,37093,2,0,L|72:80,3,160,0|8|0|8
88,80,38475,5,0
88,152,38672,1,0
88,224,38870,1,0
88,296,39067,2,8,L|248:296,1,160
320,296,39659,2,8,B|320:104,1,160
488,232,40449,5,0
488,232,40646,1,0
488,232,40843,1,0
488,160,41041,1,0
488,160,41238,1,0
488,88,41435,1,8
488,88,41633,1,8
488,88,41830,1,12
344,80,42225,5,0
200,80,42620,1,0
120,200,43014,5,0
280,320,43409,1,0
432,192,43804,1,0
280,72,44199,1,0
280,192,44593,1,0
152,120,44988,2,0,B|-8:24|-64:208|-40:312|176:320,1,480,4|8
312,320,46370,6,0,B|480:320,1,160,0|0
472,248,46962,1,0
472,176,47159,1,0
400,176,47356,2,8,B|232:176,1,160,0|8
240,104,47949,1,8
240,32,48146,2,8,B|32:32|32:208|32:288|264:264,1,480,4|8
208,120,49725,5,0
352,120,50120,1,0
280,240,50514,1,0
208,120,50909,1,0
352,120,51304,1,0
232,40,51699,5,8
232,40,51896,1,8
104,112,52291,1,8
104,112,52488,1,8
96,256,52883,1,0
240,256,53277,1,0
384,256,53672,1,0
384,112,54067,1,8
240,112,54462,1,4
256,192,54659,12,4,56633
72,56,57027,5,0
72,56,57225,1,0
72,56,57422,2,2,C|120:80|48:128|128:184,1,240
128,328,58409,1,8
200,328,58606,5,0
272,328,58804,1,0
304,264,59001,1,0
304,120,59396,1,0
376,120,59593,1,0
376,264,59988,1,8
264,224,60185,5,0
264,224,60383,1,0
264,224,60580,2,2,C|280:176|72:176,1,240
104,32,61567,1,8
104,104,61764,5,0
104,176,61962,1,0
104,248,62159,1,0
248,248,62554,1,0
320,248,62751,1,8
320,104,63146,1,8
248,104,63343,1,8
200,48,63541,1,8
152,104,63738,2,2,C|80:144|160:184|112:232,1,240
256,232,64725,1,8
328,232,64922,5,0
328,232,65120,1,0
328,232,65317,2,2,C|392:272|328:328|408:360,1,240
248,352,66304,1,8
176,352,66501,5,0
128,296,66699,1,0
128,224,66896,2,2,C|176:184|168:264|248:200,1,240
384,208,67883,1,8
384,136,68080,5,0
384,136,68277,1,0
384,136,68475,1,0
272,40,68870,1,0
224,96,69067,1,0
176,40,69264,1,0
128,96,69462,1,0
80,40,69659,1,0
32,96,69856,1,0
32,168,70054,2,2,C|16:248|112:224|120:296,1,240
264,280,71041,1,8
336,280,71238,5,0
336,280,71435,1,0
336,280,71633,1,0
432,176,72027,1,0
432,176,72225,1,0
248,56,72817,5,0
320,56,73014,1,0
320,128,73212,2,2,B|56:128,1,240
80,272,74199,1,8
136,224,74396,5,0
208,224,74593,1,0
256,168,74791,1,0
384,96,75185,1,8
312,96,75383,1,0
168,96,75777,1,0
112,136,75975,1,0
56,176,76172,1,0
56,176,76370,2,2,C|40:248|128:216|136:296,1,240
280,280,77356,1,8
352,280,77554,5,0
424,256,77751,1,0
472,200,77949,2,2,B|200:200,1,240
80,208,78935,1,8
120,144,79133,5,0
192,144,79330,1,0
232,200,79527,2,2,B|368:104|432:280,1,240,0|4
424,112,80514,1,0
424,40,80712,5,0
352,40,80909,1,0
280,40,81106,1,4
128,40,81501,1,0
128,112,81699,1,4
128,184,81896,1,0
128,256,82093,1,0
272,264,82488,1,0
344,264,82685,2,0,B|432:208|472:152|392:48|160:40|40:160|224:272,1,560,4|0
40,184,84659,5,0
72,120,84856,1,0
136,80,85054,1,0
208,80,85251,1,0
352,80,85646,1,8
352,80,85843,1,4
256,192,85942,12,4,89199
