osu file format v6

[General]
AudioFilename: Roulette Roulette.mp3
AudioLeadIn: 0
PreviewTime: 53355
Countdown: 1
SampleSet: Normal
StackLeniency: 0.7
Mode: 0
LetterboxInBreaks: 1

[Editor]
DistanceSpacing: 1
BeatDivisor: 4
GridSize: 8

[Metadata]
Title:Roulette Roulette
Artist:Ichijo
Creator:ztrot
Version:Hard
Source:Pani Poni Dash!
Tags:Pani Poni Dash! Roulette Roulette Peach Moon Academy Class 1-C feat. Ichijo

[Difficulty]
HPDrainRate:5
CircleSize:4
OverallDifficulty:7
SliderMultiplier:2.2
SliderTickRate:1

[Events]
//Background and Video events
0,0,"paniponi.jpg"
Video,0,"Video.avi"
//Break Periods
//Storyboard Layer 0 (Background)
//Storyboard Layer 1 (Fail)
//Storyboard Layer 2 (Pass)
//Storyboard Layer 3 (Foreground)
//Storyboard Sound Samples
//Background Colour Transformations
3,100,163,162,255

[TimingPoints]
11910,493.403278688525,4,1,1,100,1,0
53350,-100,4,1,1,100,0,1

[Colours]
Combo1 : 255,155,6
Combo2 : 251,245,36
Combo3 : 0,151,151
Combo4 : 176,88,0

[HitObjects]
32,64,11909,1,2
32,176,12156,1,8
64,216,12280,1,0
104,176,12403,1,8
144,216,12526,1,0
216,136,12773,1,0
216,248,13020,1,0
320,224,13266,1,0
320,168,13390,1,8
424,192,13636,1,0
424,80,13883,5,2
320,40,14130,1,0
320,96,14253,1,0
272,112,14377,1,8
216,112,14500,1,0
128,40,14747,2,0,B|128:152,1,110
128,264,15240,1,0
128,208,15363,1,8
232,232,15610,1,0
256,336,15857,5,2
368,336,16103,1,0
408,296,16227,1,0
368,256,16350,1,8
408,216,16473,1,0
408,104,16720,1,0
328,24,16967,1,0
256,104,17214,1,0
256,48,17337,1,8
256,160,17584,1,0
256,272,17830,5,2
56,64,18324,1,2
120,336,18817,1,0
120,224,19064,1,2
64,128,19311,1,8
120,32,19557,1,2
256,72,19804,5,6
256,128,19927,1,0
256,240,20174,1,0
256,296,20297,1,8
152,328,20544,1,0
152,216,20791,2,0,B|40:184|64:64,1,165,2|8
59,97,21284,1,10
152,40,21531,1,0
256,72,21778,6,0,B|344:72|384:168,1,165,2|0
381,161,22271,1,10
368,272,22518,1,0
256,280,22764,2,0,B|168:352|104:272,1,165,2|0
112,280,23258,1,10
184,200,23504,1,0
184,312,23751,1,2
80,344,23998,5,0
40,240,24245,1,8
40,128,24491,1,8
88,32,24738,2,0,B|176:24|248:88,1,165,2|8
256,240,25478,1,0
256,352,25725,1,2
256,184,26095,2,0,B|344:192|408:120,1,165
40,216,26958,1,0
80,320,27205,1,8
144,232,27452,1,8
256,320,27698,5,6
256,320,27822,2,0,B|384:320,1,110,0|0
368,320,28192,1,10
368,208,28439,1,0
256,152,28685,2,0,B|256:256|152:256,1,165,2|0
155,255,29179,1,10
152,144,29425,1,0
152,32,29672,6,0,B|320:32,1,165,2|0
368,32,30165,1,10
368,144,30412,1,0
256,88,30659,2,0,B|256:280,1,165,2|0
256,248,31152,1,10
168,312,31399,1,0
168,200,31646,2,0,B|72:200|40:112,1,165,2|0
40,112,32139,5,10
128,48,32386,1,0
240,48,32632,2,0,B|416:48,1,165,2|0
408,104,33126,1,10
408,216,33373,1,0
360,312,33619,2,0,B|240:312|168:200,2,220,2|8|2
312,208,34853,5,0
232,136,35099,1,8
120,136,35346,1,2
120,248,35593,5,10
256,344,35963,1,0
392,248,36333,1,0
256,240,36580,1,0
96,72,36826,5,4
416,72,37073,1,4
256,240,37566,6,0,B|256:64,1,165,2|0
376,192,38307,1,0
256,240,38553,1,0
416,312,38800,5,4
96,312,39047,1,4
200,120,39540,6,0,B|200:48|264:48|328:48|328:144|264:144|256:144,2,220,2|2|2
104,168,40774,1,0
48,264,41020,1,8
128,320,41267,1,0
240,320,41514,2,0,B|352:320|352:224|352:136|256:136|176:136|176:224|176:248,1,385,2|2
120,248,42501,1,8
64,248,42624,1,8
64,192,42747,1,8
64,80,42994,1,8
176,80,43241,1,8
256,152,43487,5,4
256,320,43857,1,0
256,152,44227,1,0
256,40,44474,1,0
96,96,44721,5,4
416,96,44968,1,4
416,312,45461,6,0,B|384:256|328:352|248:296,1,165,2|0
336,160,46201,1,0
336,160,46448,1,0
256,40,46694,5,4
256,288,46941,1,4
56,192,47435,6,0,B|136:304|176:168|248:280,2,220,2|2|2
56,80,48668,1,2
56,192,48915,1,8
56,304,49161,1,2
176,288,49408,6,0,B|112:200|208:120|208:120|152:24|152:24|240:96|240:96|280:96|280:96|376:24|376:24|312:128|312:128|408:216|328:296,1,880,2|0
256,304,51505,1,8
256,248,51628,1,0
256,192,51752,1,8
416,200,52122,1,2
416,80,52369,1,2
472,296,52862,5,0
360,296,53109,1,0
416,200,53355,2,0,B|416:64|272:48,1,220,6|0
312,160,54095,1,8
312,160,54219,1,0
312,272,54466,1,0
312,272,54589,1,8
64,56,55329,5,2
32,160,55576,1,0
136,128,55822,1,8
112,232,56069,1,0
216,208,56316,1,2
376,56,56809,5,0
456,136,57056,1,0
456,248,57303,2,0,B|384:352|264:336,1,220,2|2
328,248,58043,1,0
328,248,58166,1,8
328,136,58413,1,0
328,136,58536,1,8
56,320,59276,5,2
16,216,59523,1,0
128,240,59770,1,8
96,136,60016,1,0
16,56,60263,1,2
232,56,60756,5,8
344,56,61003,1,0
400,152,61250,2,0,B|472:272|368:352,1,220,6|2
336,248,61990,1,0
336,248,62113,1,8
224,248,62360,1,0
224,248,62483,1,8
280,152,62730,1,8
40,48,63223,5,2
152,48,63470,1,0
96,144,63717,1,8
40,240,63964,1,0
152,240,64210,1,2
256,48,64704,5,8
176,120,64950,1,0
256,200,65197,2,0,B|376:224|448:112,1,220,6|2
392,264,65937,1,0
392,264,66061,1,8
304,328,66307,1,8
304,328,66431,1,0
192,328,66677,1,8
56,160,67171,5,2
56,48,67417,1,0
168,48,67664,1,8
168,160,67911,1,0
264,104,68157,1,2
472,280,68651,5,8
368,328,68898,1,0
272,280,69144,2,0,B|160:264|96:152,1,220,6|2
104,48,69884,1,8
160,48,70008,1,0
272,48,70254,1,8
216,48,70378,1,0
40,352,71118,5,2
40,240,71365,1,0
136,296,71611,1,8
136,184,71858,1,0
248,184,72105,1,2
456,48,72598,5,8
456,160,72845,1,0
456,272,73092,2,0,B|352:344|240:312,1,220,2|2
344,240,73832,1,0
344,240,73955,1,8
344,128,74202,1,8
344,128,74325,1,0
256,56,74572,1,0
144,56,74818,1,0
56,120,75065,5,4
40,232,75312,1,0
64,280,75435,1,0
120,296,75559,1,8
104,160,75805,1,0
152,168,75929,1,0
176,216,76052,1,8
288,200,76299,1,0
288,144,76422,1,0
288,88,76545,5,8
400,88,76792,1,0
440,192,77039,2,0,B|400:320|272:328,2,220,2|2|2
328,200,78272,1,8
296,160,78396,1,8
256,120,78519,5,8
256,232,78766,1,0
256,232,79012,2,0,B|128:256|48:128,2,220,2|2|2
256,120,80246,1,8
256,176,80369,1,8
256,232,80493,5,8
176,304,80739,1,0
64,264,80986,2,0,B|256:56|456:280,4,440,2|2|2|2|2
152,328,85180,5,0
208,328,85303,1,0
208,272,85427,1,8
304,320,85673,1,8
416,320,85920,1,0
416,208,86167,5,0
416,152,86290,1,0
416,96,86413,1,8
320,40,86660,1,8
320,152,86907,1,0
224,96,87154,5,0
168,96,87277,1,0
112,96,87400,1,8
112,216,87647,1,2
112,328,87894,1,2
256,344,88140,1,2
256,48,88387,1,6
