osu file format v9

[General]
AudioFilename: project_-_YUMU.mp3
AudioLeadIn: 1996
PreviewTime: 63045
Countdown: 0
SampleSet: Soft
StackLeniency: 0.4
Mode: 0
LetterboxInBreaks: 0

[Editor]
DistanceSpacing: 1
BeatDivisor: 4
GridSize: 8

[Metadata]
Title:YU-MU
Artist:Ichigo
Creator:l1106188
Version:Lunatic
Source:Touhou
Tags:Firce777

[Difficulty]
HPDrainRate:7
CircleSize:4
OverallDifficulty:7
ApproachRate:8
SliderMultiplier:2
SliderTickRate:1

[Events]
//Background and Video events
0,0,"1.jpg"
//Break Periods
2,87149,89293
2,165245,175074
2,225245,229543
//Storyboard Layer 0 (Background)
Sprite,Background,Centre,"6.jpg",320,240 F,0,62293,62668,0,1 F,0,62668,86293,1 S,0,63043,,0.8 F,0,86293,86668,1,0
Sprite,Background,Centre,"13.jpg",320,240 M,0,102043,,320,240 S,0,102043,,0.8 F,0,102043,102418,0,1 F,0,102418,113668,1,0.9946667 F,0,113668,114043,0.9946667,0
Sprite,Background,Centre,"8.jpg",320,240 S,0,113668,,0.8000003 F,0,113668,113670,0,0.03999996 F,0,113670,114043,0.03999996,1 F,0,114043,114045,1 F,0,114045,125668,1 F,0,125668,126043,1,0
Sprite,Background,Centre,"10.jpg",320,240 F,0,125668,126043,0,1 F,0,126043,,1 S,0,126043,,0.8 F,0,126043,143668,1 F,0,143668,144043,1,0
Sprite,Background,Centre,"7.jpg",320,240 S,0,143668,,0.8 F,0,143668,144043,0,1 F,0,144043,,1 F,0,144043,188668,1 M,0,186043,,320,240 F,0,188668,189043,1,0
Sprite,Background,Centre,"12.jpg",320,240 S,0,188668,,0.8 F,0,188668,189043,0,1 F,0,189043,,1 F,0,189043,200668,1 F,0,200668,201043,1,0
//Storyboard Layer 1 (Fail)
//Storyboard Layer 2 (Pass)
//Storyboard Layer 3 (Foreground)
Sprite,Foreground,Centre,"7.jpg",320,240 F,0,145545,146295,1,0 S,0,145545,146295,0.7999996,0.8799996
Sprite,Foreground,Centre,"White Effect.png",320,240 F,0,125293,,0.8684264,0.6964264 F,0,125293,125668,0.6964264,0.832 S,0,125293,125668,0.1,0.6351153 F,0,125668,126043,0.832,1 S,0,125668,126043,0.6351153,4.663009 F,0,126043,126418,1,0
Sprite,Foreground,Centre,"White Effect.png",320,240 S,0,85543,85918,0.1231551,0.4991552 F,0,85543,86293,0,0.928 S,0,85918,86293,0.4991552,4.207381 F,0,86293,86668,0.928,1 F,0,86668,87043,1 F,0,87043,87418,1,0
Sprite,Foreground,Centre,"9.jpg",320,240 S,0,195043,,2.24 F,0,195043,195136,1,0 F,0,195136,,0
Sprite,Foreground,Centre,"3.jpg",320,240 M,0,205545,,320,240 F,0,205545,205638,1,0 S,0,205545,205638,0.8,0.9200001
Sprite,Foreground,Centre,"3.jpg",320,240 F,0,205795,205857,1,0 S,0,205795,205857,0.8000001,0.8880002
Sprite,Foreground,Centre,"3.jpg",320,240 M,0,206045,,320,240 F,0,206045,206107,1,0 S,0,206045,206107,0.7999998,0.9119998
Sprite,Foreground,Centre,"3.jpg",320,240 F,0,206295,206357,1,0 S,0,206295,206357,0.8,0.9080001
Sprite,Foreground,Centre,"9.jpg",320,240 M,0,236668,,320,240 S,0,236668,,2.264 F,0,236668,236761,1,0
Sprite,Foreground,Centre,"9.jpg",320,240 S,0,236902,,2.208 F,0,236902,236949,1,0
Sprite,Foreground,Centre,"lyric SB\word-2.png",320,240 S,0,29668,,0.9519998 F,0,29668,30043,0,1 M,0,29668,33043,478,243,478,257 F,0,30043,32668,1 F,0,32668,33043,1,0
Sprite,Foreground,Centre,"lyric SB\word-3.png",320,240 F,0,33043,33418,0,1 M,0,33043,39043,519,168,519,197 S,0,33047,,1.096 F,0,33418,38668,1 F,0,38668,39043,1,0
Sprite,Foreground,Centre,"lyric SB\word-4.png",320,240 S,0,34543,,1.032 F,0,34543,34918,0,1 M,0,34543,39043,481,204,482,226 F,0,34918,,1 F,0,34918,,1 F,0,34918,38668,1 F,0,38668,39043,1,0
Sprite,Foreground,Centre,"lyric SB\word-5.png",320,240 S,0,36043,,1 F,0,36043,36418,0,1 M,0,36043,39043,447,227,446,244 F,0,36418,38668,1 F,0,38668,39043,1,0
Sprite,Foreground,Centre,"lyric SB\word-6.png",320,240 S,0,39043,,1.04 F,0,39043,39418,0,1 M,0,39043,45043,534,175,532,203 F,0,39418,44668,1 F,0,44668,45043,1,0
Sprite,Foreground,Centre,"lyric SB\word-1-1.png",320,240 F,0,26293,26668,0,1 S,0,26293,26668,2.84,1.336 M,0,26293,33043,524,104,524,131 F,0,26668,32668,1 F,0,32668,33043,1,0
Sprite,Foreground,Centre,"lyric SB\word-1-2.png",320,240 F,0,26668,27043,0,1 S,0,26668,27043,2.568,1.648 M,0,26668,33043,520,145,520,171 F,0,27043,32668,1 F,0,32668,33043,1,0
Sprite,Foreground,Centre,"lyric SB\word-1-3.png",320,240 S,0,27043,,1.064 F,0,27043,27418,0,1 M,0,27043,33043,522,214,523,241 F,0,27418,32668,1 F,0,32668,33043,1,0
Sprite,Foreground,Centre,"lyric SB\word-7.png",320,240 S,0,41668,,1.04 F,0,41668,42043,0,1 M,0,41668,45043,483,197,483,213 F,0,42043,44668,1 F,0,44668,45043,1,0
Sprite,Foreground,Centre,"lyric SB\word-8.png",320,240 F,0,45043,45418,0,1 M,0,45043,51043,524,169,524,195 F,0,45418,50668,1 S,0,45501,,1.032 F,0,50668,51043,1,0
Sprite,Foreground,Centre,"lyric SB\word-9.png",320,240 S,0,46543,,1.008 F,0,46543,46918,0,1 M,0,46543,51043,480,194,481,216 F,0,46918,50668,1 F,0,50668,51043,1,0
Sprite,Foreground,Centre,"lyric SB\word10.png",320,240 S,0,48043,,1 F,0,48043,48418,0,1 M,0,48043,51043,433,240,433,250 F,0,48418,50668,1 F,0,50668,51043,1,0
Sprite,Foreground,Centre,"lyric SB\word-11.png",320,240 S,0,51043,,1.064 F,0,51043,51418,0,1 M,0,51043,57043,515,172,512,201 F,0,51418,56668,1 F,0,56668,57043,1,0
Sprite,Foreground,Centre,"lyric SB\word-12.png",320,240 S,0,54043,,1 F,0,54043,54418,0,1 M,0,54043,57043,465,233,465,249 F,0,54418,56668,1 F,0,56668,57043,1,0
Sprite,Foreground,Centre,"lyric SB\word-13.png",320,240 S,0,57043,,0.992 F,0,57043,57418,0,1 M,0,57043,63043,530,184,530,200 F,0,57418,62668,1 F,0,62668,63043,1,0
Sprite,Foreground,Centre,"lyric SB\word-14.png",320,240 S,0,60043,,1.024 F,0,60043,60418,0,1 M,0,60043,63043,475,181,476,196 F,0,60418,62668,1 F,0,62668,63043,1,0
Sprite,Foreground,Centre,"lyric SB\word-14-1.png",320,240 F,0,60043,60418,0,1 M,0,60043,61543,473,243,476,251 F,0,60418,62668,1 M,0,61543,63043,476,251,476,293 S,0,61543,63043,1,2.832 F,0,62668,63043,1,0
Sprite,Foreground,Centre,"White Effect.png",320,240 F,0,61918,62293,0,1 S,0,61918,62293,0.1240001,0.5752712 F,0,62293,62668,1 S,0,62293,62668,0.5752712,4.162542 F,0,62668,63043,1 F,0,63043,63418,1,0
Sprite,Foreground,Centre,"lyric SB\word-14-2.png",320,240 M,0,62293,,320,240 F,0,62293,62668,0,1 S,0,62293,63043,1.208,4.2 F,0,62668,63043,1,0
Sprite,Foreground,Centre,"OP effect.png",320,240 F,0,62293,,1 F,0,62293,62668,1 S,0,62293,62668,0.3119998,0.9359998 M,0,62606,,320,240 F,0,62668,63043,1,0
Sprite,Foreground,Centre,"lyric SB\word-15.png",320,240 S,0,63043,,1.024 F,0,63043,63418,0,0.9960001 M,0,63043,69043,395,160,396,181 F,0,63418,68668,0.9960001 F,0,68668,69043,0.9960001,0
Sprite,Foreground,Centre,"lyric SB\word-16.png",320,240 F,0,66043,66418,0,1 M,0,66043,69043,341,191,340,203 F,0,66418,68668,1 F,0,68668,69043,1,0
Sprite,Foreground,Centre,"lyric SB\word-17.png",320,240 F,0,69043,69418,0,1 M,0,69043,75043,383,159,381,174 F,0,69418,74668,1 F,0,74668,75043,1,0
Sprite,Foreground,Centre,"lyric SB\word-18.png",320,240 F,0,72043,72418,0,1 M,0,72043,75043,337,204,338,216 F,0,72418,74668,1 F,0,74668,75043,1,0
Sprite,Foreground,Centre,"lyric SB\word-19.png",320,240 F,0,75043,75418,0,1 S,0,75043,75418,2.504,0.9839999 M,0,75043,81043,380,88,379,106 F,0,75418,80668,1 F,0,80668,81043,1,0
Sprite,Foreground,Centre,"lyric SB\word-19-2.png",320,240 S,0,75418,,1 F,0,75418,75793,0,1 M,0,75418,81043,381,145,381,165 F,0,75793,80668,1,0.9786667 F,0,80668,81043,0.9786667,0
Sprite,Foreground,Centre,"lyric SB\word20.png",320,240 F,0,78043,78418,0,1 M,0,78043,81043,340,197,341,206 F,0,78418,80668,1 F,0,80668,81043,1,0
Sprite,Foreground,Centre,"lyric SB\word-21.png",320,240 F,0,81043,81418,0,1 M,0,81043,87043,387,178,390,202 F,0,81418,86668,1 F,0,86668,87043,1,0
Sprite,Foreground,Centre,"lyric SB\word-22.png",320,240 F,0,84043,84418,0,1 M,0,84043,87043,348,192,348,212 F,0,84418,86668,1 F,0,86668,87043,1,0
Sprite,Foreground,Centre,"lyric SB\word-23.png",320,240 F,0,90043,90418,0,1 M,0,90043,96043,532,145,533,179 F,0,90418,95668,1 F,0,95668,96043,1,0
Sprite,Foreground,Centre,"lyric SB\word-23-2.png",320,240 F,0,92668,93043,0,1 M,0,92668,96043,484,220,484,232 F,0,93043,95668,1 F,0,95668,96043,1,0
Sprite,Foreground,Centre,"lyric SB\word-24.png",320,240 F,0,95293,95668,0,1 M,0,95293,96043,432,197,432,211 S,0,95293,96043,1.008,1.992 F,0,95668,96043,1,0
Sprite,Foreground,Centre,"lyric SB\word-25.png",320,240 F,0,96043,96418,0,1 M,0,96043,102043,541,155,541,173 F,0,96418,101668,1 F,0,101668,102043,1,0
Sprite,Foreground,Centre,"lyric SB\word-26.png",320,240 F,0,97543,97918,0,1 M,0,97543,102043,495,170,496,192 F,0,97918,101668,1 F,0,101668,102043,1,0
Sprite,Foreground,Centre,"lyric SB\word-27.png",320,240 F,0,99043,99418,0,1 M,0,99043,102043,450,232,449,242 F,0,99418,101668,1 F,0,101668,102043,1,0
Sprite,Foreground,Centre,"lyric SB\word-28.png",320,240 F,0,102043,102418,0,1 M,0,102043,108043,553,168,553,183 F,0,102418,107668,1 F,0,107668,108043,1,0
Sprite,Foreground,Centre,"lyric SB\word-29.png",320,240 F,0,105043,105418,0,1 M,0,105043,108043,513,182,513,189 F,0,105418,107668,1 F,0,107668,108043,1,0
Sprite,Foreground,Centre,"lyric SB\word30.png",320,240 F,0,108043,108418,0,1 M,0,108043,114043,555,168,553,181 F,0,108418,113668,1 F,0,113668,114043,1,0
Sprite,Foreground,Centre,"lyric SB\word-31.png",320,240 F,0,111043,111418,0,1 M,0,111043,114043,519,138,519,152 F,0,111418,113668,1 F,0,113668,114043,1,0
Sprite,Foreground,Centre,"lyric SB\word-14-1.png",320,240 F,0,111043,111418,0,1 M,0,111043,112543,522,187,522,196 F,0,111418,113668,1 M,0,112543,114043,522,196,521,221 S,0,112543,114043,1,2.904 F,0,113668,114043,1,0
Sprite,Foreground,Centre,"White Effect.png",320,240 F,0,112918,113293,0,0.8040001 S,0,112918,113668,0.2872521,3.319252 F,0,113293,113668,0.8040001,1 F,0,113668,114043,1 S,0,113668,114418,3.319252,1.967252 F,0,114043,114418,1,0
Sprite,Foreground,Centre,"lyric SB\word-14-2.png",320,240 M,0,113293,,320,253 F,0,113293,113668,0,1 S,0,113293,115168,1,3.96 F,0,113668,114793,1 F,0,114793,115168,1,0
Sprite,Foreground,Centre,"OP effect.png",320,240 M,0,113293,,320,254 F,0,113293,113668,1 S,0,113293,115168,0.3679997,1.847999 F,0,113668,114793,1 F,0,114793,115168,1,0
Sprite,Foreground,Centre,"lyric SB\word-1-1.png",320,240 F,0,164293,164668,0,1 S,0,164293,164668,1.896,1.312 M,0,164293,171043,533,124,534,138 F,0,164668,170668,1 F,0,170668,171043,1,0
Sprite,Foreground,Centre,"lyric SB\word-1-2.png",320,240 F,0,164668,165043,0,1 S,0,164668,165043,2.096,1.24 M,0,164668,171043,530,153,531,169 F,0,165043,170668,1 F,0,170668,171043,1,0
Sprite,Foreground,Centre,"lyric SB\word-1-3.png",320,240 F,0,165043,165418,0,1 M,0,165043,171043,532,211,533,226 F,0,165418,170668,1 F,0,170668,171043,1,0
Sprite,Foreground,Centre,"lyric SB\word-2.png",320,240 F,0,167668,168043,0,1 M,0,167668,171043,486,224,488,244 F,0,168043,170668,1 F,0,170668,171043,1,0
Sprite,Foreground,Centre,"lyric SB\word-3.png",320,240 F,0,171043,171418,0,1 M,0,171043,177043,540,153,541,192 F,0,171418,176668,1 F,0,176668,177043,1,0
Sprite,Foreground,Centre,"lyric SB\word-4.png",320,240 F,0,172543,172918,0,1 M,0,172543,177043,497,173,498,194 F,0,172918,176668,1 F,0,176668,177043,1,0
Sprite,Foreground,Centre,"lyric SB\word-5.png",320,240 F,0,174043,174418,0,1 M,0,174043,177043,448,239,449,252 F,0,174418,176668,1 F,0,176668,177043,1,0
Sprite,Foreground,Centre,"lyric SB\word-6.png",320,240 F,0,177043,177418,0,1 M,0,177043,183043,550,183,550,203 F,0,177418,182668,1 F,0,182668,183043,1,0
Sprite,Foreground,Centre,"lyric SB\word-7.png",320,240 F,0,179668,180043,0,1 M,0,179668,183043,497,215,497,230 F,0,180043,182668,1 F,0,182668,183043,1,0
Sprite,Foreground,Centre,"lyric SB\word-8.png",320,240 F,0,183043,183418,0,1 M,0,183043,189043,537,176,536,195 F,0,183418,188668,1 F,0,188668,189043,1,0
Sprite,Foreground,Centre,"lyric SB\word-9.png",320,240 F,0,184543,184918,0,1 M,0,184543,189043,498,197,498,215 F,0,184918,188668,1 F,0,188668,189043,1,0
Sprite,Foreground,Centre,"lyric SB\word10.png",320,240 F,0,186043,186418,0,1 M,0,186043,189043,456,240,455,255 F,0,186418,188668,1 F,0,188668,189043,1,0
Sprite,Foreground,Centre,"lyric SB\word-11.png",320,240 F,0,189043,189418,0,1 M,0,189043,195043,268,158,267,181 F,0,189418,194668,1 F,0,194668,195043,1,0
Sprite,Foreground,Centre,"lyric SB\word-12.png",320,240 F,0,192043,192418,0,1 M,0,192043,195043,227,214,227,220 F,0,192418,194668,1 F,0,194668,195043,1,0
Sprite,Foreground,Centre,"9.jpg",320,240 S,0,192795,,2.224 F,0,192795,192888,1,0
Sprite,Foreground,Centre,"9.jpg",320,240 M,0,192045,,320,240 S,0,192045,,2.2 F,0,192045,192138,1,0
Sprite,Foreground,Centre,"lyric SB\word-13.png",320,240 F,0,195043,195418,0,1 M,0,195043,201043,266,199,265,215 F,0,195418,200668,1 F,0,200668,201043,1,0
Sprite,Foreground,Centre,"lyric SB\word-14.png",320,240 F,0,198043,200668,1 M,0,198043,201043,224,146,223,162 F,0,200668,201043,1,0
Sprite,Foreground,Centre,"lyric SB\word-14-1.png",320,240 F,0,198043,198418,0,1 M,0,198043,199543,225,208,224,219 F,0,198418,200668,1 M,0,199543,201043,224,219,225,235 S,0,199543,201043,1,2.408 F,0,200668,201043,1,0.01200012
Sprite,Foreground,Centre,"9.jpg",320,240 M,0,198043,,320,240 S,0,198043,,2.184 F,0,198043,198136,1,0
Sprite,Foreground,Centre,"White Effect.png",320,240 F,0,199543,199918,0.176,1 S,0,199918,200293,0.688,0.7240002 F,0,199918,200668,1 M,0,199918,201043,324,237 S,0,200293,200668,0.7240002,5 F,0,200668,201043,1 F,0,201043,201418,1,0
Sprite,Foreground,Centre,"lyric SB\word-14-2.png",320,240 M,0,200293,,320,251 F,0,200293,200668,0,1 S,0,200293,201043,1,3.64 F,0,200668,201043,1,0
Sprite,Foreground,Centre,"OP effect.png",320,240 M,0,200293,,320,250 F,0,200293,200668,0,1 S,0,200293,201043,0.5040001,1.656 F,0,200668,201043,1,0
Sprite,Foreground,Centre,"lyric SB\word-15.png",320,240 F,0,201043,201418,0,1 M,0,201043,207043,542,176,541,212 F,0,201418,206668,1 F,0,206668,207043,1,0
Sprite,Foreground,Centre,"lyric SB\word-16-2.png",320,240 F,0,204043,204418,0,1 M,0,204043,207043,490,155,492,170 F,0,204418,206668,1 F,0,206668,207043,1,0
Sprite,Foreground,Centre,"lyric SB\word-16-3.png",320,240 F,0,205543,205918,0,1 M,0,205543,207043,489,213,489,223 S,0,205918,,1.376 F,0,205918,206668,1 F,0,206668,207043,1,0
Sprite,Foreground,Centre,"lyric SB\word-16-4.png",320,240 F,0,205793,206043,0,1 M,0,205793,207043,491,241,490,249 S,0,206043,,1.056 F,0,206043,206668,1 F,0,206668,207043,1,0
Sprite,Foreground,Centre,"lyric SB\word-16-5.png",320,240 F,0,206043,206293,0,1 M,0,206043,207043,489,262,489,271 S,0,206293,,1.136 F,0,206293,206668,1 F,0,206668,207043,1,0
Sprite,Foreground,Centre,"lyric SB\word-16-6.png",320,240 F,0,206418,206668,0,1 M,0,206418,207043,487,293,490,297 S,0,206418,207043,1.784,1.232 F,0,206668,207043,1,0
Sprite,Foreground,Centre,"lyric SB\word-17.png",320,240 F,0,207043,207418,0,1 M,0,207043,213043,533,192,534,212 F,0,207418,212668,1 F,0,212668,213043,1,0
Sprite,Foreground,Centre,"lyric SB\word-18.png",320,240 F,0,210043,210418,0,1 M,0,210043,213043,461,244,462,257 F,0,210418,212668,1 F,0,212668,213043,1,0
Sprite,Foreground,Centre,"lyric SB\word-19.png",320,240 S,0,213043,213418,1.712,1 F,0,213043,218668,1 M,0,213043,219043,531,123,528,151 F,0,218668,219043,1,0
Sprite,Foreground,Centre,"lyric SB\word-19-2.png",320,240 S,0,213793,,1 F,0,213793,214168,0,1 M,0,213793,219043,532,184,529,206 F,0,214168,218668,1 F,0,218668,219043,1,0
Sprite,Foreground,Centre,"lyric SB\word20.png",320,240 F,0,216043,216418,0,1 M,0,216043,219043,472,236,474,257 F,0,216418,218668,1,0.5794286 F,0,218668,219043,0.5794286,0
Sprite,Foreground,Centre,"lyric SB\word-21.png",320,240 F,0,219043,219418,0,1 M,0,219043,225043,493,195,491,224 F,0,219418,224668,1 F,0,224668,225043,1,0
Sprite,Foreground,Centre,"lyric SB\word-22.png",320,240 F,0,222043,222418,0,1 M,0,222043,225043,442,244,441,250 F,0,222418,224668,1 F,0,224668,225043,1,0
//Storyboard Sound Samples
//Background Colour Transformations
3,100,163,162,255

[TimingPoints]
43,375,4,2,2,50,1,0
8293,-100,4,1,1,50,0,0
9043,-100,4,2,2,50,0,0
14293,-100,4,1,1,50,0,0
15230,-100,4,2,2,50,0,0
28824,-100,4,2,1,50,0,0
29105,-100,4,2,2,50,0,0
38110,-100,4,1,1,50,0,0
38381,-100,4,2,2,50,0,0
42324,-100,4,2,1,50,0,0
42605,-100,4,2,2,50,0,0
50105,-100,4,1,1,50,0,0
50855,-100,4,2,2,50,0,0
51418,-100,4,1,1,50,0,0
53761,-100,4,2,2,50,0,0
55355,-100,4,1,1,50,0,0
56105,-100,4,2,2,50,0,0
57418,-100,4,1,1,50,0,0
60136,-100,4,2,2,50,0,0
61636,-100,4,1,1,50,0,0
63043,-100,4,2,2,50,0,1
74949,-100,4,2,2,50,0,0
75043,-100,4,2,2,50,0,1
86105,-100,4,1,1,50,0,1
86949,-100,4,2,2,50,0,1
87043,-100,4,2,2,50,0,0
91730,-100,4,2,1,50,0,0
92011,-100,4,2,2,50,0,0
107480,-100,4,1,1,50,0,0
108043,-100,4,2,2,50,0,0
110293,-200,4,2,2,50,0,0
110668,-200,4,1,1,50,0,0
111136,-100,4,2,2,50,0,0
112543,-100,4,2,1,50,0,0
113668,-100,4,2,2,50,0,0
126043,375,5,2,2,50,1,1
126136,-100,5,2,2,50,0,0
126418,-100,5,1,1,50,0,0
127918,-100,5,2,2,50,0,0
128293,-100,5,1,1,50,0,0
129793,-100,5,2,2,50,0,0
130168,-100,5,1,1,50,0,0
131668,-100,5,2,2,50,0,0
132043,-100,5,1,1,50,0,0
133543,-100,5,2,2,50,0,0
133918,-100,5,1,1,50,0,0
135418,-100,5,2,2,50,0,0
135793,-100,5,1,1,50,0,0
137293,-100,5,2,2,50,0,0
137668,-100,5,1,1,50,0,0
138980,-100,5,2,2,50,0,0
139543,-100,5,2,2,60,0,0
141043,375,4,2,2,50,1,1
141136,-100,4,2,2,50,0,0
152480,-100,4,1,1,60,0,0
153043,-100,4,2,2,60,0,0
164105,-100,4,1,1,50,0,0
165043,-100,4,2,2,50,0,0
175824,-100,4,1,1,50,0,0
177043,-100,4,2,2,50,0,0
188105,-100,4,1,1,50,0,0
188761,-100,4,2,2,50,0,0
194480,-100,4,1,1,50,0,0
195043,-100,4,2,2,50,0,0
201043,-200,4,2,2,50,0,0
201136,-200,4,1,1,50,0,0
205355,-100,4,2,2,50,0,0
207043,-100,4,2,2,50,0,1
212105,-100,4,1,1,50,0,1
212949,-100,4,1,1,50,0,0
213043,-100,4,2,2,50,0,1
218293,-100,4,1,1,50,0,1
219043,-100,4,2,2,50,0,1
225043,-100,4,2,2,50,0,0
235543,-100,4,1,1,50,0,0
236386,-100,4,2,2,50,0,0
241543,-100,4,2,2,5,0,0

[Colours]
Combo1 : 255,128,255
Combo2 : 0,128,255
Combo3 : 128,255,255
Combo4 : 128,255,128
Combo5 : 240,80,80
SliderBorder : 200,200,200

[HitObjects]
256,192,43,1,0
256,192,793,5,0
360,272,1543,5,0
152,272,1918,1,0
256,96,2293,1,0
80,240,3043,6,0,B|80:344,2,100,0|0|2
80,144,3605,1,0
184,144,3793,2,0,B|184:40,2,100,0|0|2
184,240,4355,1,0
288,248,4543,6,0,B|288:368,2,100,0|0|2
288,152,5105,1,0
392,152,5293,2,0,B|392:96,2,50,0|0|2
392,48,5668,1,2
392,248,5855,1,0
288,248,6043,6,0,B|288:352,2,100,0|0|2
288,152,6605,1,0
392,152,6793,2,0,B|496:152,2,100,0|0|2
288,152,7355,1,2
184,152,7543,2,0,B|80:152,2,100,0|0|2
288,152,8105,1,2
288,48,8293,2,0,B|288:160,1,100
336,160,8574,5,0
376,184,8668,1,0
392,232,8761,1,0
376,280,8855,1,0
336,304,8949,1,0
288,304,9043,2,0,B|256:264|200:248|152:264|112:312,1,200,4|8
80,112,9699,6,8,B|224:56,1,150
320,64,10168,2,0,B|400:72|448:144|440:200,1,200,8|0
272,312,10918,2,8,B|192:312|136:256,1,150
104,216,11293,2,8,B|96:144|152:88|240:104,1,200
432,72,12043,5,0
440,272,12418,2,0,B|400:304|352:296|368:224|304:248,1,150,8|8
256,240,12793,2,0,B|211:202|195:154|211:98|251:66,1,200,0|8
64,48,13543,2,0,B|40:88|40:152|112:128|144:176|120:216,1,200,0|8
56,304,14293,6,0,B|64:344|128:344|144:304,1,100,0|0
168,272,14574,1,0
208,240,14668,1,0
256,224,14761,1,0
304,240,14855,1,0
352,264,14949,1,0
376,304,15043,6,0,B|432:328|464:280,2,100,0|0|8
408,160,15605,2,0,B|360:136|312:160,2,100
344,240,16168,2,0,B|304:284|252:256,1,100,8|0
256,152,16730,1,0
256,256,16918,2,8,B|272:312|240:368|192:376,1,150
152,352,17293,2,0,B|120:304|104:248|120:192|144:160,1,200,0|8
328,64,18043,6,0,B|376:32|424:64,2,100,0|0|8
384,144,18605,2,0,B|336:176|288:144,2,100
288,144,19168,1,8
422,62,19355,1,0
422,62,19730,1,0
312,72,19918,2,0,B|272:40|200:64|184:104,1,150,8|8
136,112,20293,2,0,B|96:144|72:200|96:256|136:288,1,200,0|8
184,64,21043,6,0,B|136:32|88:64,2,100,0|0|8
128,144,21605,2,0,B|176:176|224:144,2,100
224,144,22168,1,8
90,62,22355,1,0
90,62,22730,1,0
200,64,22918,2,0,B|248:32|312:56|328:96,1,150,8|8
376,112,23293,2,0,B|416:144|440:200|416:256|376:288,1,200,0|8
200,248,24043,6,0,B|96:248,2,100,0|0|8
296,248,24605,2,0,B|400:248,2,100
264,96,25168,1,8
309,184,25355,1,0
424,296,25543,5,0
288,352,25730,1,0
240,208,25918,1,8
376,152,26105,1,0
424,296,26293,2,0,B|400:336|336:336|352:256|264:264|240:288,1,200,0|8
72,312,27043,5,4
144,240,27230,1,0
72,168,27418,1,8
144,96,27605,2,0,B|218:70|276:98|302:173,1,200
368,104,28168,2,0,B|400:112|424:136|440:176,1,100,8|0
464,264,28543,2,0,B|408:352|328:336|320:280|248:272|192:328,1,300
216,224,29293,6,0,B|216:124,2,100,8|0|8
360,304,30043,2,0,B|384:208|384:208|376:152|320:136,1,200,0|8
224,176,30605,2,0,B|192:280,1,100,0|2
96,296,30980,1,2
96,192,31168,2,0,B|112:128|192:88|256:104,1,200,8|0
448,56,31918,6,0,B|448:160,1,100,8|0
376,224,32293,1,2
296,160,32480,2,0,B|296:56,1,100,2|8
376,120,32855,1,2
376,224,33043,6,0,B|328:248|280:224,2,100,0|0|8
480,224,33605,1,2
296,136,33980,2,0,B|192:136,1,100,2|8
88,304,34543,6,0,B|136:336|184:304,2,100,0|0|8
88,200,35105,1,2
288,200,35480,2,0,B|400:200,1,100,2|8
256,56,36043,6,0,B|192:48|184:104,2,100,0|0|8
256,160,36605,1,2
208,352,36980,1,2
304,352,37168,1,8
456,56,37543,6,0,B|408:32|360:56,1,100
288,120,37918,1,8
384,128,38105,1,0
416,168,38199,1,0
392,208,38293,1,0
376,304,38480,1,8
296,240,38668,1,4
160,184,39043,5,2
88,56,39230,1,2
232,56,39418,1,8
88,152,39605,1,2
160,24,39793,1,0
232,152,39980,2,0,B|256:208|312:200,2,100,0|8|0
320,104,40543,2,0,B|392:112|440:160|448:240,1,200,0|8
256,344,41293,6,8,B|256:240,3,100,8|8|0|8
256,144,42043,2,0,B|240:136|240:136|232:152|232:152|224:136|224:136|216:152|216:152|208:136|208:136|200:152|200:152|192:136|192:136|184:152|184:152|176:136|176:136|168:152|168:152|160:136|160:136|152:152|152:152|144:136|144:136|136:152|136:152|128:144|128:144|88:144,1,300
89,244,42793,1,2
188,244,42980,1,2
288,244,43168,1,8
440,64,43543,6,0,B|440:272,1,200,0|8
352,280,44105,2,8,B|352:208|352:208|328:184|312:152|328:120|352:96,1,200
352,96,44668,1,12
352,96,44855,1,0
252,91,45043,5,4
220,187,45230,1,0
324,187,45418,2,0,B|276:275,1,100,8|2
352,96,45980,1,2
252,91,46168,1,8
160,264,46543,6,0,B|152:208|96:192,1,100,0|0
80,96,46918,2,0,B|16:112|24:176,1,100,8|8
112,352,47480,1,8
216,352,47668,1,8
376,224,48043,5,0
328,136,48230,1,0
432,136,48418,2,0,B|384:40,1,100,8|2
280,216,48980,1,2
232,128,49168,1,12
112,312,49543,6,0,B|160:344|208:312,1,100,4|0
208,112,49918,2,0,B|256:88|304:112,1,100,8|0
352,112,50199,1,0
400,112,50293,2,0,B|456:176|456:224|400:288,1,200,0|0
200,328,51043,5,12
96,160,51418,1,0
272,64,51793,1,0
376,232,52168,1,0
104,352,52543,1,0
64,56,52918,1,0
360,24,53293,1,0
400,320,53668,1,0
312,344,53855,1,4
248,272,54043,6,0,B|144:272,2,100,8|8|8
248,176,54605,2,0,B|352:176,2,100,0|8|8
240,272,55168,2,0,B|176:288|160:232,1,100
144,184,55449,1,0
160,136,55543,2,0,B|176:80|240:96,1,100
336,96,55918,2,0,B|408:128|440:208|440:256,2,200,0|12|8
128,96,57043,5,12
144,296,57418,1,0
344,264,57793,1,0
336,64,58168,1,0
40,32,58543,1,0
64,328,58918,1,0
360,312,59293,1,0
312,16,59668,1,0
368,96,59855,5,0
264,96,60043,2,0,B|160:96,2,100,0|8|8
264,192,60605,2,0,B|368:192,2,100,0|8|8
160,192,61168,2,0,B|80:272|80:272|64:288|64:328|104:344,1,200,4|0
152,344,61636,2,0,B|216:344,1,50
200,296,61824,2,0,B|246:248,1,50
256,304,62011,2,0,B|304:256,1,50
328,232,62199,1,0
360,192,62293,5,0
320,96,62480,1,0
224,64,62668,1,0
128,72,62855,1,0
80,168,63043,6,0,B|128:192|176:168,2,100,0|0|8
176,168,63605,1,0
176,272,63793,2,0,B|264:328|368:280,1,200,0|8
448,160,64355,1,0
352,120,64543,1,0
312,256,64730,1,8
232,200,64918,1,8
192,320,65105,2,0,B|136:336|104:288,1,100,0|8
80,96,65668,1,8
280,88,66043,6,0,B|304:88|304:88|312:80|328:72|344:80|352:88|352:88|376:88,2,100,0|0|8
280,192,66605,1,8
384,192,66793,2,0,B|352:280|352:280|320:312|280:312|256:288,1,200,8|8
152,280,67355,5,0
152,128,67543,1,2
280,48,67730,1,2
408,128,67918,1,8
408,280,68105,1,8
280,192,68293,2,0,B|280:296,2,100,2|8|8
280,96,68855,1,2
176,96,69043,5,0
120,184,69230,1,0
128,288,69418,2,0,B|216:344|320:304,1,200,8|0
408,272,69980,1,2
336,216,70168,2,0,B|232:216,1,100,8|2
288,136,70543,6,0,B|352:192|352:256|296:312,1,200,0|8
152,288,71105,1,8
152,136,71293,2,0,B|168:80|168:80|224:24|304:48,1,200,8|8
432,184,72043,6,0,B|473:227|432:272,2,100,0|0|8
336,176,72605,1,8
344,272,72793,2,0,B|296:320|200:320|160:272,1,200,0|8
120,192,73355,1,0
128,40,73543,6,0,B|184:16|216:72,1,100
120,192,73918,2,0,B|64:216|80:272,1,100,8|0
56,120,74293,1,0
200,152,74480,1,0
208,248,74668,2,8,B|264:248,1,50
312,248,74855,2,8,B|360:248,1,50
416,248,75043,6,0,B|456:176|400:88|344:88,2,200,4|8|0
352,320,75980,5,8
256,200,76168,1,8
192,72,76355,1,0
112,200,76543,1,0
264,200,76730,2,0,B|248:144|320:100|392:144|376:200,1,200,8|0
280,304,77293,1,8
464,48,77668,1,8
264,72,78043,6,0,B|192:96|248:176,2,100,0|0|8
352,120,78605,1,8
408,200,78793,2,0,B|384:264|304:304|208:272,1,200,8|8
144,288,79355,2,0,B|104:240|152:200,2,100,0|4|8
232,240,79918,5,8
336,296,80105,1,2
408,176,80293,1,12
280,88,80480,1,2
112,160,80668,1,8
240,160,80855,2,0,B|344:160,2,100,2|4|0
304,232,81418,6,0,B|400:280|400:280|400:304|384:320,1,150,8|8
336,320,81793,2,0,B|240:280,1,100,0|0
112,280,82168,1,8
136,184,82355,2,0,B|168:136|224:160,2,100
104,88,82918,1,8
200,64,83105,1,8
296,72,83293,2,0,B|368:160|312:264,1,200,0|8
128,304,84043,6,0,B|224:328,1,100,4|0
272,240,84418,2,8,B|376:216,1,100,8|8
364,109,84793,2,0,B|444:45,1,100
336,32,85168,2,0,B|256:48|256:152|312:176|328:184|328:184|344:192|400:216|400:336|272:336,1,400,8|8
208,331,86105,5,0
177,346,86199,1,0
141,349,86293,1,0
110,336,86386,1,0
81,311,86480,1,0
67,278,86574,1,0
69,244,86668,1,0
83,213,86761,1,0
106,190,86855,1,0
138,175,86949,1,4
120,216,90043,6,0,B|120:112,1,100,4|0
120,216,90418,1,8
216,216,90605,1,0
216,216,90980,1,0
264,128,91168,1,8
312,224,91543,2,0,B|304:240|304:240|320:248|320:248|304:256|304:256|320:264|320:264|304:272|304:272|320:280|320:280|304:288|304:288|320:296|320:296|304:304|304:304|320:312|320:312|304:320|304:320|320:328|320:328|304:336|304:336|320:344|320:344|304:352|304:352|312:360|312:360|312:384,1,300
240,312,92293,5,0
216,216,92480,1,0
120,232,92668,2,0,B|40:168,2,100,8|8|0
216,216,93230,1,0
240,312,93418,1,8
336,272,93605,2,0,B|416:176|320:96,1,200
248,168,94168,5,8
296,248,94355,1,0
376,312,94543,1,8
440,208,94730,1,2
352,88,94918,1,8
184,88,95105,1,2
80,240,95293,1,8
256,328,95480,2,0,B|304:344|360:328,2,100,2|8|8
448,328,96043,5,0
472,232,96230,1,0
376,248,96418,1,8
392,152,96605,1,2
376,248,96980,2,0,B|280:288,1,100,2|8
64,328,97543,5,0
40,232,97730,1,0
136,248,97918,1,8
120,152,98105,1,2
136,248,98480,2,0,B|232:288,1,100,2|8
328,112,99043,5,0
256,40,99230,1,0
184,112,99418,1,8
256,176,99605,1,2
256,176,99980,2,0,B|256:280,1,100,2|8
80,176,100543,5,8
176,56,100730,1,8
80,176,100918,1,8
232,176,101105,2,8,B|272:136,2,50
232,176,101480,2,8,B|272:208,2,50
184,320,101855,1,0
312,344,102043,1,4
304,248,102230,6,0,B|360:232|384:288,2,100
208,208,102793,1,8
200,304,102980,1,0
104,328,103168,2,0,B|48:336|16:288,1,100,2|0
48,192,103543,1,0
144,176,103730,1,8
80,96,103918,2,0,B|128:64|176:96,1,100,2|0
320,96,104293,2,8,B|336:104|336:104|344:88|344:88|352:104|352:104|360:88|360:88|368:104|368:104|376:88|376:88|384:104|384:104|392:88|392:88|400:104|400:104|408:88|408:88|416:96|432:96,1,200,8|12
464,184,104855,1,0
440,280,105043,5,4
352,320,105230,1,0
288,240,105418,2,0,B|320:192|288:144,1,100,2|0
112,80,105793,2,0,B|64:120|104:168,1,100,8|0
120,264,106168,1,2
208,312,106355,1,0
216,208,106543,2,0,B|192:160|216:104|272:64|320:72,2,200,0|2|8
304,160,107480,5,0
352,144,107574,1,0
400,152,107668,1,0
432,248,107855,1,0
424,296,107949,1,0
376,320,108043,1,12
256,320,108230,5,0
256,192,108418,1,2
208,72,108605,2,0,B|256:48|304:72,1,100,0|8
344,192,108980,1,0
256,320,109168,1,2
152,192,109355,1,0
256,48,109543,1,0
344,192,109730,1,8
256,320,109918,2,0,B|216:272|256:224,1,100,2|0
256,128,110293,2,0,B|280:128|288:120|288:120|296:136|296:136|304:120|304:120|312:136|312:136|320:120|320:120|328:136|328:136|336:120|336:120|344:136|344:136|352:120|352:120|360:128|360:128|376:128,1,200
256,192,111230,5,0
216,96,111418,2,0,B|160:120|160:176,1,100,2|0
256,192,111793,2,0,B|270:258|208:272,1,100,8|0
144,336,112168,2,0,B|80:336|80:272,1,100,2|0
96,184,112543,2,0,B|152:208|208:200|264:176|312:144|336:104|328:56|288:24|224:24|184:56|176:104|200:144|248:176|304:200|360:208|424:184,1,600,8|8
180,56,114043,6,0,B|80:56,1,100,4|0
132,144,114418,2,0,B|232:144,1,100,2|0
276,232,114793,2,0,B|176:232,1,100,8|0
232,320,115168,2,0,B|336:320,1,100,2|0
416,136,115543,5,8
40,272,115918,1,2
352,24,116293,1,8
240,192,116480,1,8
128,352,116668,1,8
332,56,117043,6,0,B|432:56,1,100,4|0
380,144,117418,2,0,B|280:144,1,100,2|0
236,232,117793,2,0,B|336:232,1,100,8|2
280,320,118168,2,0,B|176:320,1,100,8|2
96,136,118543,5,2
472,272,118918,1,2
160,24,119293,1,8
272,192,119480,1,8
384,352,119668,1,8
40,248,120043,6,0,B|40:144,1,100,4|0
464,152,120418,2,0,B|464:256,1,100,2|0
112,248,120793,2,0,B|112:144,1,100,8|0
392,152,121168,2,0,B|392:256,1,100,2|0
304,344,121543,6,0,B|204:344,1,100,0|8
208,40,121918,2,0,B|312:40,1,100,2|0
304,272,122293,2,0,B|200:272,1,100,8|0
208,112,122668,2,0,B|312:112,1,100,2|2
280,312,123043,6,0,B|192:368,1,100,4|0
192,264,123418,2,0,B|88:272,1,100,2|0
136,184,123793,2,0,B|40:152,1,100,8|0
120,88,124168,2,0,B|32:32,1,100,2|0
232,312,124543,6,8,B|320:368,1,100
320,264,124918,2,0,B|424:272,1,100,2|0
376,184,125293,2,0,B|472:152,1,100,8|2
392,88,125668,2,0,B|480:32,1,100,8|2
304,96,126043,6,8,B|240:64|176:112|192:184|232:200,1,200,12|0
328,192,126605,2,8,B|365:207|381:279|317:327|253:295,1,200,0|0
152,304,127168,2,0,B|88:240|88:184|144:128,1,200
336,80,127918,6,8,B|411:52|471:91|492:162,1,200,12|0
392,168,128480,2,0,B|458:212|462:284|417:342,1,200
352,264,129043,2,0,B|342:343|280:379|207:365,1,200
176,80,129793,6,8,B|100:52|40:91|19:162,1,200,12|0
120,168,130355,2,0,B|53:212|49:284|94:342,1,200
160,264,130918,2,0,B|169:343|231:379|304:365,1,200
208,96,131668,6,8,B|272:64|336:112|320:184|280:200,1,200,12|0
184,192,132230,2,0,B|146:207|130:279|194:327|258:295,1,200
344,240,132793,2,0,B|376:200,3,50
384,152,133168,2,0,B|388:97,4,50,0|0|0|0|12
200,72,133918,6,0,B|144:72|112:112,1,100
208,192,134293,1,0
96,240,134480,1,0
208,192,134668,1,0
280,288,134855,2,0,B|244:331|192:331,1,100
296,104,135418,1,4
144,200,135793,6,0,B|200:216|208:272,1,100
344,304,136168,1,0
432,200,136355,1,0
296,176,136543,1,0
368,56,136730,2,0,B|384:112|440:120,1,100
184,184,137293,1,4
392,336,137668,5,0
248,344,137855,1,0
320,216,138043,1,0
320,368,138230,1,0
392,240,138418,1,0
248,240,138605,1,0
112,296,138793,1,0
248,344,139168,1,4
152,64,139543,5,8
88,136,139730,2,0,B|57:182|89:251|164:252|195:205,1,200,8|2
248,120,140293,1,2
344,128,140480,1,0
248,120,140668,1,2
288,208,140855,1,2
248,120,141043,1,4
416,224,141418,6,8,B|392:272|336:288,1,100
240,304,141793,2,0,B|184:304|144:264,1,100
64,208,142168,2,8,B|24:160|8:120|24:72|64:24,1,200,8|0
184,80,142730,1,0
152,176,142918,1,8
240,216,143105,1,0
280,120,143293,2,8,B|384:80|456:176,1,200,0|8
384,304,143855,1,0
216,328,144043,6,0,B|104:296|96:184,1,200,2|8
96,160,144511,1,0
96,136,144605,1,0
112,112,144699,1,8
128,96,144793,1,8
152,88,144886,1,0
176,88,144980,1,0
200,88,145074,1,0
224,96,145168,1,8
248,112,145261,1,0
264,136,145355,1,0
264,160,145449,1,0
264,184,145543,6,0,B|288:232|344:240|400:232|432:184,3,200,2|8|0|8
416,88,146855,1,0
312,72,147043,2,0,B|256:64|200:88|176:144|184:192,1,200,2|8
136,272,147605,1,8
232,256,147793,1,2
296,176,147980,1,0
320,80,148168,2,0,B|224:24|128:64,1,200,8|2
80,72,148636,6,0,B|32:48,2,50
88,120,148918,2,0,B|32:128,2,50,8|0|0
128,152,149199,2,0,B|88:184,2,50,8|8|0
176,152,149480,2,0,B|168:200,2,50,0|0|8
224,160,149761,2,0,B|248:208,2,50,0|0|0
272,160,150043,6,0,B|296:112,2,50,2|0|0
320,168,150324,2,0,B|368:136,2,50,0|8|0
352,208,150605,2,0,B|400:208,2,50,0|8|0
360,256,150886,2,0,B|400:288,2,50
344,304,151168,2,0,B|352:352,2,50,8|0|0
296,320,151449,1,0
248,328,151543,2,0,B|184:312|136:248|160:168,1,200,2|8
248,120,152105,2,0,B|192:112,2,50,0|8|2
344,128,152480,5,0
368,144,152574,1,0
384,160,152668,1,0
400,184,152761,1,0
408,208,152855,1,0
416,232,152949,1,0
416,256,153043,1,12
344,328,153230,6,0,B|296:360|248:328,1,100,0|8
288,248,153605,2,0,B|288:200,3,50,0|0|2|0
237,198,153980,2,0,B|237:246,2,50,0|0|10
184,280,154355,5,0
96,232,154543,1,2
168,104,154730,1,2
328,104,154918,1,8
424,232,155105,1,2
328,328,155293,1,0
248,208,155480,1,2
168,328,155668,2,0,B|112:328|96:272,2,100,8|2|2
200,232,156230,5,2
264,152,156418,2,0,B|360:128,1,100,8|0
448,176,156793,1,2
400,264,156980,2,0,B|296:288,1,100,2|8
224,344,157355,1,8
136,296,157543,6,0,B|88:264|96:208,1,100,0|2
152,96,157918,1,8
304,96,158105,1,2
440,216,158293,1,2
296,352,158480,1,2
272,256,158668,2,0,B|208:176,1,100,8|2
232,80,159043,6,0,B|304:8,2,100,2|0|8
296,160,159605,2,0,B|400:136,2,100,2|2|2
320,256,160168,2,0,B|400:320,2,100,8|2|8
232,80,160730,2,0,B|160:8,2,100,2|8|0
168,160,161293,2,0,B|64:136,2,100,2|2|8
256,192,162043,12,0,163543
248,112,163918,5,8
248,208,164105,2,0,B|208:176,4,50
280,168,164574,2,0,B|320:200,3,50
416,192,165043,1,4
320,104,175824,5,0
360,88,175918,2,0,B|400:112|432:168|400:232|360:256,1,200
336,264,176386,1,0
312,264,176480,1,0
288,256,176574,1,0
272,240,176668,1,0
256,224,176761,1,0
248,200,176855,1,0
248,176,176949,1,0
256,152,177043,6,0,B|280:96|224:64,2,100,12|0|8
160,176,177605,1,0
112,264,177793,1,0
208,304,177980,2,0,B|296:352,1,100,0|8
360,272,178355,1,0
424,192,178543,2,0,B|464:128|432:56|360:32,1,200,0|8
272,88,179105,5,2
232,120,179199,1,2
216,168,179293,1,2
264,256,179480,1,2
264,256,179668,1,8
264,256,179855,1,2
72,320,180043,6,0,B|40:272|72:224,1,100,8|0
120,136,180418,1,8
168,224,180605,2,0,B|200:272|168:320,1,100
264,344,180980,1,0
256,240,181168,6,0,B|288:192|256:144,1,100,8|2
264,96,181449,1,2
312,72,181543,1,2
376,152,181730,2,0,B|407:197|375:245,1,100,8|0
336,336,182105,2,0,B|456:320|464:200,1,200,2|0
440,112,182668,1,8
312,72,182855,1,12
176,112,183043,1,0
216,248,183230,5,0
320,240,183418,1,8
256,160,183605,1,0
352,152,183793,1,2
256,160,183980,1,2
256,160,184168,1,8
112,232,184543,5,0
192,320,184730,1,0
200,200,184918,1,8
192,320,185105,1,0
312,240,185293,1,8
192,320,185480,1,8
352,336,185668,1,8
408,144,186043,5,0
320,88,186230,1,0
416,224,186418,1,8
240,112,186605,1,0
352,280,186793,1,2
232,200,186980,1,2
328,184,187168,1,8
80,112,187543,5,0
104,240,187730,1,8
240,304,187918,1,8
280,160,188105,1,0
248,128,188199,1,0
248,80,188293,1,0
336,80,188480,1,0
368,112,188574,1,0
360,160,188668,1,0
400,248,188855,1,0
352,336,189043,6,0,B|248:336,1,100,4|0
304,232,189418,2,2,B|304:128,1,100,2|0
352,32,189793,2,0,B|248:32,1,100,8|0
80,32,190168,2,0,B|184:32,1,100,2|0
128,136,190543,2,0,B|128:240,1,100,0|8
80,336,190918,2,0,B|184:336,1,100,2|0
304,336,191293,2,8,B|328:288|300:240,2,100,8|8|8
400,344,191855,1,0
400,240,192043,6,0,B|296:240,1,100,4|0
136,240,192418,2,0,B|240:240,1,100,2|0
448,176,192793,2,0,B|344:176,1,100,12|0
64,176,193168,2,0,B|168:176,1,100,2|0
288,112,193543,2,0,B|388:112,1,100,0|8
224,112,193918,2,0,B|124:112,2,100,2|0|8
384,192,194480,5,0
384,192,194574,1,0
384,192,194668,1,0
128,192,194855,1,0
128,192,194949,1,0
128,192,195043,1,4
272,312,195230,6,0,B|320:336|376:312,2,100,0|2|0
152,320,195793,1,8
56,248,195980,2,0,B|24:208|48:152,1,100,0|2
136,72,196355,1,0
256,72,196543,1,2
376,104,196730,1,10
424,216,196918,2,0,B|384:256|328:256,1,100,0|2
232,192,197293,2,0,B|160:216|120:288|144:360,2,200,8|2|4
304,128,198230,5,0
408,120,198418,1,2
360,208,198605,1,0
352,104,198793,1,8
448,104,198980,1,0
408,200,199168,2,0,B|432:296|432:296|392:336|336:336,1,200,2|8
144,328,199918,5,8
72,256,200105,1,8
72,152,200293,1,8
144,80,200480,1,8
248,80,200668,1,8
312,160,200855,1,8
312,264,201043,6,0,B|248:256|240:312,2,100,4|0|0
392,216,202168,1,0
392,120,202543,1,0
296,80,202918,1,0
200,120,203293,1,0
200,224,203668,1,0
120,288,204043,2,0,B|72:320|24:288,2,100
72,200,205168,1,0
72,104,205355,1,0
152,152,205543,5,4
256,32,205824,1,4
360,152,206043,1,4
256,272,206293,1,4
256,96,206543,2,0,B|392:96,1,133.333333333333
384,232,207043,6,0,B|408:280|376:328,1,100
280,352,207418,2,0,B|328:264|280:160,1,200,8|0
184,168,207980,1,2
279,159,208168,1,8
376,160,208355,1,2
480,160,208543,6,0,B|472:104|432:72,1,100
288,64,208918,1,8
136,72,209105,1,8
64,208,209293,2,0,B|24:248|8:296|24:344|64:384,1,200,8|8
160,368,209855,1,8
152,272,210043,6,0,B|192:224|248:256,1,100,0|0
344,256,210418,1,8
464,96,210605,2,0,B|416:72|368:96,1,100
264,96,210980,1,0
184,160,211168,2,0,B|80:160,2,100,8|8|0
272,208,211730,1,0
352,264,211918,1,8
416,328,212105,6,0,B|520:328,2,100
392,328,212574,1,0
368,328,212668,1,0
344,328,212761,1,0
320,328,212855,1,0
296,328,212949,1,0
272,328,213043,2,0,B|192:328|120:272|120:216,1,200,12|8
176,136,213605,5,0
288,136,213793,1,2
312,232,213980,1,2
200,232,214168,1,8
256,352,214355,6,0,B|256:248,1,100,2|0
256,112,214730,1,8
344,232,214918,1,8
256,352,215105,1,2
168,232,215293,1,8
80,72,215668,1,8
112,272,216043,6,0,B|80:328|128:360,2,100,0|0|8
208,304,216605,1,0
200,184,216793,2,0,B|400:184,1,200,0|8
400,280,217355,1,0
280,280,217543,1,4
400,184,217730,1,0
240,184,217918,1,8
400,104,218105,1,0
200,104,218293,2,0,B|160:144,3,50
200,104,218668,2,0,B|240:144,3,50
232,192,219043,6,0,B|232:296,1,100,4|0
328,320,219418,1,8
424,296,219605,2,0,B|424:192,1,100
328,184,219980,1,0
224,184,220168,2,0,B|120:136|120:136|120:88|168:72,1,200,8|2
264,72,220730,1,2
304,168,220918,1,8
304,264,221105,1,2
400,88,221293,2,8,B|440:152|440:224|400:280,1,200
216,336,222043,6,0,B|160:320|136:272,1,100,4|0
128,176,222418,1,8
128,80,222605,1,0
128,176,222793,1,4
328,176,222980,1,8
328,280,223168,1,8
328,176,223355,1,0
224,176,223543,1,4
272,88,223730,2,0,B|376:88,1,100,0|8
424,176,224105,2,0,B|424:280,1,100,0|12
224,312,224480,5,8
224,111,224668,1,8
224,112,225043,1,4
216,56,230293,6,8,B|168:56|112:72|72:120|72:168,1,200
208,312,231043,2,0,B|264:304|288:256,2,100,4|0|8
144,176,231605,1,0
288,136,231793,1,0
416,208,231980,1,0
288,136,232168,1,8
96,88,232543,6,0,B|136:56|192:72,1,100,2|0
160,160,232918,1,8
304,120,233199,1,8
352,112,233293,1,8
360,312,233480,1,8
360,312,233668,1,8
304,120,234043,6,0,B|354:110|396:150,1,100,2|0
416,264,234418,1,8
280,200,234699,1,8
224,200,234793,1,8
64,320,234980,1,8
64,320,235168,1,8
352,192,235543,6,0,B|336:240,1,50
312,264,235730,2,0,B|272:296,1,50
256,264,235918,1,0
240,296,236011,2,0,B|200:264,1,50
175,239,236199,2,0,B|160:192,1,50
456,192,236668,5,4
64,192,236855,1,4
256,192,237043,12,0,241543
