osu file format v9

[General]
AudioFilename: project_-_YUMU.mp3
AudioLeadIn: 1996
PreviewTime: 63045
Countdown: 0
SampleSet: Normal
StackLeniency: 0.4
Mode: 1
LetterboxInBreaks: 0

[Editor]
Bookmarks: 43,15043,27043,39043,51043,63043,87043,90043,102043,114043,126043,141043,165043,189043,207043,225043
DistanceSpacing: 1
BeatDivisor: 4
GridSize: 32

[Metadata]
Title:YU-MU
Artist:Ichigo
Creator:l1106188
Version:Firce777's Taiko
Source:Touhou
Tags:Firce777

[Difficulty]
HPDrainRate:5
CircleSize:5
OverallDifficulty:5
ApproachRate:5
SliderMultiplier:1.4
SliderTickRate:2

[Events]
//Background and Video events
0,0,"Taiko_BG.jpg"
//Break Periods
//Storyboard Layer 0 (Background)
//Storyboard Layer 1 (Fail)
//Storyboard Layer 2 (Pass)
//Storyboard Layer 3 (Foreground)
//Storyboard Sound Samples
//Background Colour Transformations
3,100,163,162,255

[TimingPoints]
43,375,4,1,0,90,1,0
63043,-100,4,1,0,90,0,1
87043,-100,4,1,0,90,0,0
126043,375,5,1,0,90,1,0
139918,-100,5,1,0,35,0,0
141043,375,4,1,0,90,1,0
141043,-100,4,1,0,90,0,1
165043,-100,4,1,0,90,0,0
201136,-133.333333333333,4,1,0,90,0,0
205543,-79.9999999999999,4,1,0,90,0,0
207043,-100,4,1,0,90,0,1
225043,-100,4,1,0,90,0,0

[HitObjects]
256,192,43,21,2
256,192,793,1,2
256,192,1543,1,2
256,192,1918,1,2
256,192,2293,1,2
256,192,3043,5,0
256,192,3230,1,0
256,192,3324,1,0
256,192,3418,5,2
256,192,3605,5,0
256,192,3793,1,0
256,192,3980,1,0
256,192,4074,1,0
256,192,4168,5,2
256,192,4355,5,0
256,192,4543,1,0
256,192,4730,1,0
256,192,4824,1,0
256,192,4918,5,2
256,192,5105,5,0
256,192,5199,1,0
256,192,5293,1,0
256,192,5480,1,0
256,192,5574,1,0
256,192,5668,5,2
256,192,5761,1,2
256,192,5855,5,0
256,192,6043,1,0
256,192,6230,1,0
256,192,6324,1,0
256,192,6418,5,2
256,192,6605,5,0
256,192,6793,1,0
256,192,6980,1,0
256,192,7074,1,0
256,192,7168,5,2
256,192,7355,5,0
256,192,7543,1,0
256,192,7730,1,0
256,192,7824,1,0
256,192,7918,5,2
256,192,8105,5,0
256,192,8199,1,0
256,192,8293,1,0
256,192,8480,1,0
256,192,8574,1,0
256,192,8668,5,2
256,192,8761,1,2
256,192,8855,5,0
256,192,8949,5,2
256,192,9043,5,0
256,192,9230,1,0
256,192,9418,5,2
256,192,9699,5,0
256,192,9793,1,0
256,192,9980,1,0
256,192,10168,5,2
256,192,10543,5,0
256,192,10730,1,0
256,192,10918,5,2
256,192,11199,1,2
256,192,11293,5,0
256,192,11480,1,0
256,192,11574,1,0
256,192,11668,5,2
256,192,11855,5,0
256,192,12043,1,0
256,192,12230,1,0
256,192,12418,5,2
256,192,12699,5,0
256,192,12793,1,0
256,192,12980,1,0
256,192,13168,5,2
256,192,13543,5,0
256,192,13730,1,0
256,192,13918,5,2
256,192,14199,1,2
256,192,14293,5,0
256,192,14480,1,0
256,192,14574,1,0
256,192,14668,1,0
256,192,14761,1,0
256,192,14855,1,0
256,192,14949,1,0
256,192,15043,1,0
256,192,15230,1,0
256,192,15324,1,0
256,192,15418,5,2
256,192,15605,5,0
256,192,15793,1,0
256,192,15886,1,0
256,192,15980,5,2
256,192,16168,5,2
256,192,16355,1,0
256,192,16449,1,0
256,192,16543,5,2
256,192,16730,5,0
256,192,16918,5,2
256,192,17011,5,0
256,192,17105,1,0
256,192,17293,5,2
256,192,17480,5,0
256,192,17574,1,0
256,192,17668,5,2
256,192,17761,5,0
256,192,17855,1,0
256,192,18043,1,0
256,192,18230,1,0
256,192,18324,1,0
256,192,18418,5,2
256,192,18605,5,0
256,192,18793,1,0
256,192,18886,1,0
256,192,18980,5,2
256,192,19168,1,2
256,192,19355,5,0
256,192,19449,1,0
256,192,19543,5,2
256,192,19730,5,0
256,192,19918,5,2
256,192,20011,5,0
256,192,20105,1,0
256,192,20293,5,2
256,192,20480,5,0
256,192,20574,1,0
256,192,20668,5,2
256,192,20761,5,0
256,192,20855,5,2
256,192,21043,5,0
256,192,21136,1,0
256,192,21230,1,0
256,192,21418,5,2
256,192,21605,5,0
256,192,21699,1,0
256,192,21793,1,0
256,192,21980,5,2
256,192,22168,1,2
256,192,22261,5,0
256,192,22355,1,0
256,192,22543,5,2
256,192,22730,5,0
256,192,22824,1,0
256,192,22918,5,2
256,192,23105,1,2
256,192,23293,5,0
256,192,23480,1,0
256,192,23574,1,0
256,192,23668,5,2
256,192,23761,5,0
256,192,23855,5,2
256,192,24043,5,0
256,192,24136,1,0
256,192,24230,1,0
256,192,24418,5,2
256,192,24605,5,0
256,192,24699,1,0
256,192,24793,1,0
256,192,24980,1,0
256,192,25168,5,2
256,192,25261,5,0
256,192,25355,1,0
256,192,25543,5,2
256,192,25730,5,0
256,192,25824,1,0
256,192,25918,5,2
256,192,26105,1,2
256,192,26293,5,0
256,192,26480,1,0
256,192,26574,1,0
256,192,26668,5,2
256,192,26761,5,0
256,192,26855,1,0
256,192,26949,1,0
256,192,27043,1,0
256,192,27230,1,0
256,192,27418,5,2
256,192,27605,5,0
256,192,27886,1,0
256,192,27980,1,0
256,192,28168,5,2
256,192,28543,5,0
256,192,28730,1,0
256,192,28918,5,2
256,192,29105,5,0
256,192,29293,1,0
256,192,29386,1,0
256,192,29574,1,0
256,192,29668,5,2
256,192,29855,1,2
256,192,30043,5,0
256,192,30418,5,2
256,192,30605,5,0
256,192,30886,1,0
256,192,30980,1,0
256,192,31168,5,2
256,192,31543,5,0
256,192,31824,1,0
256,192,31918,5,2
256,192,32105,5,0
256,192,32386,1,0
256,192,32480,1,0
256,192,32668,5,2
256,192,32855,5,0
256,192,33043,1,0
256,192,33230,5,2
256,192,33324,1,2
256,192,33418,1,2
256,192,33605,5,0
256,192,33980,1,0
256,192,34168,5,2
256,192,34543,5,0
256,192,34730,5,2
256,192,34824,1,2
256,192,34918,1,2
256,192,35105,5,0
256,192,35480,1,0
256,192,35668,5,2
256,192,36043,1,2
256,192,36230,5,0
256,192,36324,1,0
256,192,36418,5,2
256,192,36605,5,0
256,192,36980,1,0
256,192,37168,5,2
256,192,37543,5,0
256,192,37730,1,0
256,192,37824,1,0
256,192,37918,5,2
256,192,38105,1,2
256,192,38199,5,0
256,192,38293,1,0
256,192,38480,1,0
256,192,38574,1,0
256,192,38668,5,2
256,192,38761,1,2
256,192,38855,1,2
256,192,39043,5,0
256,192,39230,1,0
256,192,39418,5,2
256,192,39605,5,0
256,192,39886,1,0
256,192,39980,1,0
256,192,40168,5,2
256,192,40543,5,0
256,192,40730,1,0
256,192,40918,5,2
256,192,41105,5,0
256,192,41293,1,0
256,192,41386,1,0
256,192,41574,1,0
256,192,41668,5,2
256,192,41855,1,2
256,192,42043,5,0
256,192,42230,5,2
256,192,42418,1,2
256,192,42605,5,0
256,192,42886,1,0
256,192,42980,1,0
256,192,43168,5,2
256,192,43543,5,0
256,192,43824,1,0
256,192,43918,5,2
256,192,44105,5,0
256,192,44386,1,0
256,192,44480,1,0
256,192,44668,5,2
256,192,44855,5,0
256,192,45043,1,0
256,192,45230,5,2
256,192,45324,1,2
256,192,45418,1,2
256,192,45605,5,0
256,192,45980,1,0
256,192,46168,5,2
256,192,46543,5,0
256,192,46730,5,2
256,192,46824,1,2
256,192,46918,1,2
256,192,47105,5,0
256,192,47480,1,0
256,192,47668,5,2
256,192,48043,1,2
256,192,48230,5,0
256,192,48324,1,0
256,192,48418,5,2
256,192,48605,5,0
256,192,48980,1,0
256,192,49168,5,2
256,192,49543,5,0
256,192,49730,1,0
256,192,49824,1,0
256,192,49918,5,2
256,192,50105,1,2
256,192,50199,5,0
256,192,50293,1,0
256,192,50480,1,0
256,192,50574,1,0
256,192,50668,5,2
256,192,50761,1,2
256,192,50855,1,2
256,192,50949,1,2
256,192,51043,5,0
256,192,51418,1,0
256,192,51511,1,0
256,192,51605,1,0
256,192,51793,1,0
256,192,51886,1,0
256,192,52074,1,0
256,192,52168,1,0
256,192,52355,1,0
256,192,52449,1,0
256,192,52543,1,0
256,192,52918,1,0
256,192,53011,1,0
256,192,53105,1,0
256,192,53293,1,0
256,192,53386,1,0
256,192,53574,1,0
256,192,53668,1,0
256,192,53855,5,6
256,192,54043,5,0
256,192,54418,1,0
256,192,54511,1,0
256,192,54605,1,0
256,192,54793,1,0
256,192,54886,1,0
256,192,55074,1,0
256,192,55168,1,0
256,192,55355,1,0
256,192,55449,1,0
256,192,55543,1,0
256,192,55918,1,0
256,192,56011,1,0
256,192,56105,1,0
256,192,56293,5,6
256,192,56574,5,0
256,192,56668,1,0
256,192,56855,5,6
256,192,57043,5,0
256,192,57418,1,0
256,192,57511,1,0
256,192,57605,1,0
256,192,57793,1,0
256,192,57886,1,0
256,192,58074,1,0
256,192,58168,1,0
256,192,58355,1,0
256,192,58449,1,0
256,192,58543,1,0
256,192,58918,1,0
256,192,59011,1,0
256,192,59105,1,0
256,192,59293,1,0
256,192,59386,1,0
256,192,59574,1,0
256,192,59668,1,0
256,192,59855,5,6
256,192,60043,5,0
256,192,60418,1,0
256,192,60511,1,0
256,192,60605,1,0
256,192,60793,1,0
256,192,60886,1,0
256,192,61074,1,0
256,192,61168,1,0
256,192,61355,1,0
256,192,61449,1,0
256,192,61543,1,0
256,192,61918,1,0
256,192,62011,1,0
256,192,62105,1,0
256,192,62293,5,6
256,192,62480,5,0
256,192,62668,1,0
256,192,62855,1,0
256,192,63043,1,4
256,192,63324,1,0
256,192,63418,5,2
256,192,63605,5,0
256,192,63699,1,0
256,192,63793,1,0
256,192,63980,1,0
256,192,64074,1,0
256,192,64168,5,2
256,192,64261,5,0
256,192,64355,1,0
256,192,64543,5,2
256,192,64730,5,0
256,192,64824,1,0
256,192,64918,5,2
256,192,65105,5,0
256,192,65293,1,0
256,192,65386,1,0
256,192,65480,1,0
256,192,65574,1,0
256,192,65668,5,2
256,192,65855,1,2
256,192,65949,1,2
256,192,66043,5,0
256,192,66230,5,2
256,192,66324,5,0
256,192,66418,5,2
256,192,66605,5,0
256,192,66699,1,0
256,192,66793,5,2
256,192,66886,5,0
256,192,66980,1,0
256,192,67168,5,2
256,192,67261,5,0
256,192,67355,1,0
256,192,67449,5,2
256,192,67543,5,0
256,192,67730,5,2
256,192,67824,5,0
256,192,67918,5,2
256,192,68105,5,0
256,192,68199,1,0
256,192,68293,5,2
256,192,68386,5,0
256,192,68480,1,0
256,192,68668,5,2
256,192,68761,5,0
256,192,68855,1,0
256,192,69043,1,0
256,192,69230,5,2
256,192,69324,5,0
256,192,69418,5,2
256,192,69605,5,0
256,192,69699,5,2
256,192,69793,5,0
256,192,69886,1,0
256,192,69980,1,0
256,192,70168,5,2
256,192,70261,1,2
256,192,70355,5,0
256,192,70543,1,0
256,192,70730,5,2
256,192,70824,5,0
256,192,70918,5,2
256,192,71105,5,0
256,192,71199,5,2
256,192,71293,5,0
256,192,71386,1,0
256,192,71480,1,0
256,192,71668,5,2
256,192,71761,1,2
256,192,71855,5,0
256,192,72043,1,0
256,192,72136,1,0
256,192,72230,5,2
256,192,72324,5,0
256,192,72511,5,2
256,192,72605,5,0
256,192,72793,1,0
256,192,72886,5,2
256,192,73074,5,0
256,192,73168,5,2
256,192,73261,1,2
256,192,73355,5,0
256,192,73543,1,0
256,192,73636,1,0
256,192,73824,1,0
256,192,73918,5,2
256,192,74011,1,2
256,192,74105,5,0
256,192,74293,1,0
256,192,74480,1,0
256,192,74668,5,2
256,192,74761,1,2
256,192,74855,5,0
256,192,74949,1,0
256,192,75043,1,0
256,192,75324,1,0
256,192,75418,5,2
256,192,75605,5,0
256,192,75699,1,0
256,192,75793,1,0
256,192,75980,1,0
256,192,76074,1,0
256,192,76168,5,2
256,192,76261,5,0
256,192,76355,1,0
256,192,76543,5,2
256,192,76730,5,0
256,192,76824,1,0
256,192,76918,5,2
256,192,77105,5,0
256,192,77293,1,0
256,192,77386,1,0
256,192,77480,1,0
256,192,77574,1,0
256,192,77668,5,2
256,192,77855,1,2
256,192,77949,1,2
256,192,78043,5,0
256,192,78230,5,2
256,192,78324,5,0
256,192,78418,5,2
256,192,78605,5,0
256,192,78699,1,0
256,192,78793,5,2
256,192,78886,5,0
256,192,78980,1,0
256,192,79168,5,2
256,192,79261,5,0
256,192,79355,1,0
256,192,79449,5,2
256,192,79543,5,0
256,192,79730,5,2
256,192,79824,5,0
256,192,79918,5,2
256,192,80105,5,0
256,192,80199,1,0
256,192,80293,5,2
256,192,80386,5,0
256,192,80480,1,0
256,192,80668,5,2
256,192,80761,5,0
256,192,80855,1,0
256,192,81043,1,0
256,192,81230,5,2
256,192,81324,5,0
256,192,81418,5,2
256,192,81605,5,0
256,192,81699,5,2
256,192,81793,5,0
256,192,81886,1,0
256,192,81980,1,0
256,192,82168,5,2
256,192,82261,1,2
256,192,82355,5,0
256,192,82543,1,0
256,192,82730,5,2
256,192,82824,5,0
256,192,82918,5,2
256,192,83105,5,0
256,192,83199,5,2
256,192,83293,5,0
256,192,83386,1,0
256,192,83480,1,0
256,192,83668,5,2
256,192,83761,1,2
256,192,83855,5,0
256,192,84043,1,0
256,192,84136,1,0
256,192,84230,5,2
256,192,84324,5,0
256,192,84511,5,2
256,192,84605,5,0
256,192,84793,1,0
256,192,84886,5,2
256,192,85074,5,0
256,192,85168,5,2
256,192,85261,1,2
256,192,85355,5,0
256,192,85543,1,0
256,192,85636,1,0
256,192,85824,1,0
256,192,85918,5,2
256,192,86011,1,2
256,192,86105,5,0
256,192,86293,1,0
256,192,86480,1,0
256,192,86668,5,2
256,192,86761,1,2
256,192,86855,5,0
256,192,86949,1,0
256,192,87043,1,0
256,192,87418,5,2
256,192,87699,1,2
256,192,87793,5,0
256,192,87980,1,0
256,192,88168,5,2
256,192,88543,5,0
256,192,88730,5,2
256,192,88918,5,0
256,192,89011,5,2
256,192,89293,1,6
256,192,90043,5,0
256,192,90230,5,2
256,192,90418,1,2
256,192,90605,5,0
256,192,90886,1,0
256,192,90980,1,0
256,192,91168,5,2
256,192,91543,5,0
256,192,91730,5,2
256,192,91918,1,2
256,192,92105,5,0
256,192,92293,1,0
256,192,92386,5,2
256,192,92574,5,0
256,192,92668,5,2
256,192,92855,1,2
256,192,93043,5,0
256,192,93418,5,2
256,192,93605,5,0
256,192,93886,1,0
256,192,93980,1,0
256,192,94168,5,2
256,192,94543,5,0
256,192,94824,1,0
256,192,94918,5,2
256,192,95105,5,0
256,192,95386,1,0
256,192,95480,1,0
256,192,95668,5,2
256,192,95855,5,0
256,192,96043,1,0
256,192,96230,5,2
256,192,96324,1,2
256,192,96418,5,0
256,192,96605,1,0
256,192,96980,1,0
256,192,97168,5,2
256,192,97543,5,0
256,192,97730,5,2
256,192,97824,1,2
256,192,97918,5,0
256,192,98105,1,0
256,192,98480,1,0
256,192,98668,5,2
256,192,99043,1,2
256,192,99230,5,0
256,192,99324,1,0
256,192,99418,5,2
256,192,99605,5,0
256,192,99980,1,0
256,192,100168,5,2
256,192,100543,5,0
256,192,100730,1,0
256,192,100824,1,0
256,192,100918,5,2
256,192,101105,1,2
256,192,101199,5,0
256,192,101293,1,0
256,192,101480,1,0
256,192,101574,1,0
256,192,101668,5,2
256,192,101761,1,2
256,192,101855,1,2
256,192,102043,5,4
256,192,102418,1,0
256,192,102793,5,2
256,192,103168,1,2
256,192,103355,5,0
256,192,103543,1,0
256,192,103730,5,2
256,192,103824,5,0
256,192,104011,5,2
256,192,104105,5,0
256,192,104293,5,2
256,192,104668,5,0
256,192,104855,1,0
256,192,105043,5,6
256,192,105418,5,0
256,192,105605,1,0
256,192,105793,5,2
256,192,106168,5,0
256,192,106355,5,2
256,192,106543,5,0
256,192,106730,5,2
256,192,106824,5,0
256,192,107011,1,0
256,192,107105,1,0
256,192,107293,5,2
256,192,107574,5,0
256,192,107668,1,0
256,192,107855,1,0
256,192,108043,5,6
256,192,108418,5,0
256,192,108793,5,2
256,192,109168,1,2
256,192,109355,5,0
256,192,109543,1,0
256,192,109730,5,2
256,192,109824,5,0
256,192,110011,5,2
256,192,110105,5,0
256,192,110293,5,2
256,192,110668,5,0
256,192,110855,1,0
256,192,111043,5,6
256,192,111418,5,0
256,192,111605,1,0
256,192,111793,5,2
256,192,112168,5,0
256,192,112355,5,2
256,192,112543,5,0
256,192,112730,5,2
256,192,112918,1,2
256,192,113105,1,2
256,192,113199,1,2
256,192,113293,5,0
256,192,113480,1,0
256,192,113574,5,2
256,192,113668,5,0
256,192,113761,1,0
256,192,113855,1,0
256,192,114043,1,4
256,192,114230,1,0
256,192,114324,1,0
256,192,114418,1,0
256,192,114605,1,0
256,192,114699,1,0
256,192,114793,5,2
256,192,115168,5,0
256,192,115355,1,0
256,192,115543,5,2
256,192,115730,5,0
256,192,115918,5,2
256,192,116105,5,0
256,192,116199,1,0
256,192,116293,5,2
256,192,116668,5,0
256,192,117043,1,4
256,192,117230,1,0
256,192,117324,1,0
256,192,117418,1,0
256,192,117605,1,0
256,192,117699,1,0
256,192,117793,5,2
256,192,118168,1,2
256,192,118355,5,0
256,192,118543,1,0
256,192,118730,5,2
256,192,118918,5,0
256,192,119105,1,0
256,192,119199,1,0
256,192,119293,5,2
256,192,119480,1,2
256,192,119574,1,2
256,192,119668,5,0
256,192,120043,1,4
256,192,120230,1,0
256,192,120324,1,0
256,192,120418,1,0
256,192,120605,1,0
256,192,120699,1,0
256,192,120793,5,2
256,192,121168,5,0
256,192,121355,1,0
256,192,121543,1,0
256,192,121730,5,2
256,192,121824,1,2
256,192,121918,5,0
256,192,122105,1,0
256,192,122199,1,0
256,192,122293,5,2
256,192,122668,5,0
256,192,123043,1,4
256,192,123230,1,0
256,192,123324,1,0
256,192,123418,1,0
256,192,123605,1,0
256,192,123699,1,0
256,192,123793,5,2
256,192,124168,1,2
256,192,124355,1,2
256,192,124543,5,0
256,192,124730,1,0
256,192,124824,1,0
256,192,124918,5,2
256,192,125105,5,0
256,192,125199,1,0
256,192,125293,5,2
256,192,125480,5,0
256,192,125668,5,2
256,192,125761,5,0
256,192,125855,1,0
256,192,126043,1,4
256,192,126418,1,0
256,192,126605,5,2
256,192,126792,5,0
256,192,126980,1,0
256,192,127167,1,0
256,192,127543,1,0
256,192,127918,5,6
256,192,128293,5,0
256,192,128480,1,0
256,192,128668,1,0
256,192,128855,1,0
256,192,129043,1,0
256,192,129418,5,2
256,192,129793,5,4
256,192,130168,1,0
256,192,130355,1,0
256,192,130543,1,0
256,192,130730,1,0
256,192,130918,1,0
256,192,131293,5,2
256,192,131668,1,6
256,192,132043,5,0
256,192,132230,5,2
256,192,132418,5,0
256,192,132605,5,2
256,192,132793,5,0
256,192,132980,5,2
256,192,133074,1,2
256,192,133168,5,0
256,192,133261,5,2
256,192,133355,1,2
256,192,133543,5,4
256,192,133918,1,0
256,192,134105,5,2
256,192,134293,5,0
256,192,134480,1,0
256,192,134668,1,0
256,192,134855,1,0
256,192,135043,5,2
256,192,135418,1,6
256,192,135793,5,0
256,192,135980,1,0
256,192,136168,1,0
256,192,136355,1,0
256,192,136543,1,0
256,192,136730,1,0
256,192,136918,5,2
256,192,137293,5,4
256,192,137668,1,0
256,192,137855,1,0
256,192,138042,1,0
256,192,138230,1,0
256,192,138417,1,0
256,192,138605,1,0
256,192,138792,5,2
256,192,139168,1,6
256,192,139543,5,0
256,192,139730,5,2
256,192,139918,5,0
256,192,140105,1,0
256,192,140293,5,2
256,192,140480,5,0
256,192,140668,1,0
256,192,140855,1,0
256,192,141043,1,4
256,192,141230,1,0
256,192,141324,1,0
256,192,141418,5,2
256,192,141605,5,0
256,192,141793,1,0
256,192,141886,1,0
256,192,141980,5,2
256,192,142168,1,2
256,192,142355,5,0
256,192,142449,1,0
256,192,142543,5,2
256,192,142730,5,0
256,192,142918,5,2
256,192,143011,5,0
256,192,143105,1,0
256,192,143293,5,2
256,192,143480,5,0
256,192,143574,1,0
256,192,143668,5,2
256,192,143761,5,0
256,192,143855,5,2
256,192,144043,5,0
256,192,144230,1,0
256,192,144324,1,0
256,192,144418,5,2
256,192,144605,5,0
256,192,144793,1,0
256,192,144886,1,0
256,192,144980,5,2
256,192,145168,1,2
256,192,145355,5,0
256,192,145449,1,0
256,192,145543,5,2
256,192,145730,5,0
256,192,145918,5,2
256,192,146011,5,0
256,192,146105,1,0
256,192,146293,5,2
256,192,146480,5,0
256,192,146574,1,0
256,192,146668,5,2
256,192,146761,5,0
256,192,146855,5,2
256,192,147043,5,0
256,192,147136,1,0
256,192,147230,1,0
256,192,147418,5,2
256,192,147605,5,0
256,192,147699,1,0
256,192,147793,1,0
256,192,147980,5,2
256,192,148168,1,2
256,192,148261,5,0
256,192,148355,1,0
256,192,148543,5,2
256,192,148730,5,0
256,192,148824,1,0
256,192,148918,5,2
256,192,149105,1,2
256,192,149293,5,0
256,192,149480,1,0
256,192,149574,1,0
256,192,149668,5,2
256,192,149761,5,0
256,192,149855,5,2
256,192,150043,5,0
256,192,150136,1,0
256,192,150230,1,0
256,192,150418,5,2
256,192,150605,5,0
256,192,150699,1,0
256,192,150793,1,0
256,192,150980,1,0
256,192,151168,5,2
256,192,151261,5,0
256,192,151355,1,0
256,192,151543,5,2
256,192,151730,5,0
256,192,151824,1,0
256,192,151918,5,2
256,192,152105,1,2
256,192,152293,5,0
256,192,152480,1,0
256,192,152574,1,0
256,192,152668,5,2
256,192,152761,5,0
256,192,152855,1,0
256,192,152949,1,0
256,192,153043,1,0
256,192,153230,1,0
256,192,153324,1,0
256,192,153418,5,2
256,192,153605,5,0
256,192,153793,1,0
256,192,153886,1,0
256,192,153980,5,2
256,192,154168,1,2
256,192,154355,5,0
256,192,154449,1,0
256,192,154543,5,2
256,192,154730,5,0
256,192,154918,5,2
256,192,155011,5,0
256,192,155105,1,0
256,192,155293,5,2
256,192,155480,5,0
256,192,155574,1,0
256,192,155668,5,2
256,192,155761,5,0
256,192,155855,5,2
256,192,156043,5,0
256,192,156230,1,0
256,192,156324,1,0
256,192,156418,5,2
256,192,156605,5,0
256,192,156793,1,0
256,192,156886,1,0
256,192,156980,5,2
256,192,157168,1,2
256,192,157355,5,0
256,192,157449,1,0
256,192,157543,5,2
256,192,157730,5,0
256,192,157918,5,2
256,192,158011,5,0
256,192,158105,1,0
256,192,158293,5,2
256,192,158480,5,0
256,192,158574,1,0
256,192,158668,5,2
256,192,158761,5,0
256,192,158855,5,2
256,192,159043,5,0
256,192,159136,1,0
256,192,159230,1,0
256,192,159418,5,2
256,192,159605,5,0
256,192,159699,1,0
256,192,159793,1,0
256,192,159980,5,2
256,192,160168,1,2
256,192,160261,5,0
256,192,160355,1,0
256,192,160543,5,2
256,192,160730,5,0
256,192,160824,1,0
256,192,160918,5,2
256,192,161105,1,2
256,192,161293,5,0
256,192,161480,1,0
256,192,161574,1,0
256,192,161668,5,2
256,192,161761,5,0
256,192,161855,5,2
256,192,162043,5,0
256,192,162136,1,0
256,192,162230,1,0
256,192,162418,5,2
256,192,162605,5,0
256,192,162699,1,0
256,192,162793,1,0
256,192,162980,1,0
256,192,163168,5,2
256,192,163261,5,0
256,192,163355,1,0
256,192,163543,5,2
256,192,163730,5,0
256,192,163824,1,0
256,192,163918,5,2
256,192,164105,1,2
256,192,164293,5,0
256,192,164386,1,0
256,192,164480,1,0
256,192,164574,1,0
256,192,164668,5,2
256,192,164761,5,0
256,192,164855,5,2
256,192,164949,1,2
256,192,165043,5,0
256,192,165230,1,0
256,192,165418,5,2
256,192,165605,5,0
256,192,165886,1,0
256,192,165980,1,0
256,192,166168,5,2
256,192,166543,5,0
256,192,166730,1,0
256,192,166918,5,2
256,192,167105,5,0
256,192,167293,1,0
256,192,167386,1,0
256,192,167480,1,0
256,192,167574,1,0
256,192,167668,5,2
256,192,167855,1,2
256,192,168043,5,0
256,192,168230,5,2
256,192,168418,1,2
256,192,168605,5,0
256,192,168886,1,0
256,192,168980,1,0
256,192,169168,5,2
256,192,169543,5,0
256,192,169824,1,0
256,192,169918,5,2
256,192,170105,5,0
256,192,170386,1,0
256,192,170480,1,0
256,192,170668,5,2
256,192,170855,5,0
256,192,171043,1,0
256,192,171230,5,2
256,192,171324,1,2
256,192,171418,1,2
256,192,171605,5,0
256,192,171793,1,0
256,192,171980,1,0
256,192,172168,5,2
256,192,172543,5,0
256,192,172730,5,2
256,192,172824,1,2
256,192,172918,1,2
256,192,173105,5,0
256,192,173293,1,0
256,192,173480,1,0
256,192,173668,5,2
256,192,174043,1,2
256,192,174230,5,0
256,192,174324,1,0
256,192,174418,5,2
256,192,174605,5,0
256,192,174793,5,2
256,192,174980,5,0
256,192,175168,5,2
256,192,175543,5,0
256,192,175730,1,0
256,192,175824,1,0
256,192,175918,5,2
256,192,176105,1,2
256,192,176199,5,0
256,192,176293,1,0
256,192,176480,1,0
256,192,176574,1,0
256,192,176668,5,2
256,192,176761,1,2
256,192,176855,1,2
256,192,176949,1,2
256,192,177043,5,0
256,192,177230,5,2
256,192,177418,1,2
256,192,177605,5,0
256,192,177886,1,0
256,192,177980,1,0
256,192,178168,5,2
256,192,178543,5,0
256,192,178730,5,2
256,192,178918,1,2
256,192,179105,5,0
256,192,179293,1,0
256,192,179386,5,2
256,192,179480,5,0
256,192,179574,1,0
256,192,179668,5,2
256,192,179855,1,2
256,192,180043,5,0
256,192,180230,5,2
256,192,180418,1,2
256,192,180605,5,0
256,192,180886,1,0
256,192,180980,1,0
256,192,181168,5,2
256,192,181543,5,0
256,192,181824,1,0
256,192,181918,5,2
256,192,182105,5,0
256,192,182386,1,0
256,192,182480,1,0
256,192,182668,5,2
256,192,182855,5,0
256,192,183043,1,0
256,192,183230,5,2
256,192,183324,1,2
256,192,183418,1,2
256,192,183605,5,0
256,192,183793,5,2
256,192,183980,5,0
256,192,184168,5,2
256,192,184543,5,0
256,192,184730,5,2
256,192,184824,1,2
256,192,184918,1,2
256,192,185105,5,0
256,192,185293,5,2
256,192,185480,5,0
256,192,185668,5,2
256,192,186043,1,2
256,192,186230,5,0
256,192,186324,1,0
256,192,186418,5,2
256,192,186605,5,0
256,192,186793,1,0
256,192,186980,1,0
256,192,187168,5,2
256,192,187543,5,0
256,192,187730,1,0
256,192,187824,1,0
256,192,187918,5,2
256,192,188105,1,2
256,192,188199,5,0
256,192,188293,1,0
256,192,188480,1,0
256,192,188574,1,0
256,192,188668,5,2
256,192,188761,1,2
256,192,188855,1,2
256,192,189043,5,4
256,192,189418,1,0
256,192,189793,5,2
256,192,190168,1,2
256,192,190355,5,0
256,192,190543,1,0
256,192,190730,5,2
256,192,190824,5,0
256,192,191011,5,2
256,192,191105,5,0
256,192,191293,5,2
256,192,191668,5,0
256,192,191855,1,0
256,192,192043,5,6
256,192,192418,5,0
256,192,192605,1,0
256,192,192793,5,2
256,192,193168,5,0
256,192,193355,5,2
256,192,193543,5,0
256,192,193730,5,2
256,192,193824,5,0
256,192,194011,1,0
256,192,194105,1,0
256,192,194293,5,2
256,192,194574,5,0
256,192,194668,1,0
256,192,194855,1,0
256,192,195043,5,6
256,192,195418,5,0
256,192,195793,5,2
256,192,196168,1,2
256,192,196355,5,0
256,192,196543,1,0
256,192,196730,5,2
256,192,196824,5,0
256,192,197011,5,2
256,192,197105,5,0
256,192,197293,5,2
256,192,197668,5,0
256,192,197855,1,0
256,192,198043,5,6
256,192,198418,5,0
256,192,198605,1,0
256,192,198793,5,2
256,192,199168,5,0
256,192,199355,5,2
256,192,199543,5,0
256,192,199730,5,2
256,192,199918,1,2
256,192,200105,1,2
256,192,200199,1,2
256,192,200293,5,0
256,192,200480,1,0
256,192,200574,5,2
256,192,200668,5,0
256,192,200761,1,0
256,192,200855,1,0
256,192,201043,1,4
256,192,201793,5,2
256,192,202074,1,2
256,192,202355,5,0
256,192,202543,5,2
256,192,202824,1,2
256,192,203105,5,0
256,192,203293,1,0
256,192,203668,5,2
256,192,204043,5,0
256,192,204324,5,2
256,192,204605,1,2
256,192,204793,5,0
256,192,205168,5,2
256,192,205355,1,2
256,192,205543,5,4
256,192,205824,1,4
256,192,206105,1,4
256,192,206293,1,4
256,192,206574,5,2
256,192,206855,1,2
256,192,207043,5,4
256,192,207230,5,2
256,192,207324,5,0
256,192,207418,5,2
256,192,207605,5,0
256,192,207699,5,2
256,192,207793,5,0
256,192,207886,1,0
256,192,207980,1,0
256,192,208168,5,2
256,192,208261,1,2
256,192,208355,5,0
256,192,208543,1,0
256,192,208730,5,2
256,192,208824,5,0
256,192,208918,5,2
256,192,209105,5,0
256,192,209199,5,2
256,192,209293,5,0
256,192,209386,1,0
256,192,209480,1,0
256,192,209668,5,2
256,192,209761,1,2
256,192,209855,5,0
256,192,210043,1,0
256,192,210136,1,0
256,192,210230,5,2
256,192,210324,5,0
256,192,210511,5,2
256,192,210605,5,0
256,192,210793,1,0
256,192,210886,5,2
256,192,211074,5,0
256,192,211168,5,2
256,192,211261,1,2
256,192,211355,5,0
256,192,211543,1,0
256,192,211636,1,0
256,192,211824,1,0
256,192,211918,5,2
256,192,212011,1,2
256,192,212105,5,0
256,192,212293,1,0
256,192,212480,1,0
256,192,212668,5,2
256,192,212761,1,2
256,192,212855,5,0
256,192,212949,1,0
256,192,213043,1,0
256,192,213324,1,0
256,192,213418,5,2
256,192,213605,5,0
256,192,213699,1,0
256,192,213793,1,0
256,192,213980,1,0
256,192,214074,1,0
256,192,214168,5,2
256,192,214261,5,0
256,192,214355,1,0
256,192,214543,5,2
256,192,214730,5,0
256,192,214824,1,0
256,192,214918,5,2
256,192,215105,5,0
256,192,215293,1,0
256,192,215386,1,0
256,192,215480,1,0
256,192,215574,1,0
256,192,215668,5,2
256,192,215855,1,2
256,192,215949,1,2
256,192,216043,5,0
256,192,216230,5,2
256,192,216324,5,0
256,192,216418,5,2
256,192,216605,5,0
256,192,216699,1,0
256,192,216793,5,2
256,192,216886,5,0
256,192,216980,1,0
256,192,217168,5,2
256,192,217261,5,0
256,192,217355,1,0
256,192,217449,5,2
256,192,217543,5,0
256,192,217730,5,2
256,192,217824,5,0
256,192,217918,5,2
256,192,218105,5,0
256,192,218199,1,0
256,192,218293,5,2
256,192,218386,5,0
256,192,218480,1,0
256,192,218668,5,2
256,192,218761,5,0
256,192,218855,1,0
256,192,219043,1,0
256,192,219230,5,2
256,192,219324,5,0
256,192,219418,5,2
256,192,219605,5,0
256,192,219699,5,2
256,192,219793,5,0
256,192,219886,1,0
256,192,219980,1,0
256,192,220168,5,2
256,192,220261,1,2
256,192,220355,5,0
256,192,220543,1,0
256,192,220730,5,2
256,192,220824,5,0
256,192,220918,5,2
256,192,221105,5,0
256,192,221199,5,2
256,192,221293,5,0
256,192,221386,1,0
256,192,221480,1,0
256,192,221668,5,2
256,192,221761,1,2
256,192,221855,5,0
256,192,222043,1,0
256,192,222136,1,0
256,192,222230,5,2
256,192,222324,5,0
256,192,222511,5,2
256,192,222605,5,0
256,192,222793,1,0
256,192,222886,5,2
256,192,223074,5,0
256,192,223168,5,2
256,192,223261,1,2
256,192,223355,5,0
256,192,223543,1,0
256,192,223636,1,0
256,192,223824,1,0
256,192,223918,5,2
256,192,224011,1,2
256,192,224105,5,0
256,192,224293,1,0
256,192,224480,1,0
256,192,224668,5,2
256,192,224761,1,2
256,192,224855,5,0
256,192,224949,1,0
256,192,225043,1,0
256,192,225230,1,0
256,192,225324,1,0
256,192,225418,5,2
256,192,225605,5,0
256,192,225699,1,0
256,192,225793,1,0
256,192,225980,1,0
256,192,226074,1,0
256,192,226168,5,2
256,192,226355,5,0
256,192,226543,1,0
256,192,226730,1,0
256,192,226824,1,0
256,192,226918,5,2
256,192,227105,5,0
256,192,227199,1,0
256,192,227293,1,0
256,192,227480,1,0
256,192,227574,1,0
256,192,227668,5,2
256,192,227761,1,2
256,192,227855,5,0
256,192,227949,5,2
256,192,228043,5,0
256,192,228230,1,0
256,192,228324,1,0
256,192,228418,5,2
256,192,228605,5,0
256,192,228699,1,0
256,192,228793,1,0
256,192,228980,1,0
256,192,229074,1,0
256,192,229168,5,2
256,192,229355,5,0
256,192,229543,1,0
256,192,229731,1,0
256,192,229825,1,0
256,192,229919,5,2
256,192,230106,5,0
256,192,230200,1,0
256,192,230294,1,0
256,192,230386,5,2
256,192,230480,5,0
256,192,230575,1,0
256,192,230669,5,2
256,192,230762,1,2
256,192,230856,5,0
256,192,230950,5,2
256,192,231044,5,0
256,192,231231,1,0
256,192,231419,5,2
256,192,231700,5,0
256,192,231794,1,0
256,192,231981,1,0
256,192,232074,1,0
256,192,232169,5,2
256,192,232544,5,0
256,192,232731,1,0
256,192,232919,5,2
256,192,233200,1,2
256,192,233294,5,0
256,192,233481,1,0
256,192,233575,1,0
256,192,233669,5,2
256,192,233856,5,0
256,192,234044,1,0
256,192,234231,1,0
256,192,234324,1,0
256,192,234419,5,2
256,192,234700,5,0
256,192,234794,1,0
256,192,234981,1,0
256,192,235074,1,0
256,192,235168,5,2
256,192,235355,5,0
256,192,235543,1,0
256,192,235636,1,0
256,192,235730,5,2
256,192,235824,1,2
256,192,235918,1,2
256,192,236011,1,2
256,192,236105,5,0
256,192,236293,1,0
256,192,236480,1,0
256,192,236668,1,4
256,192,236902,5,6
256,192,237043,12,0,241543
