osu file format v12

[General]
AudioFilename: VocalRock IOSYS.mp3
AudioLeadIn: 1000
PreviewTime: 46546
Countdown: 0
SampleSet: Soft
StackLeniency: 0.7
Mode: 0
LetterboxInBreaks: 1
WidescreenStoryboard: 0

[Editor]
Bookmarks: 169017,184458
DistanceSpacing: 0.8
BeatDivisor: 4
GridSize: 4

[Metadata]
Title:Kuoria
TitleUnicode:クオリア
Artist:Ichigo
ArtistUnicode:いちご
Creator:bigfrog
Version:Lunatic
Source:Touhou
Tags:IOSYS Flandre Scarlet void OnosakiHito
BeatmapID:263270
BeatmapSetID:87170

[Difficulty]
HPDrainRate:7
CircleSize:4
OverallDifficulty:7
ApproachRate:9
SliderMultiplier:1.8
SliderTickRate:2

[Events]
//Background and Video events
0,0,"Picture.jpg",0,0
//Break Periods
2,69334,71358
2,122981,130652
2,141158,144769
//Storyboard Layer 0 (Background)
//Storyboard Layer 1 (Fail)
//Storyboard Layer 2 (Pass)
//Storyboard Layer 3 (Foreground)
//Storyboard Sound Samples
//Background Colour Transformations
3,100,163,162,255

[TimingPoints]
1370,352.941176470588,4,2,1,40,1,0
23958,-100,4,2,3,45,0,0
34105,-100,4,2,1,50,0,0
46546,-100,4,2,1,70,0,1
55987,-100,4,2,1,50,0,1
56164,-100,4,2,1,70,0,1
57752,-100,4,2,1,70,0,0
57840,-100,4,2,1,70,0,1
67634,-100,4,2,1,5,0,1
67899,-100,4,2,1,70,0,1
67987,-100,4,2,1,5,0,1
68252,-100,4,2,1,70,0,1
68340,-100,4,2,1,5,0,1
68605,-100,4,2,1,70,0,1
68693,-100,4,2,1,5,0,1
69134,-100,4,2,1,50,0,0
74075,-100,4,3,1,50,0,0
74781,-100,4,2,1,50,0,0
97369,-100,4,2,1,70,0,1
106811,-100,4,2,1,50,0,1
106987,-100,4,2,1,70,0,1
108575,-100,4,2,1,70,0,0
108664,-100,4,2,1,70,0,1
122781,-100,4,2,1,50,0,0
145369,-100,4,2,1,40,0,0
155252,-100,4,2,1,60,0,0
156222,-100,4,3,1,60,0,0
156664,-100,4,2,1,70,0,1
177840,-100,4,2,1,50,0,0
207399,-100,4,2,1,70,0,0

[Colours]
Combo1 : 13,100,250
Combo2 : 6,255,80
Combo3 : 201,56,150
Combo4 : 228,145,18

[HitObjects]
140,192,1370,2,0,L|200:272,1,90
360,192,1722,2,0,L|308:116,1,90
228,80,2075,2,0,P|180:92|140:84,1,90,2|0,0:0|0:0,0:0:0:0:
228,80,2428,2,0,P|276:56|316:56,1,90
396,88,2781,6,0,B|444:104|464:160|464:160|432:232,1,180
388,312,3311,1,0,0:0:0:0:
244,204,3487,2,0,L|316:260,1,90,2|0,0:0|0:0,0:0:0:0:
136,232,3840,2,0,L|206:287,1,90
244,204,4193,5,0,0:0:0:0:
172,148,4369,1,0,0:0:0:0:
136,232,4546,1,0,0:0:0:0:
64,176,4722,1,0,0:0:0:0:
100,92,4899,2,0,P|184:60|256:108,1,180,2|0,0:0|0:0,0:0:0:0:
324,164,5428,1,0,0:0:0:0:
244,204,5605,6,0,P|316:248|400:216,1,180
452,144,6134,1,0,0:0:0:0:
408,320,6311,2,0,P|368:336|320:336,1,90,2|0,0:0|0:0,0:0:0:0:
152,312,6664,2,0,P|192:296|240:296,1,90
244,204,7017,5,0,0:0:0:0:
152,312,7193,1,0,0:0:0:0:
296,276,7369,1,0,0:0:0:0:
76,264,7546,1,0,0:0:0:0:
140,200,7722,2,0,L|196:128,1,90,2|0,0:0|0:0,0:0:0:0:
244,204,8075,2,0,L|297:276,1,90
364,336,8428,6,0,B|400:296|384:252|384:252|428:232|432:184,1,180
396,100,8958,1,0,0:0:0:0:
344,172,9134,2,0,L|290:99,1,90,2|0,0:0|0:0,0:0:0:0:
200,88,9487,2,0,L|128:144,1,90
76,216,9840,6,0,L|64:308,1,90
152,324,10193,2,0,L|224:380,1,90
276,304,10546,1,2,0:0:0:0:
336,236,10722,2,0,L|407:291,1,90
492,260,11075,1,0,0:0:0:0:
336,236,11252,6,0,P|404:172|404:80,1,180
324,60,11781,1,0,0:0:0:0:
304,148,11958,2,0,P|264:176|244:216,1,90,2|0,0:0|0:0,0:0:0:0:
204,292,12311,2,0,P|164:316|120:316,1,90
88,232,12664,6,0,L|116:140,1,90
52,80,13017,1,0,0:0:0:0:
52,80,13193,1,0,0:0:0:0:
200,180,13369,2,0,L|228:92,1,90,2|0,0:0|0:0,0:0:0:0:
144,60,13722,1,0,0:0:0:0:
144,60,13899,1,0,0:0:0:0:
308,132,14075,6,0,P|344:104|368:64,1,90
424,136,14428,2,0,P|446:173|482:201,1,90
408,252,14781,2,0,P|385:289|349:317,1,90,2|0,0:0|0:0,0:0:0:0:
292,248,15134,2,0,P|256:220|233:182,1,90
148,152,15487,5,0,0:0:0:0:
116,236,15664,2,0,P|164:312|236:368,1,180
400,296,16193,1,2,0:0:0:0:
384,208,16369,2,0,P|356:160|332:136,2,90
264,72,16899,6,0,P|304:48|348:44,1,90
176,100,17252,2,0,P|136:124|92:128,1,90
264,72,17605,2,0,P|304:96|348:100,1,90,2|0,0:0|0:0,0:0:0:0:
176,100,17958,2,0,P|136:76|92:72,1,90
28,240,18311,6,0,B|56:232|76:248|76:248|88:284|88:284|124:308|176:284,1,180
260,252,18840,1,0,0:0:0:0:
420,280,19017,2,0,L|344:228,1,90,2|0,0:0|0:0,0:0:0:0:
388,148,19369,2,0,L|425:172,2,45
312,100,19722,6,0,P|244:64|164:116,1,180,0|0,0:0|0:0,0:0:0:0:
132,200,20252,1,0,0:0:0:0:
164,284,20428,2,0,P|233:334|312:300,1,180,2|0,0:0|0:0,0:0:0:0:
256,192,21134,12,8,23605,0:0:0:0:
304,136,23958,6,0,L|372:204,1,90,4|0,0:0|0:0,0:0:0:0:
336,284,24311,1,0,0:0:0:0:
256,324,24487,1,0,0:0:0:0:
100,232,24664,2,0,P|112:320|184:372,1,180,8|0,0:0|0:0,0:0:0:0:
256,324,25193,1,0,0:0:0:0:
232,236,25369,2,0,L|168:172,1,90,0|0,0:0|0:0,0:0:0:0:
84,144,25722,2,0,P|116:104|152:84,1,90,8|0,0:0|0:0,0:0:0:0:
232,236,26075,2,0,L|296:172,1,90,8|0,0:0|0:0,0:0:0:0:
380,144,26428,2,0,P|348:104|312:84,1,90,8|0,0:0|0:0,0:0:0:0:
456,196,26781,6,0,P|436:264|352:328,1,180,8|8,0:0|0:0,0:0:0:0:
264,352,27311,1,0,0:0:0:0:
248,264,27487,2,0,P|296:248|320:216,1,90,8|0,0:0|0:0,0:0:0:0:
272,140,27840,2,0,P|228:156|200:188,1,90,8|0,0:0|0:0,0:0:0:0:
80,324,28193,2,0,P|20:244|22:167,1,180,8|8,0:0|0:0,0:0:0:0:
72,92,28722,1,0,0:0:0:0:
160,112,28899,2,0,L|188:204,1,90,8|0,0:0|0:0,0:0:0:0:
264,52,29252,2,0,L|256:144,1,90,8|0,0:0|0:0,0:0:0:0:
408,240,29605,5,8,0:0:0:0:
332,288,29781,1,0,0:0:0:0:
248,320,29958,2,0,P|200:320|160:304,1,90,8|0,0:0|0:0,0:0:0:0:
232,140,30311,2,0,P|304:92|392:104,1,180,8|8,0:0|0:0,0:0:0:0:
456,168,30840,1,0,0:0:0:0:
408,240,31017,6,0,P|420:288|412:332,1,90,8|0,0:0|0:0,0:0:0:0:
456,168,31369,2,0,P|444:120|450:80,1,90,8|0,0:0|0:0,0:0:0:0:
360,68,31722,1,8,0:0:0:0:
272,88,31899,1,0,0:0:0:0:
100,40,32075,1,8,0:0:0:0:
16,72,32252,1,0,0:0:0:0:
88,124,32428,6,0,L|44:208,2,90,0|0|8,0:0|0:0|0:0,0:0:0:0:
156,64,32958,1,0,0:0:0:0:
244,80,33134,2,0,L|332:112,2,90,8|0|8,0:0|0:0|0:0,0:0:0:0:
156,64,33664,1,0,0:0:0:0:
76,224,33840,2,0,P|168:240|252:220,1,180,8|8,0:0|0:0,0:0:0:0:
280,304,34369,1,0,0:0:0:0:
252,220,34546,1,8,0:0:0:0:
296,212,34634,1,8,0:0:0:0:
336,232,34722,1,0,0:0:0:0:
280,304,34899,2,0,P|324:324|368:320,1,90,8|0,0:0|0:0,0:0:0:0:
424,252,35252,5,4,0:0:0:0:
348,88,35605,2,0,L|256:112,1,90,8|0,0:0|0:0,0:0:0:0:
188,164,35958,1,0,0:0:0:0:
100,148,36134,1,0,0:0:0:0:
100,148,36222,1,0,0:0:0:0:
100,148,36311,2,0,L|8:172,1,90,8|0,0:0|0:0,0:0:0:0:
124,312,36664,2,0,P|172:304|208:284,1,90
296,268,36928,1,0,0:0:0:0:
296,268,37017,2,0,P|344:280|380:304,1,90,8|0,0:0|0:0,0:0:0:0:
464,276,37369,2,0,B|436:240|460:180|460:180|420:168|404:128,1,180,0|8,0:0|0:0,0:0:0:0:
488,96,37899,1,0,0:0:0:0:
404,128,38075,6,0,P|316:120|256:56,1,180,0|8,0:0|0:0,0:0:0:0:
168,80,38605,1,0,0:0:0:0:
80,64,38781,1,0,0:0:0:0:
80,64,38869,1,0,0:0:0:0:
80,64,38958,1,0,0:0:0:0:
32,140,39134,1,8,0:0:0:0:
120,160,39311,1,0,0:0:0:0:
56,224,39487,6,0,P|80:260|88:308,1,90
200,164,39840,2,0,P|176:120|168:80,1,90,8|0,0:0|0:0,0:0:0:0:
248,244,40193,2,0,P|280:276|300:320,1,90
396,164,40546,2,0,P|368:128|356:80,1,90,8|0,0:0|0:0,0:0:0:0:
448,88,40899,6,0,P|484:176|436:240,1,180,4|8,0:0|0:0,0:0:0:0:
372,300,41428,1,0,0:0:0:0:
288,332,41605,2,0,L|248:356,2,45
224,268,41958,2,0,L|176:272,2,45,8|0|0,0:0|0:0|0:0,0:0:0:0:
192,184,42311,2,0,P|144:168|116:136,2,90,0|0|8,0:0|0:0|0:0,0:0:0:0:
196,96,42840,1,0,0:0:0:0:
276,56,43017,2,0,P|284:96|272:144,2,90,0|0|8,0:0|0:0|0:0,0:0:0:0:
256,192,43722,12,8,44781,0:0:0:0:
68,240,45134,1,8,0:0:0:0:
36,208,45222,1,0,0:0:0:0:
24,164,45311,1,8,0:0:0:0:
32,120,45399,1,0,0:0:0:0:
64,88,45487,1,8,0:0:0:0:
108,88,45575,1,0,0:0:0:0:
144,116,45664,1,8,0:0:0:0:
172,152,45752,1,0,0:0:0:0:
184,196,45840,5,8,0:0:0:0:
196,240,45928,1,0,0:0:0:0:
216,280,46017,1,8,0:0:0:0:
244,316,46105,1,0,0:0:0:0:
288,328,46193,1,8,0:0:0:0:
328,308,46281,1,0,0:0:0:0:
348,268,46370,1,8,0:0:0:0:
344,224,46458,1,0,0:0:0:0:
324,184,46546,6,0,L|416:156,1,90,4|0,0:0|0:0,0:0:0:0:
496,188,46899,1,8,0:0:0:0:
488,100,47075,1,0,0:0:0:0:
432,28,47252,2,0,B|368:48|368:48|344:84|344:84|276:104,1,180,0|8,0:0|0:0,0:0:0:0:
188,88,47781,1,0,0:0:0:0:
108,248,47958,2,0,P|156:244|192:224,1,90,2|0,0:0|0:0,0:0:0:0:
268,272,48222,1,0,0:0:0:0:
268,272,48311,2,0,P|316:268|352:248,1,90,8|0,0:0|0:0,0:0:0:0:
448,96,48664,2,0,L|400:172,1,90
304,324,49017,2,0,L|352:248,1,90,8|0,0:0|0:0,0:0:0:0:
312,168,49369,6,0,P|224:120|236:44,1,180,2|8,0:0|0:0,0:0:0:0:
320,32,49899,1,0,0:0:0:0:
372,104,50075,2,0,P|348:144|312:168,1,90
232,208,50428,2,0,P|188:220|152:252,1,90,8|0,0:0|0:0,0:0:0:0:
308,260,50781,2,0,P|400:220|448:156,1,180,2|8,0:0|0:0,0:0:0:0:
372,104,51311,1,0,0:0:0:0:
196,68,51487,1,8,0:0:0:0:
196,68,51575,1,0,0:0:0:0:
196,68,51664,1,0,0:0:0:0:
372,104,51840,5,8,0:0:0:0:
400,140,51928,1,0,0:0:0:0:
412,184,52017,1,8,0:0:0:0:
404,228,52105,1,0,0:0:0:0:
376,264,52193,2,0,P|292:304|212:284,1,180,4|8,0:0|0:0,0:0:0:0:
128,320,52722,1,0,0:0:0:0:
136,232,52899,2,0,P|132:184|116:144,1,90
52,208,53252,2,0,P|96:232|136:232,1,90,8|0,0:0|0:0,0:0:0:0:
304,172,53605,6,0,P|284:264|208:288,1,180,2|8,0:0|0:0,0:0:0:0:
220,200,54134,1,0,0:0:0:0:
240,112,54311,2,0,P|280:88|324:84,1,90
304,172,54664,1,8,0:0:0:0:
388,144,54840,1,0,0:0:0:0:
388,144,54928,1,0,0:0:0:0:
388,144,55017,2,0,B|452:184|460:248|460:248|492:284,1,180,2|8,0:0|0:0,0:0:0:0:
432,352,55546,1,0,0:0:0:0:
380,280,55722,2,0,P|368:236|332:208,1,90
204,108,56075,2,0,P|216:152|252:180,1,90,12|0,0:0|0:0,0:0:0:0:
256,192,56428,12,0,57487,0:0:0:0:
256,88,57840,6,0,B|292:168|292:168|376:208,1,180,4|8,0:0|0:0,0:0:0:0:
408,292,58369,1,0,0:0:0:0:
336,348,58546,2,0,B|300:268|300:268|216:228,1,180,0|8,0:0|0:0,0:0:0:0:
152,292,59075,1,0,0:0:0:0:
64,312,59252,1,2,0:0:0:0:
152,292,59428,1,0,0:0:0:0:
152,292,59517,1,0,0:0:0:0:
152,292,59605,2,0,P|128:248|92:224,1,90,8|0,0:0|0:0,0:0:0:0:
8,244,59958,2,0,P|12:192|32:160,2,90,0|0|8,0:0|0:0|0:0,0:0:0:0:
176,172,60664,6,0,P|208:204|252:220,1,90,2|0,0:0|0:0,0:0:0:0:
336,196,60928,1,0,0:0:0:0:
336,196,61017,2,0,P|377:180|409:148,1,90,8|0,0:0|0:0,0:0:0:0:
328,108,61369,2,0,P|376:180|388:272,1,180,0|8,0:0|0:0,0:0:0:0:
296,276,61899,1,0,0:0:0:0:
116,260,62075,2,0,P|116:308|136:344,1,90,2|0,0:0|0:0,0:0:0:0:
48,200,62428,2,0,P|48:152|28:116,1,90,8|0,0:0|0:0,0:0:0:0:
200,64,62780,1,8,0:0:0:0:
200,64,62869,1,8,0:0:0:0:
200,64,62958,1,0,0:0:0:0:
28,116,63134,5,8,0:0:0:0:
48,156,63222,1,0,0:0:0:0:
80,188,63311,1,8,0:0:0:0:
120,208,63399,1,0,0:0:0:0:
164,216,63487,2,0,B|256:252|256:176|344:208,1,180,4|8,0:0|0:0,0:0:0:0:
416,252,64017,1,0,0:0:0:0:
308,120,64193,2,0,P|272:88|232:76,1,90
144,92,64546,2,0,P|108:120|84:160,1,90,8|0,0:0|0:0,0:0:0:0:
52,244,64899,5,2,0:0:0:0:
144,92,65075,1,0,0:0:0:0:
200,264,65252,1,8,0:0:0:0:
72,136,65428,1,0,0:0:0:0:
200,264,65605,2,0,P|236:292|280:304,1,90
304,216,65958,2,0,P|338:189|382:177,1,90,8|0,0:0|0:0,0:0:0:0:
376,268,66311,2,0,P|452:232|464:140,1,180,2|8,0:0|0:0,0:0:0:0:
396,88,66840,1,0,0:0:0:0:
312,56,67017,1,0,0:0:0:0:
232,96,67193,1,8,0:0:0:0:
232,96,67281,1,8,0:0:0:0:
232,96,67369,1,8,0:0:0:0:
164,160,67546,6,0,L|91:106,1,90,8|0,0:0|0:0,0:0:0:0:
136,248,67899,2,0,L|212:304,1,90,8|0,0:0|0:0,0:0:0:0:
308,162,68252,2,0,L|236:216,1,90,8|0,0:0|0:0,0:0:0:0:
364,232,68605,2,0,L|436:178,1,90,8|0,0:0|0:0,0:0:0:0:
256,192,69134,5,4,0:0:0:0:
256,192,71958,12,0,74075,0:0:0:0:
232,292,74252,5,8,0:0:0:0:
148,324,74428,1,8,0:0:0:0:
60,304,74605,1,4,0:0:0:0:
8,232,74781,6,0,P|40:204|56:160,1,90,4|0,0:0|0:0,0:0:0:0:
76,72,75134,1,8,0:0:0:0:
76,72,75311,1,0,0:0:0:0:
56,160,75487,2,0,P|140:136|164:52,1,180,0|8,0:0|0:0,0:0:0:0:
232,116,76017,1,0,0:0:0:0:
56,160,76193,6,0,P|108:240|192:240,1,180,0|8,0:0|0:0,0:0:0:0:
256,300,76722,1,0,0:0:0:0:
336,344,76899,2,0,L|380:368,2,45
332,252,77252,2,0,L|404:196,1,90,8|0,0:0|0:0,0:0:0:0:
272,72,77605,5,0,0:0:0:0:
196,120,77781,1,0,0:0:0:0:
108,96,77958,2,0,L|68:184,1,90,8|0,0:0|0:0,0:0:0:0:
20,104,78311,1,0,0:0:0:0:
108,96,78487,2,0,L|196:72,2,90,0|8|0,0:0|0:0|0:0,0:0:0:0:
264,132,79017,2,0,L|352:108,1,90
228,216,79369,2,0,L|141:239,1,90,8|0,0:0|0:0,0:0:0:0:
108,324,79722,1,0,0:0:0:0:
196,312,79899,1,0,0:0:0:0:
196,312,79987,1,0,0:0:0:0:
196,312,80075,2,0,L|282:288,1,90,8|0,0:0|0:0,0:0:0:0:
448,208,80428,6,0,B|416:156|416:156|364:132|364:132|332:80,1,180,0|8,0:0|0:0,0:0:0:0:
244,56,80958,1,0,0:0:0:0:
264,144,81134,2,0,P|216:140|180:120,1,90
92,96,81487,2,0,B|52:124|52:124|32:160,1,90,8|0,0:0|0:0,0:0:0:0:
204,212,81840,6,0,P|304:224|352:168,1,180,0|8,0:0|0:0,0:0:0:0:
440,180,82369,1,0,0:0:0:0:
320,316,82546,2,0,P|272:324|232:320,1,90
60,280,82899,2,0,B|104:272|104:272|148:284,1,90,8|0,0:0|0:0,0:0:0:0:
160,104,83252,5,0,0:0:0:0:
240,64,83428,1,0,0:0:0:0:
240,64,83517,1,0,0:0:0:0:
240,64,83605,1,8,0:0:0:0:
316,112,83781,1,0,0:0:0:0:
448,192,83958,1,0,0:0:0:0:
372,240,84134,1,0,0:0:0:0:
372,240,84222,1,0,0:0:0:0:
372,240,84311,1,8,0:0:0:0:
292,200,84487,1,0,0:0:0:0:
216,248,84664,6,0,P|176:268|132:276,1,90
52,236,85017,1,8,0:0:0:0:
128,188,85193,2,0,P|163:167|211:159,1,90
292,200,85546,1,0,0:0:0:0:
372,240,85722,2,0,L|412:260,2,45,8|0|0,0:0|0:0|0:0,0:0:0:0:
216,148,86075,6,0,L|160:76,1,90,4|0,0:0|0:0,0:0:0:0:
96,140,86428,2,0,L|8:96,1,90,8|0,0:0|0:0,0:0:0:0:
152,216,86781,2,0,B|180:272|236:264|236:264|256:304|232:336,1,180,0|8,0:0|0:0,0:0:0:0:
144,336,87311,1,0,0:0:0:0:
324,336,87487,2,0,P|276:332|232:336,1,90
384,268,87840,2,0,P|428:280|472:272,1,90,8|0,0:0|0:0,0:0:0:0:
308,216,88193,2,0,P|264:200|224:216,1,90
384,168,88546,2,0,P|424:188|460:168,1,90,8|0,0:0|0:0,0:0:0:0:
304,128,88899,5,0,0:0:0:0:
220,96,89075,2,0,L|160:76,2,45,0|0|8,0:0|0:0|0:0,0:0:0:0:
164,168,89428,2,0,L|72:136,1,90
72,228,89781,2,0,L|114:243,2,45,0|0|8,0:0|0:0|0:0,0:0:0:0:
80,140,90134,1,0,0:0:0:0:
248,208,90311,6,0,P|264:285|340:345,1,180,0|8,0:0|0:0,0:0:0:0:
428,320,90840,1,0,0:0:0:0:
488,252,91017,2,0,P|471:174|395:114,1,180,0|8,0:0|0:0,0:0:0:0:
308,140,91546,1,0,0:0:0:0:
180,264,91722,6,0,L|256:312,1,90
308,140,92075,2,0,L|232:92,1,90,8|0,0:0|0:0,0:0:0:0:
216,180,92428,2,0,L|292:228,1,90
344,56,92781,2,0,L|268:8,1,90,8|0,0:0|0:0,0:0:0:0:
180,32,93134,2,0,P|104:72|88:160,1,180,0|8,0:0|0:0,0:0:0:0:
24,224,93664,1,0,0:0:0:0:
172,124,93840,2,0,P|212:136|240:176,1,90
268,260,94193,2,0,P|288:300|328:316,1,90,8|0,0:0|0:0,0:0:0:0:
256,192,94546,12,8,95605,0:0:0:0:
380,108,95958,5,0,0:0:0:0:
352,144,96046,1,0,0:0:0:0:
308,152,96134,1,8,0:0:0:0:
264,144,96222,1,0,0:0:0:0:
236,108,96311,1,0,0:0:0:0:
244,64,96399,1,0,0:0:0:0:
280,36,96487,1,8,0:0:0:0:
324,28,96575,1,0,0:0:0:0:
368,36,96664,5,8,0:0:0:0:
400,68,96752,1,0,0:0:0:0:
428,104,96840,1,8,0:0:0:0:
448,144,96928,1,0,0:0:0:0:
456,188,97017,1,8,0:0:0:0:
448,232,97105,1,0,0:0:0:0:
416,264,97193,1,8,0:0:0:0:
372,272,97281,1,0,0:0:0:0:
328,264,97369,6,0,P|284:256|248:228,1,90,4|0,0:0|0:0,0:0:0:0:
164,260,97722,1,8,0:0:0:0:
80,224,97899,1,0,0:0:0:0:
92,136,98075,2,0,P|184:148|256:96,1,180,0|8,0:0|0:0,0:0:0:0:
304,28,98605,1,0,0:0:0:0:
340,112,98781,2,0,L|380:132,2,45,2|0|0,0:0|0:0|0:0,0:0:0:0:
496,80,99134,2,0,L|464:120,2,45,8|0|0,0:0|0:0|0:0,0:0:0:0:
388,224,99487,2,0,P|424:252|468:256,1,90
304,260,99840,2,0,P|288:300|248:332,1,90,8|0,0:0|0:0,0:0:0:0:
272,172,100193,6,0,P|180:160|104:196,1,180,2|8,0:0|0:0,0:0:0:0:
32,252,100722,1,0,0:0:0:0:
104,196,100899,2,0,L|140:284,1,90
272,172,101252,2,0,L|236:89,1,90,8|0,0:0|0:0,0:0:0:0:
320,56,101605,6,0,B|356:68|372:96|372:96|396:88|396:88|432:116|424:168,1,180,2|8,0:0|0:0,0:0:0:0:
408,256,102134,1,0,0:0:0:0:
240,324,102311,1,8,0:0:0:0:
240,324,102399,1,0,0:0:0:0:
240,324,102487,1,0,0:0:0:0:
408,256,102664,2,0,L|364:276,1,45,8|0,0:0|0:0,0:0:0:0:
316,200,102840,2,0,L|276:224,1,45,8|0,0:0|0:0,0:0:0:0:
232,224,103017,6,0,P|168:168|176:80,1,180,4|8,0:0|0:0,0:0:0:0:
252,132,103546,1,0,0:0:0:0:
300,56,103722,2,0,P|332:92|340:136,1,90
424,168,104075,2,0,L|408:256,1,90,8|0,0:0|0:0,0:0:0:0:
320,240,104428,1,2,0:0:0:0:
216,344,104605,2,0,L|232:256,2,90,0|8|0,0:0|0:0|0:0,0:0:0:0:
128,364,105134,2,0,P|88:340|72:300,1,90
144,252,105487,2,0,B|148:200|112:172,1,90,8|0,0:0|0:0,0:0:0:0:
232,256,105840,6,0,P|296:324|376:312,1,180,2|8,0:0|0:0,0:0:0:0:
436,248,106369,1,0,0:0:0:0:
372,184,106546,2,0,L|304:116,2,90,0|0|12,0:0|0:0|0:0,0:0:0:0:
436,248,107075,1,0,0:0:0:0:
256,192,107252,12,8,108311,0:0:0:0:
356,56,108664,6,0,P|368:144|448:180,1,180,4|8,0:0|0:0,0:0:0:0:
436,88,109193,1,0,0:0:0:0:
368,144,109369,2,0,P|352:188|320:216,1,90
228,216,109722,2,0,P|192:184|180:144,1,90,8|0,0:0|0:0,0:0:0:0:
84,296,110075,1,2,0:0:0:0:
176,292,110252,1,0,0:0:0:0:
176,292,110340,1,0,0:0:0:0:
176,292,110428,1,8,0:0:0:0:
228,216,110605,1,0,0:0:0:0:
144,176,110781,2,0,P|76:164|136:136,1,180,0|8,0:0|0:0,0:0:0:0:
316,128,111487,6,0,P|356:96|396:88,1,90,2|0,0:0|0:0,0:0:0:0:
468,140,111752,1,0,0:0:0:0:
468,140,111840,2,8,P|428:172|390:179,1,90,8|0,0:0|0:0,0:0:0:0:
320,236,112193,2,0,P|380:292|476:308,1,180,0|8,0:0|0:0,0:0:0:0:
260,164,112899,2,0,P|200:108|104:92,1,180,2|8,0:0|0:0,0:0:0:0:
44,156,113428,1,0,0:0:0:0:
64,244,113605,1,8,0:0:0:0:
64,244,113693,1,8,0:0:0:0:
64,244,113781,1,0,0:0:0:0:
220,336,113958,5,8,0:0:0:0:
220,336,114046,1,0,0:0:0:0:
264,328,114133,1,8,0:0:0:0:
264,328,114222,1,0,0:0:0:0:
296,296,114311,2,0,B|376:256|376:256|400:292|456:296,1,180,4|8,0:0|0:0,0:0:0:0:
448,208,114840,1,0,0:0:0:0:
384,144,115017,2,0,L|305:188,1,90
177,155,115369,2,0,L|256:112,1,90,8|0,0:0|0:0,0:0:0:0:
316,272,115722,6,0,B|252:268|216:236|216:236|184:252|144:240,1,180,2|8,0:0|0:0,0:0:0:0:
100,164,116252,1,0,0:0:0:0:
168,104,116428,1,0,0:0:0:0:
80,80,116605,1,0,0:0:0:0:
168,104,116781,2,0,P|216:116|256:112,1,90,8|0,0:0|0:0,0:0:0:0:
216,32,117134,2,0,P|296:32|348:108,1,180,2|8,0:0|0:0,0:0:0:0:
412,172,117664,1,0,0:0:0:0:
440,256,117840,1,0,0:0:0:0:
352,240,118017,1,8,0:0:0:0:
352,240,118105,1,8,0:0:0:0:
352,240,118193,1,0,0:0:0:0:
172,256,118369,6,0,L|188:168,1,90,8|0,0:0|0:0,0:0:0:0:
84,72,118722,2,0,L|100:160,1,90,8|0,0:0|0:0,0:0:0:0:
280,180,119075,2,0,L|264:92,1,90,8|0,0:0|0:0,0:0:0:0:
368,208,119428,2,0,L|352:296,1,90,8|0,0:0|0:0,0:0:0:0:
256,144,119781,5,4,0:0:0:0:
256,192,119958,12,4,122781,0:0:0:0:
172,64,131252,6,0,P|256:40|344:64,1,180,4|0,0:0|0:0,0:0:0:0:
392,140,131781,1,0,0:0:0:0:
360,224,131958,2,0,P|348:260|316:304,2,90,8|0|8,0:0|0:0|0:0,0:0:0:0:
304,152,132487,2,0,P|216:176|132:152,1,180,4|0,0:0|0:0,0:0:0:0:
68,88,133017,1,0,0:0:0:0:
136,252,133369,6,0,P|204:268|272:260,2,135,8|8|8,0:0|0:0|0:0,0:0:0:0:
88,176,134075,1,4,0:0:0:0:
448,148,134428,2,0,L|456:192,1,45
456,236,134605,2,0,L|444:284,1,45
408,304,134781,2,0,P|372:324|320:332,1,90,8|0,0:0|0:0,0:0:0:0:
236,308,135134,1,8,0:0:0:0:
364,180,135311,1,4,0:0:0:0:
364,180,135664,1,0,0:0:0:0:
304,112,135840,2,0,L|216:96,1,90,8|0,0:0|0:0,0:0:0:0:
172,176,136193,6,0,L|36:152,2,135,8|0|0,0:0|0:0|0:0,0:0:0:0:
216,96,136899,1,4,0:0:0:0:
124,252,137252,2,0,L|212:268,2,90,0|0|8,0:0|0:0|0:0,0:0:0:0:
216,96,137958,2,0,L|304:80,1,90,8|4,0:0|0:0,0:0:0:0:
396,236,138487,2,0,L|308:252,2,90
304,80,139017,1,8,0:0:0:0:
216,236,139369,1,0,0:0:0:0:
396,236,139722,1,4,0:0:0:0:
216,236,140075,6,0,L|248:184,2,60
156,232,140428,2,0,L|120:280,2,60,8|0|0,0:0|0:0|0:0,0:0:0:0:
124,180,140781,1,8,0:0:0:0:
152,144,140870,1,0,0:0:0:0:
176,108,140958,1,4,0:0:0:0:
60,168,145369,6,0,P|68:212|96:252,1,90
148,176,145722,2,0,P|144:124|156:84,1,90
244,72,146075,2,0,P|284:48|328:44,2,90,2|0|0,0:0|0:0|0:0,0:0:0:0:
244,164,146605,2,0,B|272:264|372:280,1,180
452,244,147134,2,0,L|508:172,1,90
376,192,147487,2,0,L|436:116,2,90,2|0|0,0:0|0:0|0:0,0:0:0:0:
192,192,148193,6,0,P|216:276|172:352,1,180
84,328,148722,1,0,0:0:0:0:
120,244,148899,2,0,P|192:292|280:276,1,180,2|0,0:0|0:0,0:0:0:0:
348,336,149428,1,0,0:0:0:0:
280,276,149605,2,0,P|320:252|364:248,1,90
440,200,149958,2,0,P|460:156|492:132,1,90
332,208,150311,2,0,P|312:252|280:276,1,90,2|0,0:0|0:0,0:0:0:0:
188,276,150664,2,0,P|156:252|136:208,1,90
224,196,151017,6,0,P|136:208|56:168,1,180
40,80,151546,1,0,0:0:0:0:
224,196,151722,2,0,L|176:104,1,90,2|0,0:0|0:0,0:0:0:0:
312,196,152075,2,0,L|356:112,1,90
444,116,152428,2,0,L|485:195,1,90
400,224,152781,2,0,P|332:284|248:260,1,180,0|2,0:0|0:0,0:0:0:0:
72,288,153487,5,0,0:0:0:0:
28,208,153664,1,0,0:0:0:0:
68,128,153840,2,0,P|104:96|148:88,1,90
232,68,154193,2,0,P|272:96|316:96,1,90
336,184,154546,1,2,0:0:0:0:
424,200,154722,2,0,P|424:248|452:284,2,90
336,184,155252,2,0,L|296:104,1,90
212,264,155605,2,0,L|140:208,1,90
52,216,155958,5,0,0:0:0:0:
56,116,156134,1,8,0:0:0:0:
148,44,156311,1,2,0:0:0:0:
280,72,156487,1,4,0:0:0:0:
344,240,156664,6,0,P|320:284|288:312,1,90,4|0,0:0|0:0,0:0:0:0:
212,264,157017,2,0,P|176:288|128:296,1,90,8|0,0:0|0:0,0:0:0:0:
268,188,157369,2,0,P|344:152|424:196,1,180,0|8,0:0|0:0,0:0:0:0:
488,132,157899,1,0,0:0:0:0:
416,76,158075,2,0,P|368:64|328:64,1,90,2|0,0:0|0:0,0:0:0:0:
236,64,158340,1,0,0:0:0:0:
236,64,158428,2,0,P|188:64|148:76,1,90,8|0,0:0|0:0,0:0:0:0:
80,132,158781,2,0,B|60:176|104:208|104:208|144:236|128:296,1,180,0|8,0:0|0:0,0:0:0:0:
308,268,159487,6,0,P|308:220|288:184,1,90,2|0,0:0|0:0,0:0:0:0:
356,124,159752,1,0,0:0:0:0:
356,124,159840,2,0,P|360:80|384:40,1,90,8|0,0:0|0:0,0:0:0:0:
444,108,160193,1,0,0:0:0:0:
356,124,160369,2,0,P|380:172|408:192,2,90,0|8|0,0:0|0:0|0:0,0:0:0:0:
444,108,160899,2,0,P|496:184|468:264,1,180,2|8,0:0|0:0,0:0:0:0:
388,300,161428,1,0,0:0:0:0:
356,124,161605,1,8,0:0:0:0:
356,124,161693,1,8,0:0:0:0:
356,124,161781,1,0,0:0:0:0:
388,300,161958,5,8,0:0:0:0:
344,300,162046,1,0,0:0:0:0:
300,288,162134,1,8,0:0:0:0:
260,268,162222,1,0,0:0:0:0:
228,236,162311,2,0,B|196:232|172:208|172:208|152:148|80:148,1,180,4|8,0:0|0:0,0:0:0:0:
88,236,162840,1,0,0:0:0:0:
168,80,163017,6,0,P|208:104|236:140,1,90
312,184,163369,1,8,0:0:0:0:
320,92,163546,1,0,0:0:0:0:
392,144,163722,2,0,P|432:168|460:204,1,90,2|0,0:0|0:0,0:0:0:0:
380,248,164075,1,8,0:0:0:0:
372,340,164252,1,0,0:0:0:0:
284,360,164428,2,0,P|244:336|217:302,1,90
140,256,164781,6,0,P|168:224|184:176,1,90,8|0,0:0|0:0,0:0:0:0:
92,180,165134,1,2,0:0:0:0:
216,304,165311,1,0,0:0:0:0:
52,260,165487,1,8,0:0:0:0:
220,212,165664,1,0,0:0:0:0:
300,172,165840,2,0,B|340:148|340:148|384:144,1,90
368,232,166193,2,0,L|416:228,2,45,8|0|0,0:0|0:0|0:0,0:0:0:0:
244,100,166546,2,0,B|204:76|204:76|160:72,1,90,2|0,0:0|0:0,0:0:0:0:
176,160,166899,2,0,L|131:163,2,45,8|0|0,0:0|0:0|0:0,0:0:0:0:
84,316,167252,1,8,0:0:0:0:
84,316,167340,1,8,0:0:0:0:
84,316,167428,1,0,0:0:0:0:
176,160,167605,5,8,0:0:0:0:
216,180,167693,1,0,0:0:0:0:
260,168,167781,1,8,0:0:0:0:
300,188,167869,1,0,0:0:0:0:
340,168,167958,2,0,P|404:216|400:308,1,180,4|8,0:0|0:0,0:0:0:0:
484,344,168487,1,0,0:0:0:0:
400,308,168664,2,0,P|356:300|312:316,1,90
136,308,169017,2,0,P|180:300|224:316,1,90,8|0,0:0|0:0,0:0:0:0:
64,252,169369,2,0,L|100:164,1,90,2|0,0:0|0:0,0:0:0:0:
156,100,169634,1,0,0:0:0:0:
156,100,169722,2,0,L|232:52,1,90,8|0,0:0|0:0,0:0:0:0:
156,100,170075,2,0,P|184:128|232:144,1,90
308,100,170428,2,0,P|352:128|372:160,1,90,8|0,0:0|0:0,0:0:0:0:
228,268,170781,6,0,P|320:292|392:252,1,180,4|8,0:0|0:0,0:0:0:0:
372,160,171311,1,0,0:0:0:0:
292,204,171487,1,0,0:0:0:0:
228,268,171664,1,8,0:0:0:0:
228,268,171752,1,8,0:0:0:0:
228,268,171840,1,0,0:0:0:0:
64,192,172017,6,0,L|128:116,1,90,8|0,0:0|0:0,0:0:0:0:
228,268,172369,2,0,L|170:337,1,90,8|0,0:0|0:0,0:0:0:0:
228,268,172722,2,0,L|288:340,1,90,8|0,0:0|0:0,0:0:0:0:
388,188,173075,2,0,L|330:118,1,90,8|0,0:0|0:0,0:0:0:0:
228,268,173428,5,4,0:0:0:0:
256,192,173605,12,4,177841,0:0:0:0:
108,192,178017,5,0,0:0:0:0:
168,260,178193,2,0,L|244:312,1,90,8|0,0:0|0:0,0:0:0:0:
332,300,178546,1,8,0:0:0:0:
332,300,178634,1,8,0:0:0:0:
332,300,178722,1,0,0:0:0:0:
368,96,178899,5,8,0:0:0:0:
324,92,178987,1,0,0:0:0:0:
280,88,179075,1,8,0:0:0:0:
236,84,179164,1,0,0:0:0:0:
192,84,179252,2,0,B|108:76|108:76|76:28|16:36,1,180,4|8,0:0|0:0,0:0:0:0:
32,124,179781,1,0,0:0:0:0:
64,208,179958,2,0,P|76:252|96:292,2,90,0|0|8,0:0|0:0|0:0,0:0:0:0:
140,156,180487,2,0,P|192:204|296:232,1,180
336,152,181017,1,8,0:0:0:0:
284,324,181193,2,0,P|376:324|456:284,1,180
408,208,181722,2,0,L|336:152,1,90,8|0,0:0|0:0,0:0:0:0:
243,152,182075,6,0,L|172:208,2,90,0|0|8,0:0|0:0|0:0,0:0:0:0:
416,104,182781,2,0,L|488:160,2,90,0|0|8,0:0|0:0|0:0,0:0:0:0:
336,60,183311,1,0,0:0:0:0:
248,64,183487,5,8,0:0:0:0:
204,72,183575,1,0,0:0:0:0:
168,100,183664,1,8,0:0:0:0:
148,140,183752,1,0,0:0:0:0:
152,184,183840,1,8,0:0:0:0:
172,224,183928,1,0,0:0:0:0:
208,252,184017,1,8,0:0:0:0:
252,264,184105,1,0,0:0:0:0:
296,272,184193,2,0,P|340:292|364:328,2,90,0|0|8,0:0|0:0|0:0,0:0:0:0:
344,196,184722,5,0,0:0:0:0:
296,272,184899,1,4,0:0:0:0:
236,340,185075,2,0,P|184:352|144:344,2,90,0|8|0,0:0|0:0|0:0,0:0:0:0:
296,272,185605,2,0,P|384:248|468:272,1,180,0|8,0:0|0:0,0:0:0:0:
316,172,186134,2,0,P|280:148|232:140,1,90
152,180,186487,2,0,P|124:212|80:232,1,90,0|8,0:0|0:0,0:0:0:0:
132,96,186840,1,0,0:0:0:0:
80,232,187017,1,0,0:0:0:0:
96,320,187193,1,0,0:0:0:0:
96,320,187369,2,0,P|136:336|184:336,1,90,8|0,0:0|0:0,0:0:0:0:
268,304,187722,6,0,P|356:280|400:196,1,180,0|8,0:0|0:0,0:0:0:0:
424,120,188252,1,0,0:0:0:0:
352,68,188428,2,0,P|308:92|284:124,2,90,0|0|8,0:0|0:0|0:0,0:0:0:0:
204,88,188958,2,0,P|164:160|76:192,1,180
24,116,189487,1,8,0:0:0:0:
204,88,189664,2,0,P|220:124|256:160,1,90,0|8,0:0|0:0,0:0:0:0:
328,108,189928,1,0,0:0:0:0:
328,108,190017,2,0,P|360:140|376:184,2,90,0|0|0,0:0|0:0|0:0,0:0:0:0:
256,160,190546,6,0,L|232:248,1,90,4|0,0:0|0:0,0:0:0:0:
68,320,190899,2,0,L|91:233,1,90,8|0,0:0|0:0,0:0:0:0:
256,160,191252,2,0,B|232:248|232:248|280:264|296:308,1,180,0|8,0:0|0:0,0:0:0:0:
212,336,191781,2,0,P|252:316|304:304,1,90
376,348,192134,2,0,P|420:336|460:312,1,90,0|8,0:0|0:0,0:0:0:0:
464,224,192487,1,0,0:0:0:0:
444,136,192664,2,0,P|380:76|288:64,1,180,0|8,0:0|0:0,0:0:0:0:
204,80,193193,1,0,0:0:0:0:
60,188,193369,6,0,P|124:248|212:260,1,180,0|8,0:0|0:0,0:0:0:0:
276,324,193899,1,0,0:0:0:0:
364,340,194075,1,0,0:0:0:0:
448,304,194252,1,0,0:0:0:0:
480,272,194340,1,8,0:0:0:0:
500,232,194428,1,8,0:0:0:0:
368,108,194605,6,0,L|292:184,1,90,8|0,0:0|0:0,0:0:0:0:
124,184,194958,2,0,L|187:120,1,90,8|0,0:0|0:0,0:0:0:0:
364,152,195311,2,0,L|300:215,1,90,8|0,0:0|0:0,0:0:0:0:
120,228,195664,2,0,L|183:164,1,90,8|0,0:0|0:0,0:0:0:0:
256,192,196899,5,4,0:0:0:0:
256,192,197075,12,0,199369,0:0:0:0:
256,192,199546,12,0,203075,0:0:0:0:
256,192,203428,12,4,207487,0:0:0:0:
