osu file format v12

[General]
AudioFilename: VocalRock IOSYS.mp3
AudioLeadIn: 1000
PreviewTime: 46546
Countdown: 0
SampleSet: Soft
StackLeniency: 0.7
Mode: 0
LetterboxInBreaks: 1
WidescreenStoryboard: 0

[Editor]
DistanceSpacing: 0.8
BeatDivisor: 4
GridSize: 4

[Metadata]
Title:Kuoria
TitleUnicode:クオリア
Artist:Ichigo
ArtistUnicode:いちご
Creator:bigfrog
Version:Hard
Source:Touhou
Tags:IOSYS Flandre Scarlet void OnosakiHito
BeatmapID:263269
BeatmapSetID:87170

[Difficulty]
HPDrainRate:6
CircleSize:4
OverallDifficulty:6
ApproachRate:7
SliderMultiplier:1.4
SliderTickRate:2

[Events]
//Background and Video events
0,0,"Picture.jpg",0,0
//Break Periods
2,69334,71058
2,122981,130352
2,141157,144469
//Storyboard Layer 0 (Background)
//Storyboard Layer 1 (Fail)
//Storyboard Layer 2 (Pass)
//Storyboard Layer 3 (Foreground)
//Storyboard Sound Samples
//Background Colour Transformations
3,100,163,162,255

[TimingPoints]
1370,352.941176470588,4,2,1,40,1,0
23958,-100,4,2,3,45,0,0
34105,-100,4,2,1,50,0,0
46546,-100,4,2,1,70,0,1
55987,-100,4,2,1,50,0,1
56164,-100,4,2,1,70,0,1
57752,-100,4,2,1,70,0,0
57840,-100,4,2,1,70,0,1
69134,-100,4,2,1,50,0,0
97369,-100,4,2,1,70,0,1
106811,-100,4,2,1,50,0,1
106987,-100,4,2,1,70,0,1
108575,-100,4,2,1,70,0,0
108664,-100,4,2,1,70,0,1
122781,-100,4,2,1,50,0,0
145369,-100,4,2,1,40,0,0
155252,-100,4,2,1,60,0,0
156664,-100,4,2,1,70,0,1
177840,-100,4,2,1,50,0,0
189752,-100,4,2,2,50,0,0
189928,-100,4,2,1,50,0,0
207399,-100,4,2,1,70,0,0

[Colours]
Combo1 : 13,100,250
Combo2 : 6,255,80
Combo3 : 201,56,150
Combo4 : 228,145,18

[HitObjects]
96,136,1370,2,0,P|88:168|100:204,1,70
160,236,1722,2,0,P|168:268|156:304,1,70,0|0,0:0|0:0,0:0:0:0:
220,332,2075,2,0,P|284:352|356:332,1,140,2|0,0:0|0:0,0:0:0:0:
352,192,2781,2,0,P|279:174|216:196,1,140
136,308,3487,2,0,L|200:340,1,70,2|0,0:0|0:0,0:0:0:0:
268,328,3840,2,0,L|308:268,1,70
320,200,4193,6,0,L|257:168,1,70
188,176,4546,2,0,P|120:200|52:200,1,140,0|2,0:0|0:0,0:0:0:0:
24,136,5075,1,0,0:0:0:0:
60,76,5252,2,0,P|136:52|200:52,1,140
336,68,5958,6,0,L|368:136,1,70
400,192,6311,1,2,0:0:0:0:
464,316,6664,2,0,L|432:252,1,70
400,192,7017,6,0,B|332:200|332:200|276:248,1,140
232,300,7546,1,0,0:0:0:0:
172,264,7722,2,0,B|117:217|117:217|49:209,1,140,2|0,0:0|0:0,0:0:0:0:
36,140,8252,1,0,0:0:0:0:
72,80,8428,2,0,P|104:88|140:80,1,70
204,108,8781,2,0,P|272:100|316:152,1,140,0|2,0:0|0:0,0:0:0:0:
424,236,9487,1,0,0:0:0:0:
316,324,9840,6,0,P|248:320|212:264,1,140
324,184,10546,2,0,P|280:123|220:123,1,140,2|0,0:0|0:0,0:0:0:0:
212,264,11252,2,0,L|136:264,1,70
92,216,11605,2,0,L|20:216,2,70,0|0|2,0:0|0:0|0:0,0:0:0:0:
108,352,12311,2,0,L|180:352,1,70
248,344,12664,2,0,L|388:344,1,140
420,280,13193,1,0,0:0:0:0:
384,220,13369,5,2,0:0:0:0:
316,200,13546,2,0,L|240:200,1,70
180,176,13899,1,0,0:0:0:0:
124,132,14075,2,0,P|168:72|229:59,1,140
348,132,14781,2,0,P|392:192|453:204,1,140,2|0,0:0|0:0,0:0:0:0:
368,316,15487,5,0,0:0:0:0:
252,236,15840,1,0,0:0:0:0:
348,132,16193,1,2,0:0:0:0:
252,236,16546,5,0,0:0:0:0:
204,288,16722,1,0,0:0:0:0:
148,332,16899,2,0,P|116:344|80:344,1,70
44,284,17252,2,0,P|64:252|92:232,1,70
116,168,17605,2,0,P|172:128|244:120,1,140,2|0,0:0|0:0,0:0:0:0:
348,212,18311,2,0,P|288:252|221:260,1,140
116,168,19017,6,0,L|48:140,1,70,2|0,0:0|0:0,0:0:0:0:
52,72,19369,2,0,L|116:45,1,70
148,108,19722,2,0,L|288:108,1,140
368,224,20428,2,0,L|228:224,1,140,2|0,0:0|0:0,0:0:0:0:
148,108,21134,5,0,0:0:0:0:
256,192,21311,12,0,23605,0:0:0:0:
80,192,23958,6,0,P|120:136|188:112,1,140,4|0,0:0|0:0,0:0:0:0:
212,176,24487,1,0,0:0:0:0:
176,236,24664,2,0,P|196:296|260:340,1,140,8|8,0:0|0:0,0:0:0:0:
288,276,25193,2,0,L|344:228,1,70,0|8,0:0|0:0,0:0:0:0:
396,272,25546,2,0,L|372:340,2,70,0|8|0,0:0|0:0|0:0,0:0:0:0:
464,264,26075,1,8,0:0:0:0:
416,132,26428,1,8,0:0:0:0:
280,96,26781,6,0,P|272:160|216:212,1,140,8|8,0:0|0:0,0:0:0:0:
152,232,27311,1,0,0:0:0:0:
180,296,27487,2,0,L|135:350,1,70,8|0,0:0|0:0,0:0:0:0:
72,320,27840,2,0,L|28:264,1,70,8|0,0:0|0:0,0:0:0:0:
64,204,28193,2,0,B|128:172|128:172|160:112,1,140,0|8,0:0|0:0,0:0:0:0:
188,48,28722,1,0,0:0:0:0:
227,106,28899,2,0,P|196:116|160:112,1,70,8|0,0:0|0:0,0:0:0:0:
296,88,29252,2,0,P|332:80|368:84,1,70,8|0,0:0|0:0,0:0:0:0:
420,128,29605,6,0,P|402:191|346:243,1,140,0|8,0:0|0:0,0:0:0:0:
252,344,30311,2,0,B|200:328|196:272|196:272|160:244,1,140,8|8,0:0|0:0,0:0:0:0:
96,224,30840,1,0,0:0:0:0:
28,204,31017,2,0,P|52:168|76:156,1,70,8|0,0:0|0:0,0:0:0:0:
136,124,31369,2,0,P|168:100|182:74,1,70,8|0,0:0|0:0,0:0:0:0:
252,80,31722,1,8,0:0:0:0:
344,184,32075,1,0,0:0:0:0:
236,276,32428,5,8,0:0:0:0:
288,324,32605,1,0,0:0:0:0:
360,336,32781,2,0,P|396:332|428:316,1,70,8|0,0:0|0:0,0:0:0:0:
464,260,33134,2,0,L|344:184,1,140,0|8,0:0|0:0,0:0:0:0:
292,232,33664,1,0,0:0:0:0:
236,276,33840,2,0,P|228:204|276:164,1,140,0|8,0:0|0:0,0:0:0:0:
328,120,34369,2,0,L|400:88,2,70,0|8|0,0:0|0:0|0:0,0:0:0:0:
328,120,34899,2,0,L|392:164,2,70,8|0|4,0:0|0:0|0:0,0:0:0:0:
188,136,35605,6,0,B|204:200|152:200|164:272,1,140
104,308,36134,1,0,0:0:0:0:
168,340,36311,2,0,P|240:328|312:340,1,140,8|0,0:0|0:0,0:0:0:0:
360,292,36840,1,0,0:0:0:0:
324,232,37017,2,0,L|316:160,1,70,8|0,0:0|0:0,0:0:0:0:
252,136,37369,2,0,L|232:68,1,70,0|0,0:0|0:0,0:0:0:0:
168,96,37722,2,0,L|128:36,1,70,8|0,0:0|0:0,0:0:0:0:
60,36,38075,1,0,0:0:0:0:
80,176,38428,6,0,P|72:248|116:300,1,140,8|0,0:0|0:0,0:0:0:0:
176,328,38958,2,0,L|260:328,1,70,0|8,0:0|0:0,0:0:0:0:
316,332,39311,1,0,0:0:0:0:
368,284,39487,2,0,L|408:224,1,70
368,284,39840,2,0,L|424:328,1,70,8|0,0:0|0:0,0:0:0:0:
472,276,40193,2,0,P|472:200|424:156,1,140,0|8,0:0|0:0,0:0:0:0:
384,104,40722,1,0,0:0:0:0:
316,84,40899,6,0,P|260:128|200:104,1,140,4|8,0:0|0:0,0:0:0:0:
184,36,41428,1,0,0:0:0:0:
252,60,41605,2,0,L|276:200,1,140,0|8,0:0|0:0,0:0:0:0:
216,236,42134,1,0,0:0:0:0:
252,296,42311,2,0,B|300:332|336:272|388:296,1,140,0|8,0:0|0:0,0:0:0:0:
396,156,43017,2,0,L|300:128,1,70
260,136,43369,2,0,L|192:156,1,70,8|0,0:0|0:0,0:0:0:0:
256,192,43722,12,4,46546,0:0:0:0:
140,252,46899,6,0,P|184:308|256:328,1,140,8|0,0:0|0:0,0:0:0:0:
272,188,47605,2,0,P|228:132|156:112,1,140,8|2,0:0|0:0,0:0:0:0:
148,180,48134,1,0,0:0:0:0:
140,252,48311,2,0,L|188:328,1,70,8|0,0:0|0:0,0:0:0:0:
232,268,48664,2,0,L|268:332,2,70,0|0|8,0:0|0:0|0:0,0:0:0:0:
368,292,49369,5,2,0:0:0:0:
376,152,49722,1,8,0:0:0:0:
236,160,50075,2,0,P|180:120|184:52,1,140,0|8,0:0|0:0,0:0:0:0:
252,36,50605,1,0,0:0:0:0:
320,48,50781,2,0,P|376:84|376:152,2,140,2|8|8,0:0|0:0|0:0,0:0:0:0:
274,101,51664,2,0,L|236:160,2,70,0|8|8,0:0|0:0|0:0,0:0:0:0:
252,36,52193,6,0,L|180:56,1,70,4|0,0:0|0:0,0:0:0:0:
124,92,52546,2,0,P|96:152|144:204,1,140,8|0,0:0|0:0,0:0:0:0:
196,244,53075,1,0,0:0:0:0:
256,280,53252,2,0,L|316:324,1,70,8|0,0:0|0:0,0:0:0:0:
380,340,53605,2,0,P|422:289|394:229,2,140,2|8|0,0:0|0:0|0:0,0:0:0:0:
256,280,54664,5,8,0:0:0:0:
192,312,54840,1,0,0:0:0:0:
124,332,55017,2,0,P|100:300|92:268,1,70,2|0,0:0|0:0,0:0:0:0:
52,216,55369,2,0,L|80:152,1,70,8|0,0:0|0:0,0:0:0:0:
140,116,55722,1,0,0:0:0:0:
204,88,55899,2,0,L|276:80,2,70,0|12|0,0:0|0:0|0:0,0:0:0:0:
256,192,56428,12,0,57487,0:0:0:0:
324,84,57840,6,0,L|360:148,1,70,4|0,0:0|0:0,0:0:0:0:
408,196,58193,2,0,B|416:252|400:292|356:320,1,140,8|0,0:0|0:0,0:0:0:0:
288,312,58722,1,0,0:0:0:0:
252,252,58899,2,0,L|217:190,1,70,8|0,0:0|0:0,0:0:0:0:
152,168,59252,2,0,P|124:108|60:68,1,140,2|8,0:0|0:0,0:0:0:0:
204,56,59958,2,0,P|228:112|296:156,1,140,0|8,0:0|0:0,0:0:0:0:
356,184,60487,1,0,0:0:0:0:
408,136,60664,6,0,P|420:88|436:72,1,70,2|0,0:0|0:0,0:0:0:0:
480,128,61017,1,8,0:0:0:0:
448,192,61193,1,0,0:0:0:0:
432,260,61369,2,0,B|376:256|364:316|304:320,1,140,0|8,0:0|0:0,0:0:0:0:
240,332,61899,1,0,0:0:0:0:
172,348,62075,2,0,P|108:340|96:268,2,140,2|8|0,0:0|0:0|0:0,0:0:0:0:
132,216,63134,5,8,0:0:0:0:
200,200,63311,1,0,0:0:0:0:
268,184,63487,2,0,P|324:140|348:72,1,140,4|8,0:0|0:0,0:0:0:0:
288,40,64017,1,0,0:0:0:0:
252,100,64193,2,0,P|312:140|384:140,1,140,0|8,0:0|0:0,0:0:0:0:
360,280,64899,5,2,0:0:0:0:
296,308,65075,1,0,0:0:0:0:
360,280,65252,2,0,L|332:216,1,70,8|0,0:0|0:0,0:0:0:0:
360,280,65605,2,0,L|404:340,1,70
464,304,65958,2,0,P|488:248|464:176,1,140,8|2,0:0|0:0,0:0:0:0:
328,216,66664,2,0,P|296:148|232:128,1,140,8|0,0:0|0:0,0:0:0:0:
204,188,67193,2,0,L|168:260,1,70,8|0,0:0|0:0,0:0:0:0:
108,224,67546,5,8,0:0:0:0:
132,84,67899,1,8,0:0:0:0:
0,132,68252,1,8,0:0:0:0:
108,224,68605,1,8,0:0:0:0:
108,224,69134,5,4,0:0:0:0:
256,192,71958,12,0,74428,0:0:0:0:
160,88,74781,37,4,0:0:0:0:
112,220,75134,2,0,P|188:240|236:280,1,140,8|0,0:0|0:0,0:0:0:0:
292,320,75664,2,0,P|328:328|360:320,1,70,0|8,0:0|0:0,0:0:0:0:
392,184,76193,2,0,P|320:164|256:180,1,140,0|8,0:0|0:0,0:0:0:0:
200,220,76722,1,0,0:0:0:0:
140,256,76899,2,0,L|100:320,2,70,0|0|8,0:0|0:0|0:0,0:0:0:0:
72,132,77605,6,0,P|100:88|180:56,1,140,0|8,0:0|0:0,0:0:0:0:
240,92,78134,1,0,0:0:0:0:
296,136,78311,2,0,L|328:200,1,70
396,184,78664,2,0,L|404:112,1,70,8|0,0:0|0:0,0:0:0:0:
396,184,79017,2,0,P|376:248|304:264,1,140,0|8,0:0|0:0,0:0:0:0:
244,288,79546,2,0,L|180:336,1,70
244,288,79899,2,0,L|172:260,2,70,0|8|0,0:0|0:0|0:0,0:0:0:0:
260,220,80428,6,0,B|228:156|228:156|164:124,1,140,0|8,0:0|0:0,0:0:0:0:
304,152,81134,2,0,B|336:216|336:216|400:248,1,140,0|8,0:0|0:0,0:0:0:0:
432,184,81664,1,0,0:0:0:0:
392,128,81840,2,0,L|332:88,1,70
304,152,82193,2,0,L|228:148,1,70,8|0,0:0|0:0,0:0:0:0:
240,220,82546,2,0,L|160:248,2,70,0|0|8,0:0|0:0|0:0,0:0:0:0:
108,172,83252,6,0,P|148:108|212:84,1,140,0|8,0:0|0:0,0:0:0:0:
276,80,83781,1,0,0:0:0:0:
344,100,83958,2,0,P|380:160|441:187,1,140,0|8,0:0|0:0,0:0:0:0:
460,256,84487,1,0,0:0:0:0:
408,304,84664,2,0,P|376:328|344:336,1,70
348,264,85017,2,0,P|320:240|308:208,1,70,8|0,0:0|0:0,0:0:0:0:
244,180,85369,1,0,0:0:0:0:
184,216,85546,2,0,P|172:246|144:270,2,70,0|8|0,0:0|0:0|0:0,0:0:0:0:
244,180,86075,6,0,B|276:140|324:152|324:152|364:116,1,140,4|8,0:0|0:0,0:0:0:0:
424,152,86605,2,0,L|476:104,1,70
436,44,86958,1,0,0:0:0:0:
368,52,87134,1,8,0:0:0:0:
360,120,87311,1,0,0:0:0:0:
300,156,87487,2,0,P|236:164|172:128,1,140,0|8,0:0|0:0,0:0:0:0:
232,256,88193,2,0,P|296:248|360:284,1,140,0|8,0:0|0:0,0:0:0:0:
228,328,88899,6,0,P|160:336|96:300,1,140,0|8,0:0|0:0,0:0:0:0:
60,244,89428,2,0,L|92:180,1,70
156,152,89781,1,0,0:0:0:0:
224,172,89958,2,0,L|255:234,1,70,8|0,0:0|0:0,0:0:0:0:
316,200,90311,5,0,0:0:0:0:
380,228,90487,1,0,0:0:0:0:
400,296,90664,1,8,0:0:0:0:
468,300,90840,1,0,0:0:0:0:
496,236,91017,5,0,0:0:0:0:
440,196,91193,1,0,0:0:0:0:
452,128,91369,1,8,0:0:0:0:
400,80,91546,1,0,0:0:0:0:
340,44,91722,6,0,P|288:100|228:116,1,140,0|8,0:0|0:0,0:0:0:0:
164,88,92252,1,0,0:0:0:0:
228,116,92428,2,0,P|280:172|340:188,1,140,0|8,0:0|0:0,0:0:0:0:
320,256,92958,1,0,0:0:0:0:
260,292,93134,2,0,L|200:328,2,70,0|0|8,0:0|0:0|0:0,0:0:0:0:
256,152,93840,2,0,B|304:96|224:64|256:20,1,140,0|8,0:0|0:0,0:0:0:0:
256,192,94546,12,4,97369,0:0:0:0:
360,80,97722,6,0,B|360:140|376:172|428:192,1,140,8|0,0:0|0:0,0:0:0:0:
384,248,98252,2,0,L|336:304,1,70,0|8,0:0|0:0,0:0:0:0:
268,312,98605,1,0,0:0:0:0:
240,248,98781,2,0,L|264:180,1,70,2|0,0:0|0:0,0:0:0:0:
192,176,99134,2,0,P|160:188|128:212,1,70,8|0,0:0|0:0,0:0:0:0:
92,268,99487,2,0,P|128:324|196:352,1,140,0|8,0:0|0:0,0:0:0:0:
296,260,100193,6,0,P|256:204|192:176,1,140,2|8,0:0|0:0,0:0:0:0:
140,128,100722,1,0,0:0:0:0:
168,64,100899,2,0,L|240:64,1,70
308,60,101252,1,8,0:0:0:0:
356,112,101428,2,0,P|408:152|404:224,1,140
344,184,101958,2,0,P|288:236|228:216,2,140,8|8|8,0:0|0:0|0:0,0:0:0:0:
276,164,102840,1,0,0:0:0:0:
232,220,103017,6,0,L|208:296,1,70,4|0,0:0|0:0,0:0:0:0:
148,316,103369,2,0,P|112:324|76:316,1,70,8|0,0:0|0:0,0:0:0:0:
112,256,103722,2,0,L|92:188,1,70
52,132,104075,2,0,L|92:72,1,70,8|0,0:0|0:0,0:0:0:0:
160,60,104428,2,0,B|204:44|204:44|240:68|240:68|288:52,1,140,2|8,0:0|0:0,0:0:0:0:
332,108,104958,2,0,L|408:80,1,70
352,216,105487,6,0,L|285:239,1,70,8|0,0:0|0:0,0:0:0:0:
236,288,105840,2,0,B|184:332|184:332|112:324,1,140,2|8,0:0|0:0,0:0:0:0:
112,184,106546,2,0,B|164:140|164:140|236:148,1,140,0|12,0:0|0:0,0:0:0:0:
256,192,107252,12,0,108311,0:0:0:0:
84,192,108664,6,0,P|140:144|156:76,1,140,4|8,0:0|0:0,0:0:0:0:
84,192,109369,2,0,P|120:256|180:284,1,140,0|8,0:0|0:0,0:0:0:0:
240,316,109899,1,0,0:0:0:0:
308,336,110075,2,0,P|344:336|376:320,1,70,2|0,0:0|0:0,0:0:0:0:
416,264,110428,2,0,P|424:196|480:156,2,140,8|0|8,0:0|0:0|0:0,0:0:0:0:
324,156,111487,6,0,L|280:220,1,70,2|0,0:0|0:0,0:0:0:0:
232,260,111840,2,0,L|164:284,1,70,8|0,0:0|0:0,0:0:0:0:
100,260,112193,1,0,0:0:0:0:
116,192,112369,2,0,L|182:168,2,70,0|8|0,0:0|0:0|0:0,0:0:0:0:
100,260,112899,2,0,P|48:204|64:144,1,140,2|8,0:0|0:0,0:0:0:0:
124,120,113428,2,0,L|192:96,1,70,0|8,0:0|0:0,0:0:0:0:
320,148,113958,6,8,P|304:180|276:204,1,70
244,264,114311,2,0,P|292:312|364:316,1,140,4|8,0:0|0:0,0:0:0:0:
420,280,114840,1,0,0:0:0:0:
432,212,115017,2,0,P|388:160|320:148,1,140,0|8,0:0|0:0,0:0:0:0:
272,200,115546,1,0,0:0:0:0:
320,148,115722,2,0,P|288:132|253:131,1,70,2|0,0:0|0:0,0:0:0:0:
272,200,116075,2,0,P|236:208|212:232,1,70,8|0,0:0|0:0,0:0:0:0:
160,276,116428,2,0,P|124:292|92:288,2,70,0|0|8,0:0|0:0|0:0,0:0:0:0:
104,148,117134,6,0,B|136:100|208:124|228:84,1,140,2|8,0:0|0:0,0:0:0:0:
288,56,117664,2,0,L|336:120,1,70
312,180,118017,2,0,L|353:236,1,70,8|0,0:0|0:0,0:0:0:0:
316,296,118369,5,8,0:0:0:0:
176,280,118722,1,8,0:0:0:0:
316,296,119075,1,8,0:0:0:0:
436,224,119428,1,8,0:0:0:0:
316,296,119781,1,4,0:0:0:0:
256,192,119958,12,4,122781,0:0:0:0:
96,152,131252,6,0,P|108:224|148:276,1,140,4|0,0:0|0:0,0:0:0:0:
240,168,131958,1,8,0:0:0:0:
300,296,132311,2,0,L|356:248,1,70,8|4,0:0|0:0,0:0:0:0:
240,168,132840,2,0,L|186:213,1,70
120,192,133193,1,0,0:0:0:0:
104,124,133369,2,8,L|185:57,2,105
120,192,134075,1,4,0:0:0:0:
244,260,134428,6,0,P|292:304|372:312,1,140,0|8,0:0|0:0,0:0:0:0:
404,256,134958,2,0,L|436:192,1,70,0|8,0:0|0:0,0:0:0:0:
460,128,135311,1,4,0:0:0:0:
320,144,135664,2,0,L|288:206,1,70,0|8,0:0|0:0,0:0:0:0:
244,260,136017,1,0,0:0:0:0:
176,244,136193,2,0,P|184:296|228:328,2,105,8|0|0,0:0|0:0|0:0,0:0:0:0:
244,260,136899,1,4,0:0:0:0:
236,120,137252,5,0,0:0:0:0:
300,92,137428,1,0,0:0:0:0:
364,64,137605,1,8,0:0:0:0:
440,184,137958,2,0,L|376:220,1,70,8|4,0:0|0:0,0:0:0:0:
244,188,138487,2,0,L|308:216,2,70
200,244,139017,2,8,P|164:300|96:312,2,140,8|8|4,0:0|0:0|0:0,0:0:0:0:
80,168,140075,6,0,L|128:116,1,70
192,88,140428,2,0,L|252:128,1,70,8|0,0:0|0:0,0:0:0:0:
320,136,140781,2,8,L|348:108,2,35,8|8|4,0:0|0:0|0:0,0:0:0:0:
376,96,145369,6,0,L|412:156,1,70
392,224,145722,2,0,P|368:288|304:312,1,140,0|2,0:0|0:0,0:0:0:0:
220,200,146428,2,0,P|248:132|312:112,1,140
376,96,146958,1,0,0:0:0:0:
356,164,147134,2,0,L|316:224,1,70
268,272,147487,2,0,L|204:308,2,70,2|0|0,0:0|0:0|0:0,0:0:0:0:
64,112,148193,6,0,P|112:152|192:144,1,140
308,112,148899,2,0,P|260:152|180:144,1,140,2|0,0:0|0:0,0:0:0:0:
168,216,149428,1,0,0:0:0:0:
152,284,149605,2,0,B|196:324|244:260|284:292,2,140,0|0|2,0:0|0:0|0:0,0:0:0:0:
188,148,150664,1,0,0:0:0:0:
408,120,151017,6,0,L|456:68,2,70
388,188,151546,1,0,0:0:0:0:
404,256,151722,2,0,L|452:308,2,70,2|0|0,0:0|0:0|0:0,0:0:0:0:
388,188,152252,1,0,0:0:0:0:
320,172,152428,2,0,B|272:172|252:152|252:152|236:176|200:196,1,140
96,288,153134,2,0,B|144:288|164:308|164:308|180:284|216:264,1,140,2|0,0:0|0:0,0:0:0:0:
144,144,153840,6,0,P|216:116|272:136,1,140
328,180,154369,1,0,0:0:0:0:
376,232,154546,2,0,L|420:288,2,70,2|0|0,0:0|0:0|0:0,0:0:0:0:
376,232,155075,2,0,L|448:224,2,70
316,268,155605,2,0,L|246:275,1,70
200,328,155958,5,0,0:0:0:0:
68,284,156134,1,8,0:0:0:0:
172,192,156311,1,8,0:0:0:0:
172,192,156487,1,8,0:0:0:0:
136,132,156664,6,0,B|180:88|180:88|208:116|252:108,1,140,4|8,0:0|0:0,0:0:0:0:
232,40,157193,1,0,0:0:0:0:
300,56,157369,2,0,P|324:80|364:96,1,70,2|0,0:0|0:0,0:0:0:0:
416,132,157722,2,0,P|420:172|412:204,1,70,8|0,0:0|0:0,0:0:0:0:
372,256,158075,2,0,P|300:244|240:272,1,140,0|8,0:0|0:0,0:0:0:0:
208,332,158605,1,0,0:0:0:0:
276,348,158781,2,8,P|340:312|372:256,1,140,2|8,0:0|0:0,0:0:0:0:
344,120,159487,5,0,0:0:0:0:
284,84,159664,1,0,0:0:0:0:
224,52,159840,2,0,L|152:76,1,70,8|0,0:0|0:0,0:0:0:0:
92,100,160193,2,0,P|116:172|164:212,1,140,2|8,0:0|0:0,0:0:0:0:
212,160,160722,1,0,0:0:0:0:
164,212,160899,2,0,P|215:254|235:322,2,140,0|8|0,0:0|0:0|0:0,0:0:0:0:
112,260,161781,1,0,0:0:0:0:
44,240,161958,6,0,L|68:172,1,70,8|0,0:0|0:0,0:0:0:0:
112,120,162311,2,0,P|192:116|212:68,1,140,4|8,0:0|0:0,0:0:0:0:
276,40,162840,1,0,0:0:0:0:
336,76,163017,2,0,P|356:124|436:128,1,140,0|8,0:0|0:0,0:0:0:0:
464,64,163546,1,0,0:0:0:0:
436,128,163722,2,0,L|436:200,1,70,2|0,0:0|0:0,0:0:0:0:
368,208,164075,2,0,L|336:272,1,70,8|0,0:0|0:0,0:0:0:0:
268,256,164428,2,0,L|200:284,2,70,0|0|8,0:0|0:0|0:0,0:0:0:0:
144,188,165134,6,0,P|144:108|112:60,1,140,2|8,0:0|0:0,0:0:0:0:
252,56,165840,2,0,P|256:92|276:120,1,70
344,120,166193,2,0,P|364:84|364:48,1,70,8|0,0:0|0:0,0:0:0:0:
436,44,166546,2,0,P|428:116|392:172,1,140,2|8,0:0|0:0,0:0:0:0:
344,224,167075,1,0,0:0:0:0:
392,276,167252,2,0,L|344:336,1,70,0|0,0:0|0:0,0:0:0:0:
280,348,167605,2,0,L|216:312,1,70,8|0,0:0|0:0,0:0:0:0:
160,276,167958,6,0,P|208:232|192:156,1,140,4|8,0:0|0:0,0:0:0:0:
132,140,168487,1,0,0:0:0:0:
144,208,168664,2,0,P|212:228|264:184,1,140,0|8,0:0|0:0,0:0:0:0:
292,124,169193,1,0,0:0:0:0:
360,108,169369,2,0,L|404:52,2,70,2|0|8,0:0|0:0|0:0,0:0:0:0:
292,124,169899,1,0,0:0:0:0:
340,176,170075,2,0,L|384:236,1,70,0|0,0:0|0:0,0:0:0:0:
412,296,170428,2,0,P|371:302|344:292,1,70,8|0,0:0|0:0,0:0:0:0:
284,328,170781,6,0,L|201:214,1,140,2|8,0:0|0:0,0:0:0:0:
148,260,171311,2,0,L|104:200,1,70
48,164,171664,2,8,L|96:112,1,70,0|8,0:0|0:0,0:0:0:0:
112,44,172017,5,8,0:0:0:0:
192,160,172369,1,8,0:0:0:0:
328,128,172722,1,8,0:0:0:0:
392,252,173075,1,8,0:0:0:0:
256,280,173428,5,4,0:0:0:0:
256,192,173605,12,4,177840,0:0:0:0:
112,264,178193,6,0,P|176:300|244:304,1,140,8|0,0:0|0:0,0:0:0:0:
256,236,178722,1,0,0:0:0:0:
320,208,178899,2,0,L|384:176,1,70,8|0,0:0|0:0,0:0:0:0:
396,108,179252,6,0,P|340:76|264:60,1,140,4|8,0:0|0:0,0:0:0:0:
176,168,179958,2,0,P|132:136|48:132,1,140,0|8,0:0|0:0,0:0:0:0:
28,200,180487,2,0,P|86:237|155:236,1,140,0|0,0:0|0:0,0:0:0:0:
224,216,181017,1,8,0:0:0:0:
248,280,181193,2,0,B|312:324|384:280,1,140,0|0,0:0|0:0,0:0:0:0:
420,224,181722,1,8,0:0:0:0:
376,168,181899,1,0,0:0:0:0:
352,104,182075,6,0,L|416:76,2,70,0|0|8,0:0|0:0|0:0,0:0:0:0:
296,232,182781,2,0,L|360:260,2,70,0|0|8,0:0|0:0|0:0,0:0:0:0:
276,164,183311,1,0,0:0:0:0:
216,128,183487,2,0,L|184:104,2,35
188,192,183840,2,0,L|152:184,2,35
224,252,184193,2,0,L|158:279,2,70,0|0|8,0:0|0:0|0:0,0:0:0:0:
344,180,184899,5,4,0:0:0:0:
224,252,185252,1,8,0:0:0:0:
344,180,185605,2,0,P|300:112|248:88,1,140,0|8,0:0|0:0,0:0:0:0:
180,104,186134,2,0,P|152:132|124:148,1,70
100,212,186487,2,0,P|96:248|104:280,1,70,0|8,0:0|0:0,0:0:0:0:
160,324,186840,1,0,0:0:0:0:
228,344,187017,2,0,L|376:336,1,140,0|8,0:0|0:0,0:0:0:0:
284,224,187722,5,0,0:0:0:0:
376,120,188075,1,8,0:0:0:0:
284,224,188428,1,0,0:0:0:0:
248,164,188605,1,0,0:0:0:0:
240,96,188781,1,8,0:0:0:0:
260,28,188958,2,0,P|188:48|172:108,1,140
120,152,189487,1,8,0:0:0:0:
84,212,189664,2,0,P|100:268|172:288,1,140
244,284,190193,2,0,L|284:224,1,70
352,224,190546,6,0,L|390:282,2,70,4|0|8,0:0|0:0|0:0,0:0:0:0:
404,92,191252,2,0,L|365:33,2,70,0|0|8,0:0|0:0|0:0,0:0:0:0:
348,136,191781,2,0,B|312:80|312:80|276:96|240:76,1,140
184,36,192311,1,8,0:0:0:0:
120,64,192487,2,0,L|108:136,1,70
40,148,192840,2,0,L|28:216,2,70,0|8|0,0:0|0:0|0:0,0:0:0:0:
40,148,193369,5,0,0:0:0:0:
148,236,193722,1,8,0:0:0:0:
188,100,194075,1,0,0:0:0:0:
252,128,194252,1,8,0:0:0:0:
280,192,194428,1,8,0:0:0:0:
272,260,194605,2,0,P|336:280|408:264,1,140,8|8,0:0|0:0,0:0:0:0:
456,132,195311,2,0,P|384:112|320:128,1,140,8|8,0:0|0:0,0:0:0:0:
256,192,196899,12,0,199369,0:0:0:0:
256,192,199722,12,0,203075,0:0:0:0:
256,192,203428,12,4,207487,0:0:0:0:
