osu file format v12

[General]
AudioFilename: VocalRock IOSYS.mp3
AudioLeadIn: 1000
PreviewTime: 46546
Countdown: 0
SampleSet: Soft
StackLeniency: 0.7
Mode: 0
LetterboxInBreaks: 1
WidescreenStoryboard: 0

[Editor]
DistanceSpacing: 0.8
BeatDivisor: 2
GridSize: 4

[Metadata]
Title:Kuoria
TitleUnicode:クオリア
Artist:Ichigo
ArtistUnicode:いちご
Creator:bigfrog
Version:Easy
Source:Touhou
Tags:IOSYS Flandre Scarlet void OnosakiHito
BeatmapID:263268
BeatmapSetID:87170

[Difficulty]
HPDrainRate:2
CircleSize:3
OverallDifficulty:2
ApproachRate:3
SliderMultiplier:1
SliderTickRate:1

[Events]
//Background and Video events
0,0,"Picture.jpg",0,0
//Break Periods
2,69334,70518
2,122981,129812
2,141157,143929
//Storyboard Layer 0 (Background)
//Storyboard Layer 1 (Fail)
//Storyboard Layer 2 (Pass)
//Storyboard Layer 3 (Foreground)
//Storyboard Sound Samples
//Background Colour Transformations
3,100,163,162,255

[TimingPoints]
1370,352.941176470588,4,2,1,40,1,0
23958,-100,4,2,3,45,0,0
23958,-100,4,2,3,50,0,0
34458,-100,4,2,1,50,0,0
36222,-100,4,2,2,50,0,0
43281,-100,4,2,1,50,0,0
46546,-100,4,2,1,70,0,1
49634,-100,4,2,2,70,0,1
51399,-100,4,2,1,70,0,1
51664,-100,4,2,1,70,0,1
53164,-100,4,2,2,70,0,1
53340,-100,4,2,1,70,0,1
57752,-100,4,2,1,70,0,0
57840,-100,4,2,1,70,0,1
61634,-100,4,2,2,70,0,1
61811,-100,4,2,1,70,0,1
66575,-100,4,2,2,70,0,1
66752,-100,4,2,1,70,0,1
69134,-100,4,2,1,70,0,0
69311,-100,4,2,1,50,0,0
77869,-100,4,2,2,50,0,0
78046,-100,4,2,1,50,0,0
83517,-100,4,2,2,50,0,0
83693,-100,4,2,1,50,0,0
97369,-100,4,2,1,70,0,1
108575,-100,4,2,1,70,0,0
108664,-100,4,2,1,70,0,1
122781,-100,4,2,1,50,0,0
134693,-100,4,2,2,50,0,0
134869,-100,4,2,1,50,0,0
145369,-100,4,2,1,40,0,0
155252,-100,4,2,1,60,0,0
156664,-100,4,2,1,70,0,1
158340,-100,4,2,2,70,0,1
158517,-100,4,2,1,70,0,1
159752,-100,4,2,2,70,0,1
159928,-100,4,2,1,70,0,1
169634,-100,4,2,2,70,0,1
171222,-100,4,2,1,70,0,1
177840,-100,4,2,1,50,0,0
186575,-100,4,2,2,50,0,0
187458,-100,4,2,1,50,0,0
189399,-100,4,2,2,50,0,0
189575,-100,4,2,1,50,0,0
193634,-100,4,2,2,50,0,0
193811,-100,4,2,1,50,0,0
207399,-100,4,2,1,70,0,0

[Colours]
Combo1 : 13,100,250
Combo2 : 6,255,80
Combo3 : 201,56,150
Combo4 : 228,145,18

[HitObjects]
160,224,1370,2,0,P|188:272|232:288,1,100
240,208,2075,1,2,0:0:0:0:
344,88,2781,2,0,P|364:128|412:152,1,100
424,72,3487,1,2,0:0:0:0:
508,208,4193,5,0,0:0:0:0:
348,208,4899,1,2,0:0:0:0:
212,292,5605,2,0,P|160:216|216:128,1,200,0|2,0:0|0:0,0:0:0:0:
56,176,7017,6,0,P|152:216|248:208,1,200,0|2,0:0|0:0,0:0:0:0:
388,136,8428,1,0,0:0:0:0:
228,116,9134,1,2,0:0:0:0:
128,240,9840,6,0,L|32:296,2,100,0|0|2,0:0|0:0|0:0,0:0:0:0:
288,224,11252,2,0,L|192:280,2,100,0|0|2,0:0|0:0|0:0,0:0:0:0:
432,152,12664,5,0,0:0:0:0:
296,64,13369,1,2,0:0:0:0:
288,224,14075,1,0,0:0:0:0:
296,64,14781,2,0,P|200:52|100:80,1,200,2|0,0:0|0:0,0:0:0:0:
56,232,16193,1,2,0:0:0:0:
216,232,16899,6,0,L|320:232,2,100,0|0|2,0:0|0:0|0:0,0:0:0:0:
252,76,18311,2,0,P|352:56|456:80,1,200,0|2,0:0|0:0,0:0:0:0:
444,236,19722,2,0,P|348:256|249:236,1,200,0|2,0:0|0:0,0:0:0:0:
256,192,21134,12,0,23252,0:0:0:0:
100,184,23958,6,0,P|112:276|204:352,1,200,4|8,0:0|0:0,0:0:0:0:
348,348,25369,1,0,0:0:0:0:
384,192,26075,1,8,0:0:0:0:
300,56,26781,5,0,0:0:0:0:
144,36,27487,1,8,0:0:0:0:
64,172,28193,2,0,P|128:248|224:244,1,200
320,116,29605,6,0,P|296:68|256:45,1,100
240,124,30311,1,8,0:0:0:0:
240,284,31017,2,0,P|288:268|316:228,1,100
240,204,31722,1,8,0:0:0:0:
368,300,32428,5,8,0:0:0:0:
408,144,33134,1,8,0:0:0:0:
260,84,33840,1,0,0:0:0:0:
220,240,34546,1,8,0:0:0:0:
260,84,35252,1,4,0:0:0:0:
220,240,35958,6,0,B|312:240|312:240|368:216|396:172,1,200,0|0,0:0|0:0,0:0:0:0:
260,84,37369,2,0,B|168:84|168:84|112:108|84:152,1,200,0|0,0:0|0:0,0:0:0:0:
240,188,38781,6,0,B|288:276|288:276|384:324,1,200
392,160,40193,2,0,B|344:72|344:72|254:27,1,200,0|0,0:0|0:0,0:0:0:0:
104,56,41605,6,0,B|148:144|148:144|240:188,1,200
148,320,43017,2,0,L|56:276,1,100,0|8,0:0|0:0,0:0:0:0:
256,192,43722,12,0,45840,0:0:0:0:
60,204,46546,1,4,0:0:0:0:
184,100,47252,2,0,L|244:184,1,100,0|8,0:0|0:0,0:0:0:0:
212,256,47958,1,2,0:0:0:0:
360,312,48664,1,0,0:0:0:0:
472,200,49369,6,0,B|416:168|400:80|328:56,1,200,2|0,0:0|0:0,0:0:0:0:
224,168,50781,2,0,B|288:192|296:296|360:312,1,200,2|8,0:0|0:0,0:0:0:0:
384,236,51840,1,8,0:0:0:0:
408,160,52193,1,4,0:0:0:0:
284,56,52899,6,0,P|320:144|292:248,1,200,0|2,0:0|0:0,0:0:0:0:
160,156,54311,1,8,0:0:0:0:
212,308,55017,2,0,P|160:316|112:308,1,100,2|8,0:0|0:0,0:0:0:0:
40,280,55722,1,0,0:0:0:0:
4,208,56075,1,4,0:0:0:0:
256,192,56428,12,4,57840,0:0:0:0:
324,116,58546,6,0,P|372:116|420:140,1,100,0|8,0:0|0:0,0:0:0:0:
456,208,59252,1,2,0:0:0:0:
336,312,59958,2,0,P|280:312|240:288,1,100,0|8,0:0|0:0,0:0:0:0:
228,212,60664,1,2,0:0:0:0:
152,72,61369,6,0,P|124:176|52:240,1,200,0|2,0:0|0:0,0:0:0:0:
32,160,62428,1,8,0:0:0:0:
72,88,62781,1,8,0:0:0:0:
200,184,63487,6,0,P|224:224|272:248,2,100,4|8|0,0:0|0:0|0:0,0:0:0:0:
352,232,64899,2,0,P|344:284|312:320,2,100,2|8|0,0:0|0:0|0:0,0:0:0:0:
440,96,66311,2,0,P|336:80|240:120,1,200,2|0,0:0|0:0,0:0:0:0:
263,232,67546,6,8,P|208:228|172:204,2,100
344,228,68605,1,8,0:0:0:0:
464,216,69134,5,4,0:0:0:0:
256,192,71958,12,4,74781,0:0:0:0:
152,168,75487,6,0,P|168:216|224:248,1,100,0|8,0:0|0:0,0:0:0:0:
280,276,76193,1,0,0:0:0:0:
440,296,76899,1,0,0:0:0:0:
368,152,77605,6,0,B|312:96|232:144|176:104,1,200,0|0,0:0|0:0,0:0:0:0:
100,88,78664,1,8,0:0:0:0:
72,244,79369,1,8,0:0:0:0:
232,256,80075,1,8,0:0:0:0:
356,152,80781,5,8,0:0:0:0:
196,136,81487,1,8,0:0:0:0:
116,144,81840,2,0,P|56:140|24:112,2,100,0|8|0,0:0|0:0|0:0,0:0:0:0:
272,104,83252,6,0,B|184:48|184:48|88:68,1,200
116,144,84311,1,8,0:0:0:0:
168,208,84664,2,0,P|220:212|260:188,2,100,0|8|0,0:0|0:0|0:0,0:0:0:0:
116,144,85722,1,8,0:0:0:0:
184,100,86075,5,4,0:0:0:0:
252,56,86428,1,8,0:0:0:0:
336,192,87134,1,8,0:0:0:0:
176,192,87840,1,8,0:0:0:0:
316,116,88546,1,8,0:0:0:0:
336,192,88899,6,0,L|264:272,2,100,0|8|0,0:0|0:0|0:0,0:0:0:0:
176,192,90311,2,0,L|248:120,2,100,0|8|0,0:0|0:0|0:0,0:0:0:0:
176,32,91722,2,0,L|96:112,2,100,0|8|0,0:0|0:0|0:0,0:0:0:0:
256,48,92781,5,8,0:0:0:0:
176,192,93487,1,8,0:0:0:0:
336,196,94193,1,8,0:0:0:0:
256,192,94546,12,0,95958,0:0:0:0:
76,128,96664,6,0,L|104:224,1,100,0|0,0:0|0:0,0:0:0:0:
128,300,97369,1,4,0:0:0:0:
288,288,98075,2,0,P|328:248|376:224,1,100,0|8,0:0|0:0,0:0:0:0:
432,184,98781,1,2,0:0:0:0:
280,136,99487,2,0,P|248:176|200:208,1,100,0|8,0:0|0:0,0:0:0:0:
144,252,100193,5,2,0:0:0:0:
160,96,100899,1,0,0:0:0:0:
312,40,101605,2,0,B|236:64|236:64|256:128|196:172,1,200,2|8,0:0|0:0,0:0:0:0:
160,96,102664,1,8,0:0:0:0:
92,140,103017,5,4,0:0:0:0:
28,188,103369,1,8,0:0:0:0:
152,288,104075,1,8,0:0:0:0:
224,320,104428,2,0,P|268:352|312:356,2,100,2|8|0,0:0|0:0|0:0,0:0:0:0:
292,276,105487,1,8,0:0:0:0:
424,184,106193,5,8,0:0:0:0:
284,104,106899,1,8,0:0:0:0:
228,160,107252,2,8,L|116:160,2,100,8|8|8,0:0|0:0|0:0,0:0:0:0:
304,184,108311,1,8,0:0:0:0:
368,232,108664,6,0,P|328:260|276:260,1,100,4|8,0:0|0:0,0:0:0:0:
128,212,109722,1,8,0:0:0:0:
128,132,110075,2,0,P|172:104|220:104,1,100,0|8,0:0|0:0,0:0:0:0:
352,192,111134,1,8,0:0:0:0:
256,64,111840,1,8,0:0:0:0:
160,192,112546,1,8,0:0:0:0:
256,320,113252,1,8,0:0:0:0:
396,244,113958,1,8,0:0:0:0:
352,176,114311,6,0,P|304:152|256:144,2,100,4|8|0,0:0|0:0|0:0,0:0:0:0:
192,192,115722,2,0,L|192:296,2,100,2|8|0,0:0|0:0|0:0,0:0:0:0:
344,232,117134,2,0,P|312:192|264:168,2,100,2|8|0,0:0|0:0|0:0,0:0:0:0:
232,280,118369,5,8,0:0:0:0:
156,256,118722,1,8,0:0:0:0:
108,192,119075,1,8,0:0:0:0:
100,112,119428,1,8,0:0:0:0:
256,192,119781,12,4,122781,0:0:0:0:
88,148,131252,6,0,B|140:168|140:168|144:212|144:212|192:204|192:204|228:248,1,200,4|8,0:0|0:0,0:0:0:0:
300,268,132311,2,0,L|356:256,1,50,0|4,0:0|0:0,0:0:0:0:
356,56,133369,2,8,L|432:40,2,75,0|0|8,0:0|0:0|0:0,0:0:0:0:
240,80,134428,6,0,B|193:108|197:164|197:164|141:188|133:236,1,200,0|8,0:0|0:0,0:0:0:0:
280,300,135840,1,8,0:0:0:0:
344,348,136193,2,0,P|392:328|420:288,1,100
440,212,136899,6,0,P|436:116|348:64,1,200,4|8,0:0|0:0,0:0:0:0:
276,80,137958,2,0,L|224:80,1,50
164,272,139017,2,0,L|64:272,2,100,8|0|4,0:0|0:0|0:0,0:0:0:0:
244,280,140075,2,0,B|300:324|348:280|348:280|364:200|440:200,1,250,0|4,0:0|0:0,0:0:0:0:
160,152,145369,6,0,L|224:256,1,100
260,300,146075,1,2,0:0:0:0:
400,224,146781,2,0,L|336:128,1,100
296,76,147487,1,2,0:0:0:0:
192,196,148193,5,0,0:0:0:0:
296,76,148899,1,2,0:0:0:0:
400,196,149605,1,0,0:0:0:0:
296,320,150311,1,2,0:0:0:0:
192,200,151017,6,0,B|95:148|0:196,1,200,0|2,0:0|0:0,0:0:0:0:
144,268,152428,2,0,B|240:316|344:260,1,200,0|2,0:0|0:0,0:0:0:0:
272,120,153840,5,0,0:0:0:0:
336,264,154546,1,2,0:0:0:0:
188,204,155252,1,0,0:0:0:0:
132,56,155958,1,0,0:0:0:0:
288,96,156664,6,0,P|304:152|296:192,1,100,4|8,0:0|0:0,0:0:0:0:
296,272,157369,1,2,0:0:0:0:
136,288,158075,2,0,B|160:224|228:184|296:192,1,200,0|2,0:0|0:0,0:0:0:0:
296,272,159134,1,8,0:0:0:0:
364,232,159487,6,0,P|352:136|264:120,1,200,0|2,0:0|0:0,0:0:0:0:
120,48,160899,1,0,0:0:0:0:
144,124,161252,1,8,0:0:0:0:
216,160,161605,1,2,0:0:0:0:
376,164,162311,6,0,B|392:212|392:212|384:268,1,100,4|8,0:0|0:0,0:0:0:0:
312,296,163017,1,0,0:0:0:0:
276,224,163369,1,8,0:0:0:0:
240,152,163722,1,2,0:0:0:0:
80,172,164428,5,0,0:0:0:0:
112,244,164781,1,8,0:0:0:0:
148,316,165134,1,2,0:0:0:0:
276,224,165840,1,8,0:0:0:0:
148,316,166546,2,0,L|248:344,2,100,2|8|0,0:0|0:0|0:0,0:0:0:0:
308,296,167958,6,0,L|408:324,2,100,4|8|0,0:0|0:0|0:0,0:0:0:0:
196,184,169369,2,0,P|141:104|44:99,1,200,2|0,0:0|0:0,0:0:0:0:
24,256,170781,2,0,P|76:332|176:335,1,200,2|0,0:0|0:0,0:0:0:0:
276,264,172017,5,8,0:0:0:0:
340,216,172369,1,8,0:0:0:0:
292,152,172722,1,8,0:0:0:0:
356,104,173075,1,8,0:0:0:0:
300,48,173428,5,4,0:0:0:0:
256,192,173605,12,4,177840,0:0:0:0:
336,200,178546,6,0,P|328:248|292:284,2,100,0|8|4,0:0|0:0|0:0,0:0:0:0:
188,136,179958,2,0,P|200:80|232:48,2,100,0|8|0,0:0|0:0|0:0,0:0:0:0:
268,120,181017,1,8,0:0:0:0:
380,232,181722,1,8,0:0:0:0:
432,80,182428,1,8,0:0:0:0:
400,152,182781,5,0,0:0:0:0:
456,208,183134,1,8,0:0:0:0:
424,280,183487,1,0,0:0:0:0:
264,256,184193,5,0,0:0:0:0:
208,200,184546,1,8,0:0:0:0:
248,132,184899,1,4,0:0:0:0:
88,104,185605,5,0,0:0:0:0:
80,264,186311,2,0,P|184:292|264:256,2,200
120,196,188075,6,0,P|168:184|216:196,1,100,8|0,0:0|0:0,0:0:0:0:
352,284,189134,2,0,P|436:240|464:144,1,200,0|0,0:0|0:0,0:0:0:0:
416,80,190193,1,8,0:0:0:0:
340,56,190546,5,4,0:0:0:0:
292,120,190899,1,8,0:0:0:0:
156,36,191605,1,8,0:0:0:0:
44,148,192311,1,8,0:0:0:0:
96,300,193017,1,8,0:0:0:0:
172,328,193369,6,0,B|236:324|272:348|272:348|296:312|360:312,1,200
436,328,194428,2,0,L|464:280,1,50,0|8,0:0|0:0,0:0:0:0:
452,204,194958,2,8,L|396:104,2,100
256,192,196899,12,0,203075,0:0:0:0:
256,192,203252,12,8,206252,0:0:0:0:
256,192,207487,5,4,0:0:0:0:
