osu file format v14

[General]
AudioFilename: Iceon - Beloved Tomboyish Girl.mp3
AudioLeadIn: 0
PreviewTime: 9646
Countdown: 0
SampleSet: None
StackLeniency: 0.7
Mode: 0
LetterboxInBreaks: 0
WidescreenStoryboard: 1

[Editor]
DistanceSpacing: 1
BeatDivisor: 4
GridSize: 4
TimelineZoom: 1.7

[Metadata]
Title:Beloved Tomboyish Girl
TitleUnicode:Beloved Tomboyish Girl
Artist:Iceon
ArtistUnicode:Iceon
Creator:naoe dami
Version:Hard
Source:Touhou
Tags:memories of phantasm
BeatmapID:734211
BeatmapSetID:331428

[Difficulty]
HPDrainRate:7
CircleSize:4
OverallDifficulty:7
ApproachRate:8
SliderMultiplier:1.5
SliderTickRate:1

[Events]
//Background and Video events
0,0,"hue.png",0,0
//Break Periods
//Storyboard Layer 0 (Background)
//Storyboard Layer 1 (Fail)
//Storyboard Layer 2 (Pass)
//Storyboard Layer 3 (Foreground)
//Storyboard Sound Samples

[TimingPoints]
1146,500,4,2,0,20,1,0
66416.4237879386,372.670807453416,4,2,0,30,1,0

[HitObjects]
72,120,1146,5,0,0:0:0:0:
156,68,1396,1,0,0:0:0:0:
256,52,1646,1,0,0:0:0:0:
352,84,1896,1,0,0:0:0:0:
428,152,2146,2,0,L|464:228,1,75,2|0,0:0|0:0,0:0:0:0:
300,332,2896,5,0,0:0:0:0:
188,344,3146,2,0,P|192:288|216:264,1,75,2|0,0:0|0:0,0:0:0:0:
284,220,3646,2,0,L|264:132,1,75,2|0,0:0|0:0,0:0:0:0:
188,80,4146,1,0,0:0:0:0:
96,132,4396,1,0,0:0:0:0:
288,136,4646,1,2,0:0:0:0:
388,96,4896,1,0,0:0:0:0:
292,36,5146,1,2,0:0:0:0:
288,136,5396,5,0,0:0:0:0:
220,220,5646,1,2,0:0:0:0:
116,256,5896,1,0,0:0:0:0:
12,220,6146,2,0,L|28:144,1,75,2|0,0:0|0:0,0:0:0:0:
316,40,6896,1,0,0:0:0:0:
396,116,7146,2,0,L|380:192,1,75,2|0,0:0|0:0,0:0:0:0:
276,144,7646,2,0,L|260:220,1,75,2|0,0:0|0:0,0:0:0:0:
184,292,8146,1,0,0:0:0:0:
92,348,8396,2,0,B|64:288|96:240|96:240|20:156,1,225,0|2,0:0|0:0,0:0:0:0:
112,32,9646,6,0,L|220:144,1,150,2|0,0:0|0:0,0:0:0:0:
292,208,10396,1,2,0:0:0:0:
328,120,10646,2,0,P|376:160|384:200,1,75
368,268,11146,1,2,0:0:0:0:
448,328,11396,1,0,0:0:0:0:
344,360,11646,1,2,0:0:0:0:
368,268,11896,1,0,0:0:0:0:
448,328,12146,1,2,0:0:0:0:
344,360,12396,1,0,0:0:0:0:
260,304,12646,1,0,0:0:0:0:
368,268,12896,1,2,0:0:0:0:
424,184,13146,1,0,0:0:0:0:
296,52,13646,5,0,0:0:0:0:
296,52,14146,2,0,P|240:36|192:48,1,75,2|0,0:0|0:0,0:0:0:0:
156,120,14646,2,0,P|208:136|244:124,1,75,0|2,0:0|0:0,0:0:0:0:
296,52,15146,1,0,0:0:0:0:
226,132,15396,1,0,0:0:0:0:
256,236,15646,1,0,0:0:0:0:
148,252,15896,1,2,0:0:0:0:
120,144,16146,2,0,P|160:52|328:104,1,300
372,184,17396,5,0,0:0:0:0:
332,280,17646,1,0,0:0:0:0:
240,336,17896,1,0,0:0:0:0:
144,288,18146,2,0,L|80:336,1,75,2|0,0:0|0:0,0:0:0:0:
140,132,18896,1,0,0:0:0:0:
224,72,19146,1,2,0:0:0:0:
256,172,19396,1,0,0:0:0:0:
340,112,19646,1,2,0:0:0:0:
380,208,19896,2,0,P|388:244|364:296,1,75
290,331,20396,2,0,P|280:296|288:260,1,75,2|0,0:0|0:0,0:0:0:0:
184,352,20896,2,0,L|128:292,1,75,2|0,0:0|0:0,0:0:0:0:
60,224,21396,5,0,0:0:0:0:
112,132,21646,1,0,0:0:0:0:
200,80,21896,1,0,0:0:0:0:
304,56,22146,2,0,L|392:40,1,75,2|0,0:0|0:0,0:0:0:0:
272,160,22896,1,0,0:0:0:0:
180,216,23146,2,0,P|152:180|152:144,1,75,2|0,0:0|0:0,0:0:0:0:
248,288,23646,2,0,P|212:316|176:316,1,75,2|0,0:0|0:0,0:0:0:0:
340,240,24146,2,0,P|368:276|368:312,1,75,2|0,0:0|0:0,0:0:0:0:
248,288,24646,1,0,0:0:0:0:
168,176,24896,1,0,0:0:0:0:
236,64,25146,1,2,0:0:0:0:
232,60,25646,6,0,B|296:80|324:24|404:68,1,150,2|0,0:0|0:0,0:0:0:0:
448,136,26396,1,2,0:0:0:0:
380,292,26896,1,0,0:0:0:0:
380,292,27146,2,0,B|332:276|280:296,1,75
224,352,27646,2,0,P|200:320|192:276,1,75,2|0,0:0|0:0,0:0:0:0:
252,200,28146,2,0,P|200:180|152:200,1,75,2|0,0:0|0:0,0:0:0:0:
96,236,28646,2,0,P|64:264|24:280,2,75,0|2|0,0:0|0:0|0:0,0:0:0:0:
232,68,29646,6,0,P|308:56|396:80,1,150,0|2,0:0|0:0,0:0:0:0:
288,140,30396,2,0,P|232:152|200:144,1,75
136,96,30896,1,2,0:0:0:0:
124,244,31146,1,0,0:0:0:0:
76,168,31396,1,0,0:0:0:0:
212,232,31646,1,0,0:0:0:0:
276,300,31896,1,2,0:0:0:0:
316,216,32146,2,0,B|368:240|372:304|372:304|400:156|480:128,1,300,2|0,0:0|0:0,0:0:0:0:
480,56,33396,5,0,0:0:0:0:
392,72,33646,2,0,P|356:108|336:144,1,75,2|0,0:0|0:0,0:0:0:0:
248,160,34146,2,0,B|208:252|280:288|280:288|140:348,1,300
44,300,35396,1,0,0:0:0:0:
132,248,35646,1,2,0:0:0:0:
40,192,35896,1,0,0:0:0:0:
132,140,36146,1,2,0:0:0:0:
232,88,36396,1,0,0:0:0:0:
384,144,36646,1,2,0:0:0:0:
388,296,36896,1,0,0:0:0:0:
232,360,37146,1,2,0:0:0:0:
128,336,37396,6,0,L|152:252,1,75,0|2,0:0|0:0,0:0:0:0:
88,192,37896,1,0,0:0:0:0:
148,263,38146,2,0,B|232:220|312:264|312:264|240:140,1,300,2|0,0:0|0:0,0:0:0:0:
260,56,39396,1,0,0:0:0:0:
340,108,39646,2,0,L|392:192,2,75,2|0|2,0:0|0:0|0:0,0:0:0:0:
260,56,40396,1,0,0:0:0:0:
112,124,40646,1,2,0:0:0:0:
260,200,40896,1,0,0:0:0:0:
112,268,41146,1,2,0:0:0:0:
260,344,41646,6,0,P|344:312|352:252,1,150
260,244,42396,1,2,0:0:0:0:
436,56,42896,1,0,0:0:0:0:
344,68,43146,2,0,P|368:112|408:132,1,75,2|0,0:0|0:0,0:0:0:0:
472,136,43646,1,2,0:0:0:0:
436,56,43896,1,0,0:0:0:0:
344,72,44146,2,0,L|256:52,1,75,2|0,0:0|0:0,0:0:0:0:
168,88,44646,1,0,0:0:0:0:
80,240,44896,1,2,0:0:0:0:
236,320,45146,1,0,0:0:0:0:
424,244,45646,6,0,B|476:196|388:140|480:84,1,150
364,36,46396,2,0,P|340:80|336:132,1,75,0|2,0:0|0:0,0:0:0:0:
344,192,46896,1,0,0:0:0:0:
248,152,47146,1,2,0:0:0:0:
84,176,47396,1,0,0:0:0:0:
132,252,47646,1,0,0:0:0:0:
160,104,47896,1,2,0:0:0:0:
224,244,48146,2,0,P|200:320|120:344,2,150,2|2|0,0:0|0:0|0:0,0:0:0:0:
128,256,49396,5,0,0:0:0:0:
284,352,49646,1,0,0:0:0:0:
436,256,49896,1,0,0:0:0:0:
280,163,50146,2,0,B|320:72|320:72|408:172|496:72,1,300,2|0,0:0|0:0,0:0:0:0:
408,36,51396,1,0,0:0:0:0:
324,80,51646,1,2,0:0:0:0:
280,163,51896,1,0,0:0:0:0:
320,248,52146,2,0,P|280:264|236:252,1,75,2|0,0:0|0:0,0:0:0:0:
172,196,52646,2,0,P|144:240|144:280,1,75,2|0,0:0|0:0,0:0:0:0:
280,163,53146,1,2,0:0:0:0:
340,88,53396,5,0,0:0:0:0:
436,48,53646,2,0,L|460:128,1,75
480,220,54146,2,0,B|396:256|392:344|392:344|272:264,1,300,2|0,0:0|0:0,0:0:0:0:
168,308,55396,2,0,L|240:352,2,75,0|2|0,0:0|0:0|0:0,0:0:0:0:
88,244,56146,1,2,0:0:0:0:
152,172,56396,1,0,0:0:0:0:
228,228,56646,1,2,0:0:0:0:
168,308,56896,1,0,0:0:0:0:
88,244,57146,1,2,0:0:0:0:
216,96,57646,5,0,0:0:0:0:
216,96,58146,2,0,B|384:24|384:24|316:136,1,300,2|0,0:0|0:0,0:0:0:0:
276,216,59396,2,0,P|324:220|360:200,1,75,0|2,0:0|0:0,0:0:0:0:
416,144,59896,1,0,0:0:0:0:
436,244,60146,1,2,0:0:0:0:
364,308,60396,1,0,0:0:0:0:
440,244,60646,1,0,0:0:0:0:
347,209,60896,1,2,0:0:0:0:
420,148,61146,1,0,0:0:0:0:
216,96,61646,6,0,B|136:44|136:44|136:104,1,150,0|2,0:0|0:0,0:0:0:0:
60,164,62396,2,0,P|100:192|136:196,1,75
212,184,62896,1,2,0:0:0:0:
192,276,63146,1,0,0:0:0:0:
272,336,63396,2,0,P|232:364|196:368,1,75
120,332,63896,1,2,0:0:0:0:
192,276,64146,2,0,P|264:248|352:296,2,150,2|2|0,0:0|0:0|0:0,0:0:0:0:
424,320,66416,6,0,L|401:209,1,112.5,2|0,0:0|0:0,0:0:0:0:
332,96,67161,1,0,0:0:0:0:
256,200,67534,1,2,0:0:0:0:
180,96,67907,1,0,0:0:0:0:
108,212,68279,2,0,L|77:358,2,150,0|0|2,0:0|0:0|0:0,0:0:0:0:
256,192,69397,12,6,70888,0:0:0:0:
