osu file format v12

[General]
AudioFilename: Iceman - Shining Collection.MP3
AudioLeadIn: 0
PreviewTime: 50823
Countdown: 0
SampleSet: Soft
StackLeniency: 0.7
Mode: 3
LetterboxInBreaks: 0
SpecialStyle: 0
WidescreenStoryboard: 1

[Editor]
Bookmarks: 63565,144035,151094,162388
DistanceSpacing: 0.8
BeatDivisor: 4
GridSize: 8
TimelineZoom: 1

[Metadata]
Title:Shining Collection
TitleUnicode:Shining Collection
Artist:Iceman
ArtistUnicode:Iceman
Creator:ishimaru94
Version:NM
Source:Gravitation
Tags:erox expew taiko_maniac1811 o2jamstyle sdo-x xdo j-rock
BeatmapID:309710
BeatmapSetID:106013

[Difficulty]
HPDrainRate:7
CircleSize:7
OverallDifficulty:7
ApproachRate:5
SliderMultiplier:1.4
SliderTickRate:1

[Events]
//Background and Video events
0,0,"shining_collection__edited__by_mikumikuo2rpg-d76nu15.jpg",0,0
//Break Periods
//Storyboard Layer 0 (Background)
//Storyboard Layer 1 (Fail)
//Storyboard Layer 2 (Pass)
//Storyboard Layer 3 (Foreground)
//Storyboard Sound Samples
//Background Colour Transformations
3,100,163,162,255

[TimingPoints]
36,352.941176470588,4,2,1,5,1,0
50859,-100,4,2,1,5,0,1
73447,-100,4,2,1,5,0,0
84741,-133.333333333333,4,2,1,5,0,0
112977,-100,4,2,1,5,0,0
131330,-100,4,2,1,5,0,1
176506,-100,4,2,1,5,0,0

[HitObjects]
182,192,4271,128,2,4624:0:0:0:0:
256,192,4624,128,2,4977:0:0:0:0:
329,192,4977,128,2,5683:0:0:0:0:
256,192,5683,128,2,6388:0:0:0:0:
182,192,6388,128,2,7094:0:0:0:0:
402,192,7094,128,2,7447:0:0:0:0:
256,192,7447,128,2,7800:0:0:0:0:
109,192,7800,128,2,8506:0:0:0:0:
256,192,8506,128,2,9212:0:0:0:0:
402,192,9212,128,2,9918:0:0:0:0:
109,192,9918,1,0,0:0:0:0:
256,192,10271,1,8,0:0:0:0:
475,192,10624,1,0,0:0:0:0:
329,192,10977,1,8,0:0:0:0:
36,192,11330,1,0,0:0:0:0:
182,192,11683,1,8,0:0:0:0:
402,192,12035,1,0,0:0:0:0:
256,192,12388,1,8,0:0:0:0:
36,192,12741,1,0,0:0:0:0:
475,192,12741,1,0,0:0:0:0:
182,192,13094,1,8,0:0:0:0:
329,192,13094,1,0,0:0:0:0:
109,192,13447,1,0,0:0:0:0:
402,192,13447,1,0,0:0:0:0:
329,192,13800,1,8,0:0:0:0:
182,192,13800,1,0,0:0:0:0:
36,192,14153,128,0,15565:0:0:0:0:
475,192,14153,128,0,15565:0:0:0:0:
402,192,15565,1,4,0:0:0:0:
109,192,15741,1,0,0:0:0:0:
182,192,15918,1,8,0:0:0:0:
256,192,16094,1,0,0:0:0:0:
329,192,16271,1,8,0:0:0:0:
256,192,16447,1,0,0:0:0:0:
182,192,16624,1,8,0:0:0:0:
109,192,16800,1,0,0:0:0:0:
36,192,16977,1,8,0:0:0:0:
182,192,17153,1,0,0:0:0:0:
329,192,17330,1,8,0:0:0:0:
182,192,17506,1,0,0:0:0:0:
36,192,17683,128,8,18388:0:0:0:0:
475,192,18388,1,8,0:0:0:0:
182,192,18565,1,0,0:0:0:0:
256,192,18741,1,8,0:0:0:0:
329,192,18918,1,0,0:0:0:0:
402,192,19094,1,8,0:0:0:0:
329,192,19271,1,0,0:0:0:0:
256,192,19447,1,8,0:0:0:0:
182,192,19624,1,0,0:0:0:0:
109,192,19800,1,8,0:0:0:0:
182,192,19977,1,0,0:0:0:0:
256,192,20153,1,8,0:0:0:0:
329,192,20330,1,0,0:0:0:0:
402,192,20506,128,8,21212:0:0:0:0:
109,192,21212,1,4,0:0:0:0:
402,192,21388,1,0,0:0:0:0:
329,192,21565,1,8,0:0:0:0:
256,192,21741,1,0,0:0:0:0:
182,192,21918,1,8,0:0:0:0:
256,192,22094,1,0,0:0:0:0:
329,192,22271,1,8,0:0:0:0:
402,192,22447,1,0,0:0:0:0:
475,192,22624,1,8,0:0:0:0:
329,192,22800,1,0,0:0:0:0:
182,192,22977,1,8,0:0:0:0:
329,192,23153,1,0,0:0:0:0:
475,192,23330,128,8,24035:0:0:0:0:
36,192,24035,1,8,0:0:0:0:
329,192,24212,1,0,0:0:0:0:
256,192,24388,1,8,0:0:0:0:
182,192,24565,1,0,0:0:0:0:
109,192,24741,1,8,0:0:0:0:
182,192,24918,1,0,0:0:0:0:
256,192,25094,1,8,0:0:0:0:
329,192,25271,1,0,0:0:0:0:
402,192,25447,1,8,0:0:0:0:
329,192,25624,1,0,0:0:0:0:
256,192,25800,1,8,0:0:0:0:
402,192,25977,1,0,0:0:0:0:
36,192,26153,128,0,26859:0:0:0:0:
475,192,26153,1,8,0:0:0:0:
182,192,26153,128,0,26859:0:0:0:0:
329,192,26330,1,0,0:0:0:0:
475,192,26506,1,8,0:0:0:0:
329,192,26683,1,0,0:0:0:0:
475,192,26859,1,4,0:0:0:0:
402,192,27035,1,0,0:0:0:0:
256,192,27212,1,2,0:0:0:0:
329,192,27388,1,0,0:0:0:0:
109,192,27565,1,8,0:0:0:0:
182,192,27741,1,0,0:0:0:0:
256,192,27918,128,2,28094:0:0:0:0:
329,192,28271,1,8,0:0:0:0:
402,192,28447,1,0,0:0:0:0:
256,192,28624,1,2,0:0:0:0:
182,192,28800,1,0,0:0:0:0:
36,192,28977,1,8,0:0:0:0:
109,192,29153,1,0,0:0:0:0:
256,192,29330,128,2,29506:0:0:0:0:
402,192,29683,1,8,0:0:0:0:
329,192,29859,1,0,0:0:0:0:
256,192,30035,1,2,0:0:0:0:
329,192,30212,1,0,0:0:0:0:
109,192,30388,1,8,0:0:0:0:
182,192,30565,1,0,0:0:0:0:
256,192,30741,1,2,0:0:0:0:
182,192,30918,1,0,0:0:0:0:
402,192,31094,128,8,31800:0:0:0:0:
109,192,31800,128,2,32506:0:0:0:0:
256,192,32506,1,8,0:0:0:0:
402,192,32683,1,0,0:0:0:0:
182,192,32859,1,2,0:0:0:0:
329,192,33035,1,0,0:0:0:0:
109,192,33212,1,8,0:0:0:0:
256,192,33388,1,0,0:0:0:0:
36,192,33565,128,2,33741:0:0:0:0:
256,192,33918,1,8,0:0:0:0:
109,192,34094,1,0,0:0:0:0:
329,192,34271,1,2,0:0:0:0:
182,192,34447,1,0,0:0:0:0:
402,192,34624,1,8,0:0:0:0:
256,192,34800,1,0,0:0:0:0:
475,192,34977,128,2,35153:0:0:0:0:
182,192,35330,1,8,0:0:0:0:
36,192,35506,1,0,0:0:0:0:
256,192,35683,1,2,0:0:0:0:
109,192,35859,1,0,0:0:0:0:
329,192,36035,1,8,0:0:0:0:
475,192,36212,1,0,0:0:0:0:
256,192,36388,1,2,0:0:0:0:
402,192,36565,1,0,0:0:0:0:
109,192,36741,128,8,37447:0:0:0:0:
402,192,37447,128,2,38153:0:0:0:0:
256,192,38153,1,0,0:0:0:0:
475,192,38153,1,4,0:0:0:0:
109,192,38506,1,0,0:0:0:0:
329,192,38506,1,2,0:0:0:0:
182,192,38859,1,0,0:0:0:0:
402,192,38859,1,8,0:0:0:0:
36,192,39212,1,0,0:0:0:0:
256,192,39212,1,2,0:0:0:0:
402,192,39565,1,8,0:0:0:0:
329,192,39741,1,0,0:0:0:0:
109,192,39918,1,2,0:0:0:0:
182,192,40094,1,0,0:0:0:0:
256,192,40271,128,8,40800:0:0:0:0:
329,192,40800,1,0,0:0:0:0:
402,192,40977,1,8,0:0:0:0:
182,192,40977,1,0,0:0:0:0:
109,192,41330,1,0,0:0:0:0:
329,192,41330,1,2,0:0:0:0:
256,192,41683,1,0,0:0:0:0:
475,192,41683,1,8,0:0:0:0:
36,192,42035,1,0,0:0:0:0:
329,192,42035,1,2,0:0:0:0:
182,192,42388,1,8,0:0:0:0:
109,192,42565,1,0,0:0:0:0:
329,192,42741,1,2,0:0:0:0:
402,192,42918,1,0,0:0:0:0:
256,192,43094,128,8,43800:0:0:0:0:
109,192,43800,1,0,0:0:0:0:
475,192,43800,1,4,0:0:0:0:
402,192,44153,1,2,0:0:0:0:
182,192,44153,1,0,0:0:0:0:
109,192,44506,1,0,0:0:0:0:
329,192,44506,1,8,0:0:0:0:
36,192,44859,1,0,0:0:0:0:
256,192,44859,1,2,0:0:0:0:
475,192,45212,1,8,0:0:0:0:
329,192,45388,1,0,0:0:0:0:
36,192,45565,1,2,0:0:0:0:
182,192,45741,1,0,0:0:0:0:
256,192,45918,128,8,46447:0:0:0:0:
329,192,46447,1,0,0:0:0:0:
475,192,46624,1,8,0:0:0:0:
182,192,46624,1,0,0:0:0:0:
36,192,46977,1,0,0:0:0:0:
329,192,46977,1,2,0:0:0:0:
182,192,47330,1,0,0:0:0:0:
402,192,47330,1,8,0:0:0:0:
329,192,47683,1,2,0:0:0:0:
109,192,47683,1,0,0:0:0:0:
36,192,48035,1,8,0:0:0:0:
182,192,48300,1,8,0:0:0:0:
329,192,48565,1,2,0:0:0:0:
475,192,48741,128,8,49447:0:0:0:0:
182,192,49447,1,8,0:0:0:0:
329,192,49624,1,0,0:0:0:0:
182,192,49800,1,8,0:0:0:0:
329,192,49977,1,0,0:0:0:0:
182,192,50153,1,8,0:0:0:0:
402,192,50859,128,0,51565:0:0:0:0:
109,192,50859,1,4,0:0:0:0:
109,192,51565,128,8,52271:0:0:0:0:
475,192,52271,1,0,0:0:0:0:
402,192,52624,1,8,0:0:0:0:
329,192,52977,1,2,0:0:0:0:
256,192,53330,1,8,0:0:0:0:
329,192,53683,1,0,0:0:0:0:
182,192,54035,1,8,0:0:0:0:
256,192,54388,1,2,0:0:0:0:
329,192,54741,1,8,0:0:0:0:
182,192,55094,128,0,55800:0:0:0:0:
329,192,55800,1,0,0:0:0:0:
475,192,56153,1,8,0:0:0:0:
402,192,56506,128,0,57212:0:0:0:0:
109,192,57212,128,8,57918:0:0:0:0:
329,192,57741,1,0,0:0:0:0:
475,192,57918,1,0,0:0:0:0:
402,192,58271,1,8,0:0:0:0:
329,192,58624,1,2,0:0:0:0:
256,192,58977,1,8,0:0:0:0:
329,192,59330,128,0,60035:0:0:0:0:
109,192,60035,1,0,0:0:0:0:
256,192,60388,1,8,0:0:0:0:
36,192,60741,128,0,61447:0:0:0:0:
182,192,61447,1,8,0:0:0:0:
329,192,61624,1,0,0:0:0:0:
182,192,61800,1,8,0:0:0:0:
329,192,61977,1,0,0:0:0:0:
182,192,62153,1,4,0:0:0:0:
402,192,62153,128,0,62859:0:0:0:0:
109,192,62859,128,2,63565:0:0:0:0:
402,192,63565,1,0,0:0:0:0:
329,192,63918,1,2,0:0:0:0:
256,192,64271,1,8,0:0:0:0:
182,192,64624,1,2,0:0:0:0:
329,192,64977,1,8,0:0:0:0:
329,192,65241,1,8,0:0:0:0:
256,192,65506,1,2,0:0:0:0:
182,192,65683,1,8,0:0:0:0:
402,192,65947,1,8,0:0:0:0:
256,192,66212,1,2,0:0:0:0:
109,192,66388,128,8,67094:0:0:0:0:
182,192,67094,1,0,0:0:0:0:
329,192,67447,1,2,0:0:0:0:
402,192,67800,128,0,68506:0:0:0:0:
109,192,68506,128,2,69212:0:0:0:0:
256,192,69035,1,0,0:0:0:0:
402,192,69212,1,0,0:0:0:0:
329,192,69565,1,2,0:0:0:0:
109,192,69918,1,8,0:0:0:0:
182,192,70271,1,2,0:0:0:0:
329,192,70624,128,0,71153:0:0:0:0:
182,192,71153,1,2,0:0:0:0:
256,192,71330,128,0,73447:0:0:0:0:
109,192,72741,1,8,0:0:0:0:
402,192,72918,1,0,0:0:0:0:
109,192,73094,1,8,0:0:0:0:
402,192,73271,1,0,0:0:0:0:
109,192,73447,1,4,0:0:0:0:
475,192,73800,1,8,0:0:0:0:
475,192,74065,1,8,0:0:0:0:
329,192,74153,1,0,0:0:0:0:
256,192,74330,1,0,0:0:0:0:
109,192,74683,1,0,0:0:0:0:
402,192,74683,1,4,0:0:0:0:
256,192,75035,1,0,0:0:0:0:
36,192,75212,1,8,0:0:0:0:
329,192,75565,1,0,0:0:0:0:
182,192,75741,1,0,0:0:0:0:
36,192,75918,1,8,0:0:0:0:
109,192,76271,1,4,0:0:0:0:
402,192,76271,1,0,0:0:0:0:
475,192,76624,1,8,0:0:0:0:
329,192,76888,1,8,0:0:0:0:
475,192,76977,1,0,0:0:0:0:
256,192,77153,1,0,0:0:0:0:
109,192,77506,1,4,0:0:0:0:
402,192,77506,1,0,0:0:0:0:
256,192,77683,1,2,0:0:0:0:
182,192,78035,1,2,0:0:0:0:
329,192,78035,1,0,0:0:0:0:
109,192,78388,1,2,0:0:0:0:
402,192,78388,1,0,0:0:0:0:
36,192,78741,1,2,0:0:0:0:
475,192,78741,128,0,79094:0:0:0:0:
329,192,79094,128,4,81918:0:0:0:0:
109,192,79447,1,8,0:0:0:0:
256,192,79800,1,8,0:0:0:0:
182,192,80330,1,4,0:0:0:0:
36,192,80859,1,8,0:0:0:0:
109,192,81212,1,0,0:0:0:0:
256,192,81565,1,8,0:0:0:0:
182,192,81918,128,0,83330:0:0:0:0:
402,192,81918,128,4,82271:0:0:0:0:
256,192,82271,128,2,82624:0:0:0:0:
475,192,82624,128,2,82977:0:0:0:0:
329,192,82977,128,2,83330:0:0:0:0:
109,192,83330,128,2,83683:0:0:0:0:
256,192,83683,128,2,84035:0:0:0:0:
475,192,84035,1,8,0:0:0:0:
36,192,84035,128,2,84388:0:0:0:0:
329,192,84212,1,0,0:0:0:0:
475,192,84388,1,8,0:0:0:0:
182,192,84388,128,2,84741:0:0:0:0:
329,192,84565,1,0,0:0:0:0:
475,192,84741,1,4,0:0:0:0:
329,192,85271,1,0,0:0:0:0:
475,192,85447,1,8,0:0:0:0:
256,192,85977,1,0,0:0:0:0:
329,192,86153,1,0,0:0:0:0:
182,192,86506,1,0,0:0:0:0:
36,192,86859,1,8,0:0:0:0:
256,192,87565,1,0,0:0:0:0:
182,192,88094,1,0,0:0:0:0:
36,192,88271,1,8,0:0:0:0:
256,192,88624,1,0,0:0:0:0:
256,192,88977,1,0,0:0:0:0:
329,192,89506,1,0,0:0:0:0:
475,192,89683,1,8,0:0:0:0:
256,192,90035,1,0,0:0:0:0:
256,192,90388,1,0,0:0:0:0:
109,192,90918,1,0,0:0:0:0:
36,192,91094,1,8,0:0:0:0:
329,192,91624,1,0,0:0:0:0:
182,192,91800,1,0,0:0:0:0:
402,192,92153,1,0,0:0:0:0:
475,192,92506,1,8,0:0:0:0:
402,192,93035,1,0,0:0:0:0:
256,192,93124,1,0,0:0:0:0:
109,192,93212,1,0,0:0:0:0:
402,192,93741,1,0,0:0:0:0:
475,192,93918,1,8,0:0:0:0:
256,192,94271,1,0,0:0:0:0:
256,192,94624,1,0,0:0:0:0:
109,192,95153,1,0,0:0:0:0:
36,192,95330,1,8,0:0:0:0:
256,192,95594,1,0,0:0:0:0:
256,192,95859,1,0,0:0:0:0:
109,192,96035,1,4,0:0:0:0:
402,192,96035,1,0,0:0:0:0:
475,192,96565,1,0,0:0:0:0:
329,192,96741,1,8,0:0:0:0:
182,192,97271,1,0,0:0:0:0:
256,192,97447,1,0,0:0:0:0:
36,192,97800,1,0,0:0:0:0:
182,192,98153,1,8,0:0:0:0:
256,192,98506,1,0,0:0:0:0:
256,192,98859,1,0,0:0:0:0:
36,192,99388,1,0,0:0:0:0:
182,192,99565,1,8,0:0:0:0:
256,192,99918,1,0,0:0:0:0:
256,192,100271,1,0,0:0:0:0:
475,192,100800,1,0,0:0:0:0:
329,192,100977,1,8,0:0:0:0:
256,192,101241,1,0,0:0:0:0:
256,192,101506,1,0,0:0:0:0:
109,192,101683,1,0,0:0:0:0:
402,192,101683,1,4,0:0:0:0:
36,192,102212,1,0,0:0:0:0:
109,192,102388,1,8,0:0:0:0:
256,192,102741,1,0,0:0:0:0:
256,192,103094,1,0,0:0:0:0:
475,192,103624,1,0,0:0:0:0:
402,192,103800,1,8,0:0:0:0:
109,192,104330,1,0,0:0:0:0:
256,192,104418,1,0,0:0:0:0:
402,192,104506,1,0,0:0:0:0:
475,192,105035,1,0,0:0:0:0:
402,192,105212,1,8,0:0:0:0:
256,192,105565,1,0,0:0:0:0:
256,192,105918,1,0,0:0:0:0:
36,192,106447,1,0,0:0:0:0:
109,192,106624,1,8,0:0:0:0:
256,192,106888,1,0,0:0:0:0:
256,192,107153,1,0,0:0:0:0:
109,192,108035,128,8,112977:0:0:0:0:
402,192,108035,128,2,112977:0:0:0:0:
256,192,109977,128,2,112977:0:0:0:0:
36,192,112977,1,0,0:0:0:0:
475,192,113330,1,8,0:0:0:0:
36,192,113683,1,0,0:0:0:0:
475,192,114035,1,8,0:0:0:0:
109,192,114388,1,0,0:0:0:0:
402,192,114741,1,8,0:0:0:0:
109,192,115094,1,0,0:0:0:0:
402,192,115447,1,8,0:0:0:0:
402,192,115624,1,8,0:0:0:0:
182,192,115800,1,0,0:0:0:0:
329,192,116153,1,8,0:0:0:0:
182,192,116506,1,0,0:0:0:0:
329,192,116859,1,8,0:0:0:0:
109,192,117212,1,8,0:0:0:0:
402,192,117388,1,0,0:0:0:0:
109,192,117565,1,8,0:0:0:0:
402,192,117741,1,0,0:0:0:0:
109,192,117918,1,8,0:0:0:0:
402,192,118094,1,0,0:0:0:0:
109,192,118271,1,8,0:0:0:0:
402,192,118447,1,0,0:0:0:0:
109,192,118624,1,4,0:0:0:0:
402,192,118800,1,0,0:0:0:0:
329,192,118977,1,8,0:0:0:0:
256,192,119153,1,0,0:0:0:0:
182,192,119330,1,8,0:0:0:0:
256,192,119506,1,0,0:0:0:0:
329,192,119683,1,8,0:0:0:0:
402,192,119859,1,0,0:0:0:0:
475,192,120035,1,8,0:0:0:0:
256,192,120212,1,0,0:0:0:0:
36,192,120388,1,8,0:0:0:0:
256,192,120565,1,0,0:0:0:0:
475,192,120741,128,8,121447:0:0:0:0:
36,192,121447,1,8,0:0:0:0:
329,192,121624,1,0,0:0:0:0:
256,192,121800,1,8,0:0:0:0:
182,192,121977,1,0,0:0:0:0:
109,192,122153,1,8,0:0:0:0:
182,192,122330,1,0,0:0:0:0:
256,192,122506,1,8,0:0:0:0:
329,192,122683,1,0,0:0:0:0:
402,192,122859,1,8,0:0:0:0:
329,192,123035,1,0,0:0:0:0:
182,192,123212,1,8,0:0:0:0:
109,192,123388,1,0,0:0:0:0:
36,192,123565,128,8,124271:0:0:0:0:
402,192,124271,1,4,0:0:0:0:
109,192,124447,1,0,0:0:0:0:
182,192,124624,1,8,0:0:0:0:
256,192,124800,1,0,0:0:0:0:
329,192,124977,1,8,0:0:0:0:
256,192,125153,1,0,0:0:0:0:
182,192,125330,1,8,0:0:0:0:
109,192,125506,1,0,0:0:0:0:
36,192,125683,1,8,0:0:0:0:
256,192,125859,1,0,0:0:0:0:
475,192,126035,1,8,0:0:0:0:
256,192,126212,1,0,0:0:0:0:
36,192,126388,128,8,127094:0:0:0:0:
475,192,127094,1,8,0:0:0:0:
182,192,127271,1,0,0:0:0:0:
256,192,127447,1,8,0:0:0:0:
329,192,127624,1,0,0:0:0:0:
402,192,127800,1,8,0:0:0:0:
329,192,127977,1,0,0:0:0:0:
256,192,128153,1,8,0:0:0:0:
182,192,128330,1,0,0:0:0:0:
109,192,128506,1,8,0:0:0:0:
256,192,128683,1,0,0:0:0:0:
402,192,128859,1,8,0:0:0:0:
36,192,129035,1,0,0:0:0:0:
475,192,129212,128,0,129918:0:0:0:0:
182,192,129212,1,8,0:0:0:0:
329,192,129388,1,0,0:0:0:0:
109,192,129565,1,8,0:0:0:0:
256,192,129741,1,0,0:0:0:0:
182,192,131330,128,4,132035:0:0:0:0:
329,192,132035,128,8,132741:0:0:0:0:
36,192,132741,1,0,0:0:0:0:
109,192,133094,1,8,0:0:0:0:
182,192,133447,1,2,0:0:0:0:
256,192,133800,1,8,0:0:0:0:
182,192,134153,1,0,0:0:0:0:
329,192,134506,1,8,0:0:0:0:
256,192,134859,1,2,0:0:0:0:
182,192,135212,1,8,0:0:0:0:
329,192,135565,128,0,136271:0:0:0:0:
182,192,136271,1,0,0:0:0:0:
36,192,136624,1,8,0:0:0:0:
329,192,136977,128,0,137683:0:0:0:0:
182,192,137683,128,8,138388:0:0:0:0:
256,192,138212,1,0,0:0:0:0:
36,192,138388,1,0,0:0:0:0:
109,192,138741,1,8,0:0:0:0:
182,192,139094,1,2,0:0:0:0:
256,192,139447,1,8,0:0:0:0:
109,192,139800,1,0,0:0:0:0:
402,192,140153,1,8,0:0:0:0:
182,192,140506,1,2,0:0:0:0:
329,192,140859,1,8,0:0:0:0:
256,192,141212,128,0,141918:0:0:0:0:
109,192,141918,1,8,0:0:0:0:
402,192,142094,1,0,0:0:0:0:
109,192,142271,1,8,0:0:0:0:
402,192,142447,1,0,0:0:0:0:
329,192,142624,128,0,143330:0:0:0:0:
109,192,142624,1,4,0:0:0:0:
182,192,143330,128,2,144035:0:0:0:0:
109,192,144035,1,0,0:0:0:0:
182,192,144388,1,2,0:0:0:0:
256,192,144741,1,8,0:0:0:0:
329,192,145094,1,2,0:0:0:0:
109,192,145447,1,8,0:0:0:0:
109,192,145712,1,8,0:0:0:0:
256,192,145977,1,2,0:0:0:0:
402,192,146153,1,8,0:0:0:0:
182,192,146418,1,8,0:0:0:0:
256,192,146683,1,2,0:0:0:0:
329,192,146859,128,8,147565:0:0:0:0:
182,192,147565,1,0,0:0:0:0:
36,192,147918,1,2,0:0:0:0:
329,192,148271,128,0,148977:0:0:0:0:
182,192,148977,128,2,149683:0:0:0:0:
256,192,149506,1,0,0:0:0:0:
329,192,149683,1,0,0:0:0:0:
402,192,150035,1,2,0:0:0:0:
182,192,150388,1,8,0:0:0:0:
109,192,150741,1,2,0:0:0:0:
402,192,151094,128,0,151624:0:0:0:0:
109,192,151624,1,2,0:0:0:0:
256,192,151800,128,0,152859:0:0:0:0:
182,192,153212,1,8,0:0:0:0:
329,192,153388,1,0,0:0:0:0:
182,192,153565,1,8,0:0:0:0:
329,192,153741,1,0,0:0:0:0:
402,192,153918,128,0,154624:0:0:0:0:
182,192,153918,1,4,0:0:0:0:
109,192,154624,128,8,155330:0:0:0:0:
402,192,155330,1,0,0:0:0:0:
329,192,155683,1,8,0:0:0:0:
182,192,156035,1,2,0:0:0:0:
109,192,156388,1,8,0:0:0:0:
256,192,156741,1,0,0:0:0:0:
256,192,157094,1,8,0:0:0:0:
109,192,157447,1,2,0:0:0:0:
256,192,157800,1,8,0:0:0:0:
36,192,158153,128,0,158859:0:0:0:0:
182,192,158859,1,0,0:0:0:0:
329,192,159212,1,8,0:0:0:0:
402,192,159565,128,0,160271:0:0:0:0:
109,192,160271,128,8,160977:0:0:0:0:
256,192,160800,1,0,0:0:0:0:
475,192,160977,1,0,0:0:0:0:
402,192,161330,1,8,0:0:0:0:
109,192,161683,1,2,0:0:0:0:
36,192,162035,1,8,0:0:0:0:
256,192,162388,128,0,163094:0:0:0:0:
402,192,163094,1,0,0:0:0:0:
329,192,163447,1,8,0:0:0:0:
475,192,163800,128,0,164506:0:0:0:0:
182,192,164506,1,8,0:0:0:0:
329,192,164683,1,0,0:0:0:0:
182,192,164859,1,8,0:0:0:0:
329,192,165035,1,0,0:0:0:0:
109,192,165212,128,0,165918:0:0:0:0:
182,192,165212,1,4,0:0:0:0:
402,192,165918,128,2,166624:0:0:0:0:
109,192,166624,1,0,0:0:0:0:
182,192,166977,1,2,0:0:0:0:
329,192,167330,1,8,0:0:0:0:
402,192,167683,1,2,0:0:0:0:
36,192,168035,1,8,0:0:0:0:
109,192,168300,1,8,0:0:0:0:
182,192,168565,1,2,0:0:0:0:
475,192,168741,1,8,0:0:0:0:
402,192,169006,1,8,0:0:0:0:
329,192,169271,1,2,0:0:0:0:
256,192,169447,128,8,170153:0:0:0:0:
475,192,170153,5,0,0:0:0:0:
36,192,170506,1,2,0:0:0:0:
402,192,170859,128,0,171565:0:0:0:0:
109,192,171565,128,2,172271:0:0:0:0:
256,192,172094,1,0,0:0:0:0:
36,192,172271,1,0,0:0:0:0:
182,192,172624,1,2,0:0:0:0:
475,192,172977,1,8,0:0:0:0:
329,192,173330,1,2,0:0:0:0:
182,192,173683,128,0,174212:0:0:0:0:
329,192,174212,1,2,0:0:0:0:
109,192,174388,128,0,176506:0:0:0:0:
402,192,174388,128,0,176506:0:0:0:0:
182,192,175094,1,8,0:0:0:0:
329,192,175271,1,0,0:0:0:0:
182,192,175447,1,8,0:0:0:0:
329,192,175624,1,0,0:0:0:0:
182,192,175800,1,8,0:0:0:0:
329,192,175977,1,0,0:0:0:0:
182,192,176153,1,8,0:0:0:0:
329,192,176330,1,0,0:0:0:0:
182,192,176506,1,4,0:0:0:0:
475,192,176506,128,0,177212:0:0:0:0:
36,192,177212,128,8,177918:0:0:0:0:
475,192,177918,1,0,0:0:0:0:
402,192,178271,1,8,0:0:0:0:
329,192,178624,1,2,0:0:0:0:
256,192,178977,1,8,0:0:0:0:
329,192,179330,128,0,180035:0:0:0:0:
256,192,180035,1,0,0:0:0:0:
329,192,180388,1,8,0:0:0:0:
182,192,180741,128,0,181447:0:0:0:0:
256,192,181447,1,0,0:0:0:0:
402,192,181800,1,8,0:0:0:0:
475,192,182153,128,0,182859:0:0:0:0:
36,192,182859,128,8,183565:0:0:0:0:
256,192,183565,1,0,0:0:0:0:
182,192,183918,1,8,0:0:0:0:
109,192,184271,1,2,0:0:0:0:
36,192,184624,1,8,0:0:0:0:
256,192,184977,1,0,0:0:0:0:
182,192,185330,1,8,0:0:0:0:
256,192,185683,1,2,0:0:0:0:
329,192,186035,1,8,0:0:0:0:
256,192,186388,128,0,187094:0:0:0:0:
109,192,187094,1,8,0:0:0:0:
402,192,187271,1,0,0:0:0:0:
109,192,187447,1,8,0:0:0:0:
402,192,187624,1,0,0:0:0:0:
36,192,187800,128,0,188506:0:0:0:0:
109,192,187800,1,4,0:0:0:0:
475,192,188506,128,2,189212:0:0:0:0:
36,192,189212,1,0,0:0:0:0:
109,192,189565,1,2,0:0:0:0:
182,192,189918,1,8,0:0:0:0:
256,192,190271,1,2,0:0:0:0:
182,192,190624,128,0,191330:0:0:0:0:
256,192,191330,1,0,0:0:0:0:
182,192,191683,1,2,0:0:0:0:
329,192,192035,128,0,192741:0:0:0:0:
256,192,192741,5,0,0:0:0:0:
109,192,193094,1,2,0:0:0:0:
36,192,193447,128,0,194153:0:0:0:0:
475,192,194153,128,2,194859:0:0:0:0:
109,192,194859,1,0,0:0:0:0:
256,192,195212,1,2,0:0:0:0:
329,192,195565,128,0,196271:0:0:0:0:
475,192,195565,128,0,196271:0:0:0:0:
36,192,195565,1,8,0:0:0:0:
182,192,195741,1,0,0:0:0:0:
36,192,195918,1,8,0:0:0:0:
182,192,196094,1,0,0:0:0:0:
36,192,196271,1,4,0:0:0:0:
256,192,196447,1,0,0:0:0:0:
182,192,196624,1,8,0:0:0:0:
109,192,196800,1,0,0:0:0:0:
36,192,196977,1,8,0:0:0:0:
109,192,197153,1,0,0:0:0:0:
182,192,197330,1,8,0:0:0:0:
256,192,197506,1,0,0:0:0:0:
329,192,197683,1,8,0:0:0:0:
182,192,197859,1,0,0:0:0:0:
36,192,198035,1,8,0:0:0:0:
182,192,198212,1,0,0:0:0:0:
329,192,198388,128,8,199094:0:0:0:0:
475,192,199094,1,8,0:0:0:0:
256,192,199271,1,0,0:0:0:0:
329,192,199447,1,8,0:0:0:0:
402,192,199624,1,0,0:0:0:0:
475,192,199800,1,8,0:0:0:0:
402,192,199977,1,0,0:0:0:0:
329,192,200153,1,8,0:0:0:0:
256,192,200330,1,0,0:0:0:0:
182,192,200506,1,8,0:0:0:0:
256,192,200683,1,0,0:0:0:0:
329,192,200859,1,8,0:0:0:0:
402,192,201035,1,0,0:0:0:0:
475,192,201212,128,8,201918:0:0:0:0:
256,192,201918,1,4,0:0:0:0:
109,192,202094,1,0,0:0:0:0:
182,192,202271,1,8,0:0:0:0:
329,192,202447,1,0,0:0:0:0:
402,192,202624,1,8,0:0:0:0:
329,192,202800,1,0,0:0:0:0:
182,192,202977,1,8,0:0:0:0:
109,192,203153,1,0,0:0:0:0:
36,192,203330,1,8,0:0:0:0:
256,192,203506,1,0,0:0:0:0:
475,192,203683,1,8,0:0:0:0:
256,192,203859,1,0,0:0:0:0:
36,192,204035,128,8,204741:0:0:0:0:
256,192,204741,1,8,0:0:0:0:
402,192,204918,1,0,0:0:0:0:
329,192,205094,1,8,0:0:0:0:
182,192,205271,1,0,0:0:0:0:
109,192,205447,1,8,0:0:0:0:
182,192,205624,1,0,0:0:0:0:
329,192,205800,1,8,0:0:0:0:
402,192,205977,1,0,0:0:0:0:
256,192,206153,1,8,0:0:0:0:
182,192,206330,1,0,0:0:0:0:
329,192,206330,1,0,0:0:0:0:
109,192,206506,1,0,0:0:0:0:
402,192,206506,1,8,0:0:0:0:
256,192,206683,1,0,0:0:0:0:
36,192,206859,128,0,207565:0:0:0:0:
475,192,206859,128,0,207565:0:0:0:0:
182,192,206859,1,8,0:0:0:0:
329,192,207035,1,0,0:0:0:0:
182,192,207212,1,8,0:0:0:0:
329,192,207388,1,0,0:0:0:0:
109,192,207565,1,8,0:0:0:0:
402,192,207741,1,0,0:0:0:0:
109,192,207918,5,8,0:0:0:0:
402,192,208094,1,0,0:0:0:0:
36,192,208271,128,8,208624:0:0:0:0:
475,192,208624,128,2,208977:0:0:0:0:
256,192,208977,128,4,217447:0:0:0:0:
109,192,210388,128,0,217447:0:0:0:0:
402,192,210388,128,2,217447:0:0:0:0:
