osu file format v12

[General]
AudioFilename: Iceman - Gate II - 09 Shining Collection.mp3
AudioLeadIn: 2
PreviewTime: 100154
Countdown: 0
SampleSet: None
StackLeniency: 0.7
Mode: 3
LetterboxInBreaks: 0
SpecialStyle: 0
WidescreenStoryboard: 0

[Editor]
DistanceSpacing: 0.8
BeatDivisor: 8
GridSize: 8
TimelineZoom: 1

[Metadata]
Title:Shining Collection
TitleUnicode:Shining Collection
Artist:Iceman
ArtistUnicode:Iceman
Creator:MasterSonic10
Version:4k MX
Source:Stepmania
Tags:Stepmania
BeatmapID:411492
BeatmapSetID:169954

[Difficulty]
HPDrainRate:5
CircleSize:4
OverallDifficulty:7
ApproachRate:10
SliderMultiplier:1.4
SliderTickRate:1

[Events]
//Background and Video events
0,0,"background.jpg",0,0
//Break Periods
//Storyboard Layer 0 (Background)
//Storyboard Layer 1 (Fail)
//Storyboard Layer 2 (Pass)
//Storyboard Layer 3 (Foreground)
//Storyboard Sound Samples
//Background Colour Transformations
3,100,163,162,255

[TimingPoints]
6195,352.9412,4,1,0,15,1,0

[HitObjects]
64,192,6195,5,0,0:0:0:0:
448,192,6195,1,0,0:0:0:0:
192,192,6283,1,0,0:0:0:0:
320,192,6371,1,0,0:0:0:0:
64,192,6547,1,0,0:0:0:0:
448,192,6547,1,0,0:0:0:0:
192,192,6724,1,0,0:0:0:0:
448,192,6812,1,0,0:0:0:0:
64,192,6900,1,0,0:0:0:0:
320,192,6989,1,0,0:0:0:0:
192,192,7077,1,0,0:0:0:0:
192,192,7253,1,0,0:0:0:0:
320,192,7253,1,0,0:0:0:0:
192,192,7430,1,0,0:0:0:0:
448,192,7518,1,0,0:0:0:0:
64,192,7606,1,0,0:0:0:0:
320,192,7695,1,0,0:0:0:0:
192,192,7783,1,0,0:0:0:0:
192,192,7959,1,0,0:0:0:0:
320,192,7959,1,0,0:0:0:0:
320,192,8136,1,0,0:0:0:0:
192,192,8224,1,0,0:0:0:0:
448,192,8312,1,0,0:0:0:0:
192,192,8400,1,0,0:0:0:0:
320,192,8489,1,0,0:0:0:0:
64,192,8665,1,0,0:0:0:0:
448,192,8665,1,0,0:0:0:0:
192,192,9018,1,0,0:0:0:0:
320,192,9106,1,0,0:0:0:0:
192,192,9195,1,0,0:0:0:0:
64,192,9371,1,0,0:0:0:0:
448,192,9371,1,0,0:0:0:0:
192,192,9547,1,0,0:0:0:0:
320,192,9636,1,0,0:0:0:0:
64,192,9724,1,0,0:0:0:0:
320,192,9812,1,0,0:0:0:0:
192,192,9900,1,0,0:0:0:0:
64,192,10077,1,0,0:0:0:0:
448,192,10077,1,0,0:0:0:0:
320,192,10253,1,0,0:0:0:0:
64,192,10430,1,0,0:0:0:0:
192,192,10518,1,0,0:0:0:0:
64,192,10606,1,0,0:0:0:0:
192,192,10695,1,0,0:0:0:0:
64,192,10783,1,0,0:0:0:0:
192,192,10871,1,0,0:0:0:0:
64,192,10959,1,0,0:0:0:0:
192,192,11047,1,0,0:0:0:0:
64,192,11136,1,0,0:0:0:0:
192,192,11224,1,0,0:0:0:0:
64,192,11312,1,0,0:0:0:0:
192,192,11400,1,0,0:0:0:0:
64,192,11489,1,0,0:0:0:0:
192,192,11577,1,0,0:0:0:0:
64,192,11665,1,0,0:0:0:0:
192,192,11753,1,0,0:0:0:0:
64,192,11842,1,0,0:0:0:0:
448,192,11842,1,0,0:0:0:0:
320,192,12018,1,0,0:0:0:0:
448,192,12018,1,0,0:0:0:0:
64,192,12195,1,0,0:0:0:0:
320,192,12195,1,0,0:0:0:0:
64,192,12371,1,0,0:0:0:0:
192,192,12371,1,0,0:0:0:0:
320,192,12547,1,0,0:0:0:0:
448,192,12547,1,0,0:0:0:0:
320,192,12724,1,0,0:0:0:0:
448,192,12724,1,0,0:0:0:0:
64,192,12900,1,0,0:0:0:0:
192,192,12900,1,0,0:0:0:0:
320,192,13077,1,0,0:0:0:0:
448,192,13077,1,0,0:0:0:0:
192,192,13253,1,0,0:0:0:0:
320,192,13253,1,0,0:0:0:0:
64,192,13430,1,0,0:0:0:0:
192,192,13430,1,0,0:0:0:0:
192,192,13606,1,0,0:0:0:0:
320,192,13606,1,0,0:0:0:0:
64,192,13783,1,0,0:0:0:0:
448,192,13783,1,0,0:0:0:0:
192,192,13959,1,0,0:0:0:0:
320,192,13959,1,0,0:0:0:0:
64,192,14136,1,0,0:0:0:0:
192,192,14224,1,0,0:0:0:0:
448,192,14400,1,0,0:0:0:0:
320,192,14489,1,0,0:0:0:0:
192,192,14665,1,0,0:0:0:0:
448,192,14665,1,0,0:0:0:0:
64,192,14842,1,0,0:0:0:0:
320,192,14842,1,0,0:0:0:0:
64,192,15018,1,0,0:0:0:0:
448,192,15018,1,0,0:0:0:0:
192,192,15195,1,0,0:0:0:0:
320,192,15195,1,0,0:0:0:0:
64,192,15371,1,0,0:0:0:0:
448,192,15371,1,0,0:0:0:0:
320,192,15547,1,0,0:0:0:0:
448,192,15547,1,0,0:0:0:0:
64,192,15724,1,0,0:0:0:0:
448,192,15724,1,0,0:0:0:0:
64,192,15900,1,0,0:0:0:0:
320,192,15900,1,0,0:0:0:0:
64,192,16077,1,0,0:0:0:0:
448,192,16077,1,0,0:0:0:0:
192,192,16253,1,0,0:0:0:0:
320,192,16253,1,0,0:0:0:0:
320,192,16430,1,0,0:0:0:0:
448,192,16430,1,0,0:0:0:0:
64,192,16606,1,0,0:0:0:0:
320,192,16606,1,0,0:0:0:0:
64,192,16783,1,0,0:0:0:0:
448,192,16783,1,0,0:0:0:0:
448,192,16959,1,0,0:0:0:0:
320,192,17047,1,0,0:0:0:0:
448,192,17136,1,0,0:0:0:0:
192,192,17224,1,0,0:0:0:0:
64,192,17312,1,0,0:0:0:0:
64,192,17489,1,0,0:0:0:0:
448,192,17489,1,0,0:0:0:0:
192,192,17665,1,0,0:0:0:0:
320,192,17665,1,0,0:0:0:0:
64,192,17842,1,0,0:0:0:0:
192,192,17842,1,0,0:0:0:0:
320,192,18018,1,0,0:0:0:0:
448,192,18018,1,0,0:0:0:0:
192,192,18194,1,0,0:0:0:0:
320,192,18194,1,0,0:0:0:0:
64,192,18371,1,0,0:0:0:0:
448,192,18371,1,0,0:0:0:0:
320,192,18547,1,0,0:0:0:0:
448,192,18547,1,0,0:0:0:0:
64,192,18724,1,0,0:0:0:0:
192,192,18724,1,0,0:0:0:0:
64,192,18900,1,0,0:0:0:0:
448,192,18900,1,0,0:0:0:0:
64,192,19077,1,0,0:0:0:0:
448,192,19077,1,0,0:0:0:0:
192,192,19253,1,0,0:0:0:0:
320,192,19253,1,0,0:0:0:0:
320,192,19430,1,0,0:0:0:0:
448,192,19430,1,0,0:0:0:0:
64,192,19606,1,0,0:0:0:0:
448,192,19606,1,0,0:0:0:0:
64,192,19783,1,0,0:0:0:0:
192,192,19871,1,0,0:0:0:0:
448,192,20047,1,0,0:0:0:0:
320,192,20136,1,0,0:0:0:0:
64,192,20312,1,0,0:0:0:0:
448,192,20312,1,0,0:0:0:0:
64,192,20489,1,0,0:0:0:0:
448,192,20489,1,0,0:0:0:0:
192,192,20665,1,0,0:0:0:0:
320,192,20665,1,0,0:0:0:0:
64,192,20842,1,0,0:0:0:0:
192,192,20842,1,0,0:0:0:0:
320,192,21018,1,0,0:0:0:0:
448,192,21018,1,0,0:0:0:0:
64,192,21194,1,0,0:0:0:0:
192,192,21194,1,0,0:0:0:0:
192,192,21371,1,0,0:0:0:0:
320,192,21371,1,0,0:0:0:0:
64,192,21547,1,0,0:0:0:0:
448,192,21547,1,0,0:0:0:0:
320,192,21724,1,0,0:0:0:0:
448,192,21724,1,0,0:0:0:0:
192,192,21900,1,0,0:0:0:0:
320,192,21900,1,0,0:0:0:0:
64,192,22077,1,0,0:0:0:0:
448,192,22077,1,0,0:0:0:0:
192,192,22253,1,0,0:0:0:0:
320,192,22253,1,0,0:0:0:0:
64,192,22430,1,0,0:0:0:0:
448,0,22430,128,0,23136:1:0:0:0:
320,192,22518,1,0,0:0:0:0:
192,192,22606,1,0,0:0:0:0:
64,192,22694,1,0,0:0:0:0:
192,192,22783,1,0,0:0:0:0:
320,192,22871,1,0,0:0:0:0:
192,192,22959,1,0,0:0:0:0:
64,192,23047,1,0,0:0:0:0:
192,0,23136,128,0,23312:1:0:0:0:
64,192,23312,1,0,0:0:0:0:
320,192,23489,1,0,0:0:0:0:
448,0,23665,128,0,23842:1:0:0:0:
320,192,23842,1,0,0:0:0:0:
192,192,23930,1,0,0:0:0:0:
64,192,24106,1,0,0:0:0:0:
192,0,24194,128,0,24371:1:0:0:0:
320,192,24371,1,0,0:0:0:0:
448,0,24547,128,0,24724:1:0:0:0:
64,192,24724,1,0,0:0:0:0:
192,192,24900,1,0,0:0:0:0:
320,0,25077,128,0,25253:1:0:0:0:
448,192,25253,1,0,0:0:0:0:
192,192,25342,1,0,0:0:0:0:
64,192,25518,1,0,0:0:0:0:
192,0,25606,128,0,25783:1:0:0:0:
320,192,25783,1,0,0:0:0:0:
192,0,25959,128,0,26136:1:0:0:0:
448,192,26136,1,0,0:0:0:0:
192,192,26312,1,0,0:0:0:0:
64,0,26489,128,0,26665:1:0:0:0:
320,192,26665,1,0,0:0:0:0:
448,192,26753,1,0,0:0:0:0:
192,192,26930,1,0,0:0:0:0:
320,0,27018,128,0,27194:1:0:0:0:
64,192,27194,1,0,0:0:0:0:
320,0,27371,128,0,27547:1:0:0:0:
64,192,27547,1,0,0:0:0:0:
192,192,27614,1,0,0:0:0:0:
320,192,27812,1,0,0:0:0:0:
448,0,27900,128,0,28077:1:0:0:0:
192,192,28077,1,0,0:0:0:0:
192,0,28430,128,0,28606:1:0:0:0:
448,0,28783,128,0,28959:1:0:0:0:
320,192,28959,1,0,0:0:0:0:
192,192,29136,1,0,0:0:0:0:
64,0,29312,128,0,29489:1:0:0:0:
192,192,29489,1,0,0:0:0:0:
320,192,29577,1,0,0:0:0:0:
448,192,29753,1,0,0:0:0:0:
320,0,29841,128,0,30018:1:0:0:0:
192,192,30018,1,0,0:0:0:0:
64,0,30194,128,0,30371:1:0:0:0:
192,192,30371,1,0,0:0:0:0:
448,192,30547,1,0,0:0:0:0:
320,0,30724,128,0,30900:1:0:0:0:
64,192,30900,1,0,0:0:0:0:
192,192,30989,1,0,0:0:0:0:
320,192,31033,1,0,0:0:0:0:
448,192,31077,1,0,0:0:0:0:
320,192,31165,1,0,0:0:0:0:
64,0,31253,128,0,31430:1:0:0:0:
320,192,31430,1,0,0:0:0:0:
64,0,31606,128,0,31783:1:0:0:0:
192,192,31783,1,0,0:0:0:0:
320,192,31959,1,0,0:0:0:0:
448,0,32136,128,0,32312:1:0:0:0:
64,192,32312,1,0,0:0:0:0:
192,192,32400,1,0,0:0:0:0:
320,192,32577,1,0,0:0:0:0:
448,0,32665,128,0,32841:1:0:0:0:
64,192,32841,1,0,0:0:0:0:
64,0,33018,128,0,33194:1:0:0:0:
320,192,33194,1,0,0:0:0:0:
192,192,33261,1,0,0:0:0:0:
192,192,33459,1,0,0:0:0:0:
448,0,33547,128,0,33724:1:0:0:0:
192,192,33724,1,0,0:0:0:0:
192,0,34077,128,0,34253:1:0:0:0:
64,192,34430,1,0,0:0:0:0:
448,192,34430,1,0,0:0:0:0:
64,192,34606,1,0,0:0:0:0:
448,192,34694,1,0,0:0:0:0:
192,192,34783,1,0,0:0:0:0:
320,192,34783,1,0,0:0:0:0:
320,192,34959,1,0,0:0:0:0:
192,192,35047,1,0,0:0:0:0:
64,192,35136,1,0,0:0:0:0:
448,192,35136,1,0,0:0:0:0:
448,192,35312,1,0,0:0:0:0:
64,192,35400,1,0,0:0:0:0:
192,192,35488,1,0,0:0:0:0:
320,192,35488,1,0,0:0:0:0:
64,192,35665,1,0,0:0:0:0:
192,192,35753,1,0,0:0:0:0:
320,192,35841,1,0,0:0:0:0:
448,192,35841,1,0,0:0:0:0:
192,192,36018,1,0,0:0:0:0:
320,192,36018,1,0,0:0:0:0:
64,192,36194,1,0,0:0:0:0:
192,192,36194,1,0,0:0:0:0:
192,192,36371,1,0,0:0:0:0:
320,192,36371,1,0,0:0:0:0:
320,192,36547,1,0,0:0:0:0:
448,192,36547,1,0,0:0:0:0:
64,192,37077,1,0,0:0:0:0:
192,192,37165,1,0,0:0:0:0:
320,192,37253,1,0,0:0:0:0:
448,192,37253,1,0,0:0:0:0:
448,192,37430,1,0,0:0:0:0:
320,192,37518,1,0,0:0:0:0:
64,192,37606,1,0,0:0:0:0:
192,192,37606,1,0,0:0:0:0:
320,192,37783,1,0,0:0:0:0:
448,192,37871,1,0,0:0:0:0:
64,192,37959,1,0,0:0:0:0:
320,192,37959,1,0,0:0:0:0:
192,192,38135,1,0,0:0:0:0:
64,192,38224,1,0,0:0:0:0:
192,192,38312,1,0,0:0:0:0:
448,192,38312,1,0,0:0:0:0:
320,192,38488,1,0,0:0:0:0:
448,192,38577,1,0,0:0:0:0:
64,192,38665,1,0,0:0:0:0:
320,192,38665,1,0,0:0:0:0:
64,192,38841,1,0,0:0:0:0:
448,192,38841,1,0,0:0:0:0:
192,192,39018,1,0,0:0:0:0:
448,192,39018,1,0,0:0:0:0:
64,192,39194,1,0,0:0:0:0:
320,192,39194,1,0,0:0:0:0:
192,192,39371,1,0,0:0:0:0:
320,192,39371,1,0,0:0:0:0:
320,192,40077,1,0,0:0:0:0:
448,192,40077,1,0,0:0:0:0:
448,192,40253,1,0,0:0:0:0:
320,192,40341,1,0,0:0:0:0:
64,192,40430,1,0,0:0:0:0:
192,192,40430,1,0,0:0:0:0:
320,192,40606,1,0,0:0:0:0:
448,192,40694,1,0,0:0:0:0:
64,192,40783,1,0,0:0:0:0:
320,192,40783,1,0,0:0:0:0:
192,192,40959,1,0,0:0:0:0:
64,192,41047,1,0,0:0:0:0:
192,192,41135,1,0,0:0:0:0:
448,192,41135,1,0,0:0:0:0:
320,192,41312,1,0,0:0:0:0:
192,192,41400,1,0,0:0:0:0:
64,192,41488,1,0,0:0:0:0:
320,192,41488,1,0,0:0:0:0:
64,192,41665,1,0,0:0:0:0:
448,192,41665,1,0,0:0:0:0:
192,192,41841,1,0,0:0:0:0:
448,192,41841,1,0,0:0:0:0:
64,192,42018,1,0,0:0:0:0:
320,192,42018,1,0,0:0:0:0:
192,192,42194,1,0,0:0:0:0:
448,192,42194,1,0,0:0:0:0:
320,192,42724,1,0,0:0:0:0:
320,192,42812,1,0,0:0:0:0:
320,192,42900,1,0,0:0:0:0:
320,192,43253,1,0,0:0:0:0:
64,192,43606,1,0,0:0:0:0:
192,192,43959,1,0,0:0:0:0:
448,192,44135,1,0,0:0:0:0:
192,192,44312,1,0,0:0:0:0:
192,192,44599,1,0,0:0:0:0:
320,192,44841,1,0,0:0:0:0:
320,0,45040,128,0,46430:1:0:0:0:
64,192,45724,1,0,0:0:0:0:
448,192,45812,1,0,0:0:0:0:
64,192,45900,1,0,0:0:0:0:
448,192,45988,1,0,0:0:0:0:
64,192,46077,1,0,0:0:0:0:
448,192,46165,1,0,0:0:0:0:
64,192,46253,1,0,0:0:0:0:
448,192,46341,1,0,0:0:0:0:
64,192,46430,1,0,0:0:0:0:
192,192,46782,1,0,0:0:0:0:
320,192,46782,1,0,0:0:0:0:
64,192,47135,1,0,0:0:0:0:
448,192,47135,1,0,0:0:0:0:
192,192,47224,1,0,0:0:0:0:
320,192,47312,1,0,0:0:0:0:
192,192,47400,1,0,0:0:0:0:
64,192,47488,1,0,0:0:0:0:
192,192,47577,1,0,0:0:0:0:
320,192,47665,1,0,0:0:0:0:
192,192,47753,1,0,0:0:0:0:
64,192,47841,1,0,0:0:0:0:
448,192,47841,1,0,0:0:0:0:
320,192,47930,1,0,0:0:0:0:
448,192,48018,1,0,0:0:0:0:
320,192,48106,1,0,0:0:0:0:
192,192,48194,1,0,0:0:0:0:
320,192,48282,1,0,0:0:0:0:
448,192,48371,1,0,0:0:0:0:
192,192,48459,1,0,0:0:0:0:
320,192,48547,1,0,0:0:0:0:
448,192,48547,1,0,0:0:0:0:
64,192,48635,1,0,0:0:0:0:
192,192,48724,1,0,0:0:0:0:
448,192,48812,1,0,0:0:0:0:
64,192,48900,1,0,0:0:0:0:
192,192,48900,1,0,0:0:0:0:
448,192,48988,1,0,0:0:0:0:
320,192,49077,1,0,0:0:0:0:
64,192,49165,1,0,0:0:0:0:
320,192,49253,1,0,0:0:0:0:
448,192,49253,1,0,0:0:0:0:
64,192,49341,1,0,0:0:0:0:
192,192,49429,1,0,0:0:0:0:
448,192,49518,1,0,0:0:0:0:
64,192,49606,1,0,0:0:0:0:
192,192,49606,1,0,0:0:0:0:
448,192,49694,1,0,0:0:0:0:
320,192,49782,1,0,0:0:0:0:
192,192,49871,1,0,0:0:0:0:
64,192,49959,1,0,0:0:0:0:
448,0,49959,128,0,50282:1:0:0:0:
64,192,50135,1,0,0:0:0:0:
64,192,50312,1,0,0:0:0:0:
320,192,50312,1,0,0:0:0:0:
320,192,50488,1,0,0:0:0:0:
448,192,50665,1,0,0:0:0:0:
320,0,50665,128,0,50988:1:0:0:0:
192,192,50841,1,0,0:0:0:0:
64,192,51018,1,0,0:0:0:0:
448,192,51018,1,0,0:0:0:0:
192,192,51194,1,0,0:0:0:0:
448,192,51371,1,0,0:0:0:0:
64,0,51371,128,0,51694:1:0:0:0:
64,192,52076,1,0,0:0:0:0:
192,192,52076,1,0,0:0:0:0:
448,192,52165,1,0,0:0:0:0:
192,192,52253,1,0,0:0:0:0:
320,192,52341,1,0,0:0:0:0:
64,192,52429,1,0,0:0:0:0:
192,192,52429,1,0,0:0:0:0:
448,192,52518,1,0,0:0:0:0:
192,192,52606,1,0,0:0:0:0:
64,192,52694,1,0,0:0:0:0:
320,192,52782,1,0,0:0:0:0:
448,192,52782,1,0,0:0:0:0:
192,192,52871,1,0,0:0:0:0:
320,192,52959,1,0,0:0:0:0:
64,192,53047,1,0,0:0:0:0:
192,192,53135,1,0,0:0:0:0:
448,192,53223,1,0,0:0:0:0:
64,192,53312,1,0,0:0:0:0:
320,192,53400,1,0,0:0:0:0:
64,192,53488,1,0,0:0:0:0:
192,192,53488,1,0,0:0:0:0:
320,192,53576,1,0,0:0:0:0:
64,192,53665,1,0,0:0:0:0:
448,192,53753,1,0,0:0:0:0:
64,192,53841,1,0,0:0:0:0:
448,192,53929,1,0,0:0:0:0:
192,192,54018,1,0,0:0:0:0:
320,192,54018,1,0,0:0:0:0:
64,192,54106,1,0,0:0:0:0:
192,192,54194,1,0,0:0:0:0:
320,192,54194,1,0,0:0:0:0:
448,192,54282,1,0,0:0:0:0:
64,192,54370,1,0,0:0:0:0:
320,192,54459,1,0,0:0:0:0:
64,192,54547,1,0,0:0:0:0:
192,192,54547,1,0,0:0:0:0:
448,192,54635,1,0,0:0:0:0:
64,192,54723,1,0,0:0:0:0:
192,192,54812,1,0,0:0:0:0:
64,192,54900,1,0,0:0:0:0:
320,192,54900,1,0,0:0:0:0:
448,192,54988,1,0,0:0:0:0:
192,192,55076,1,0,0:0:0:0:
320,192,55165,1,0,0:0:0:0:
192,192,55253,1,0,0:0:0:0:
448,192,55253,1,0,0:0:0:0:
320,192,55341,1,0,0:0:0:0:
64,192,55429,1,0,0:0:0:0:
448,192,55518,1,0,0:0:0:0:
64,192,55606,1,0,0:0:0:0:
320,192,55606,1,0,0:0:0:0:
320,192,55782,1,0,0:0:0:0:
64,192,55959,1,0,0:0:0:0:
192,192,55959,1,0,0:0:0:0:
192,192,56135,1,0,0:0:0:0:
64,192,56312,1,0,0:0:0:0:
448,192,56312,1,0,0:0:0:0:
320,192,56488,1,0,0:0:0:0:
192,192,56665,1,0,0:0:0:0:
448,192,56665,1,0,0:0:0:0:
64,192,56841,1,0,0:0:0:0:
192,192,57018,1,0,0:0:0:0:
320,192,57018,1,0,0:0:0:0:
64,192,57723,1,0,0:0:0:0:
448,192,57723,1,0,0:0:0:0:
192,192,57812,1,0,0:0:0:0:
64,192,57900,1,0,0:0:0:0:
192,192,57988,1,0,0:0:0:0:
64,192,58076,1,0,0:0:0:0:
448,192,58076,1,0,0:0:0:0:
192,192,58165,1,0,0:0:0:0:
64,192,58253,1,0,0:0:0:0:
192,192,58341,1,0,0:0:0:0:
64,192,58429,1,0,0:0:0:0:
448,192,58429,1,0,0:0:0:0:
192,192,58518,1,0,0:0:0:0:
320,192,58606,1,0,0:0:0:0:
64,192,58694,1,0,0:0:0:0:
448,192,58782,1,0,0:0:0:0:
192,192,58870,1,0,0:0:0:0:
320,192,58959,1,0,0:0:0:0:
64,192,59047,1,0,0:0:0:0:
320,192,59135,1,0,0:0:0:0:
448,192,59135,1,0,0:0:0:0:
192,192,59223,1,0,0:0:0:0:
320,192,59312,1,0,0:0:0:0:
192,192,59400,1,0,0:0:0:0:
64,192,59488,1,0,0:0:0:0:
192,192,59576,1,0,0:0:0:0:
320,192,59665,1,0,0:0:0:0:
448,192,59753,1,0,0:0:0:0:
192,192,59841,1,0,0:0:0:0:
320,192,59841,1,0,0:0:0:0:
64,192,59929,1,0,0:0:0:0:
192,192,60017,1,0,0:0:0:0:
64,192,60106,1,0,0:0:0:0:
192,192,60194,1,0,0:0:0:0:
320,192,60194,1,0,0:0:0:0:
448,192,60282,1,0,0:0:0:0:
320,192,60370,1,0,0:0:0:0:
192,192,60459,1,0,0:0:0:0:
64,192,60547,1,0,0:0:0:0:
448,192,60547,1,0,0:0:0:0:
320,192,60635,1,0,0:0:0:0:
64,192,60723,1,0,0:0:0:0:
320,192,60812,1,0,0:0:0:0:
64,192,60900,1,0,0:0:0:0:
448,192,60900,1,0,0:0:0:0:
64,192,61253,1,0,0:0:0:0:
448,192,61253,1,0,0:0:0:0:
192,192,61539,1,0,0:0:0:0:
320,192,61539,1,0,0:0:0:0:
64,192,61782,1,0,0:0:0:0:
448,192,61782,1,0,0:0:0:0:
320,192,61995,1,0,0:0:0:0:
448,192,61995,1,0,0:0:0:0:
64,192,62238,1,0,0:0:0:0:
192,192,62238,1,0,0:0:0:0:
192,192,62473,1,0,0:0:0:0:
320,192,62473,1,0,0:0:0:0:
192,192,62686,1,0,0:0:0:0:
448,192,62686,1,0,0:0:0:0:
192,192,63370,1,0,0:0:0:0:
320,192,63370,1,0,0:0:0:0:
64,192,63458,1,0,0:0:0:0:
192,192,63547,1,0,0:0:0:0:
320,192,63635,1,0,0:0:0:0:
64,192,63723,1,0,0:0:0:0:
448,192,63723,1,0,0:0:0:0:
320,192,63811,1,0,0:0:0:0:
192,192,63900,1,0,0:0:0:0:
64,192,63988,1,0,0:0:0:0:
192,192,64076,1,0,0:0:0:0:
320,192,64076,1,0,0:0:0:0:
64,192,64164,1,0,0:0:0:0:
192,192,64252,1,0,0:0:0:0:
320,192,64341,1,0,0:0:0:0:
448,192,64429,1,0,0:0:0:0:
320,192,64517,1,0,0:0:0:0:
192,192,64605,1,0,0:0:0:0:
64,192,64694,1,0,0:0:0:0:
192,192,64782,1,0,0:0:0:0:
448,192,64782,1,0,0:0:0:0:
320,192,64870,1,0,0:0:0:0:
192,192,64958,1,0,0:0:0:0:
320,192,65047,1,0,0:0:0:0:
448,192,65135,1,0,0:0:0:0:
320,192,65223,1,0,0:0:0:0:
64,192,65311,1,0,0:0:0:0:
192,192,65311,1,0,0:0:0:0:
320,192,65400,1,0,0:0:0:0:
192,192,65488,1,0,0:0:0:0:
448,192,65488,1,0,0:0:0:0:
64,192,65576,1,0,0:0:0:0:
448,192,65664,1,0,0:0:0:0:
192,192,65752,1,0,0:0:0:0:
320,192,65841,1,0,0:0:0:0:
448,192,65841,1,0,0:0:0:0:
64,192,65929,1,0,0:0:0:0:
448,192,66017,1,0,0:0:0:0:
192,192,66105,1,0,0:0:0:0:
64,192,66194,1,0,0:0:0:0:
320,192,66194,1,0,0:0:0:0:
192,192,66282,1,0,0:0:0:0:
448,192,66370,1,0,0:0:0:0:
320,192,66458,1,0,0:0:0:0:
192,192,66547,1,0,0:0:0:0:
448,192,66547,1,0,0:0:0:0:
320,192,66635,1,0,0:0:0:0:
448,192,66723,1,0,0:0:0:0:
192,192,66811,1,0,0:0:0:0:
64,192,66900,1,0,0:0:0:0:
448,192,66900,1,0,0:0:0:0:
192,192,66988,1,0,0:0:0:0:
320,192,67076,1,0,0:0:0:0:
192,192,67164,1,0,0:0:0:0:
320,192,67252,1,0,0:0:0:0:
448,192,67341,1,0,0:0:0:0:
64,192,67429,1,0,0:0:0:0:
192,192,67429,1,0,0:0:0:0:
448,192,67517,1,0,0:0:0:0:
192,192,67605,1,0,0:0:0:0:
64,0,67605,128,0,69547:1:0:0:0:
448,192,69017,1,0,0:0:0:0:
320,192,69105,1,0,0:0:0:0:
192,192,69194,1,0,0:0:0:0:
320,192,69282,1,0,0:0:0:0:
192,192,69370,1,0,0:0:0:0:
448,192,69458,1,0,0:0:0:0:
320,192,69547,1,0,0:0:0:0:
192,192,69635,1,0,0:0:0:0:
64,192,69723,1,0,0:0:0:0:
448,192,69723,1,0,0:0:0:0:
64,192,69899,1,0,0:0:0:0:
192,192,69899,1,0,0:0:0:0:
192,192,70076,1,0,0:0:0:0:
448,192,70076,1,0,0:0:0:0:
320,192,70252,1,0,0:0:0:0:
448,192,70252,1,0,0:0:0:0:
64,192,70429,1,0,0:0:0:0:
192,192,70429,1,0,0:0:0:0:
64,192,70605,1,0,0:0:0:0:
192,192,70605,1,0,0:0:0:0:
320,192,70782,1,0,0:0:0:0:
448,192,70782,1,0,0:0:0:0:
64,192,70958,1,0,0:0:0:0:
192,192,70958,1,0,0:0:0:0:
192,192,71135,1,0,0:0:0:0:
320,192,71135,1,0,0:0:0:0:
320,192,71311,1,0,0:0:0:0:
448,192,71311,1,0,0:0:0:0:
192,192,71488,1,0,0:0:0:0:
320,192,71488,1,0,0:0:0:0:
64,192,71664,1,0,0:0:0:0:
448,192,71664,1,0,0:0:0:0:
192,192,71841,1,0,0:0:0:0:
320,192,71841,1,0,0:0:0:0:
448,192,72017,1,0,0:0:0:0:
320,192,72105,1,0,0:0:0:0:
64,192,72282,1,0,0:0:0:0:
192,192,72370,1,0,0:0:0:0:
64,192,72547,1,0,0:0:0:0:
320,192,72547,1,0,0:0:0:0:
192,192,72723,1,0,0:0:0:0:
448,192,72723,1,0,0:0:0:0:
64,192,72899,1,0,0:0:0:0:
448,192,72899,1,0,0:0:0:0:
192,192,73076,1,0,0:0:0:0:
320,192,73076,1,0,0:0:0:0:
64,192,73252,1,0,0:0:0:0:
448,192,73252,1,0,0:0:0:0:
64,192,73429,1,0,0:0:0:0:
192,192,73429,1,0,0:0:0:0:
64,192,73605,1,0,0:0:0:0:
448,192,73605,1,0,0:0:0:0:
192,192,73782,1,0,0:0:0:0:
448,192,73782,1,0,0:0:0:0:
64,192,73958,1,0,0:0:0:0:
448,192,73958,1,0,0:0:0:0:
192,192,74135,1,0,0:0:0:0:
320,192,74135,1,0,0:0:0:0:
64,192,74311,1,0,0:0:0:0:
192,192,74311,1,0,0:0:0:0:
192,192,74488,1,0,0:0:0:0:
448,192,74488,1,0,0:0:0:0:
64,192,74664,1,0,0:0:0:0:
448,192,74664,1,0,0:0:0:0:
64,192,74841,1,0,0:0:0:0:
448,192,74929,1,0,0:0:0:0:
64,192,75017,1,0,0:0:0:0:
320,192,75105,1,0,0:0:0:0:
192,192,75194,1,0,0:0:0:0:
64,192,75370,1,0,0:0:0:0:
448,192,75370,1,0,0:0:0:0:
192,192,75546,1,0,0:0:0:0:
320,192,75546,1,0,0:0:0:0:
320,192,75723,1,0,0:0:0:0:
448,192,75723,1,0,0:0:0:0:
64,192,75899,1,0,0:0:0:0:
192,192,75899,1,0,0:0:0:0:
192,192,76076,1,0,0:0:0:0:
320,192,76076,1,0,0:0:0:0:
64,192,76252,1,0,0:0:0:0:
448,192,76252,1,0,0:0:0:0:
64,192,76429,1,0,0:0:0:0:
192,192,76429,1,0,0:0:0:0:
320,192,76605,1,0,0:0:0:0:
448,192,76605,1,0,0:0:0:0:
64,192,76782,1,0,0:0:0:0:
448,192,76782,1,0,0:0:0:0:
64,192,76958,1,0,0:0:0:0:
448,192,76958,1,0,0:0:0:0:
192,192,77135,1,0,0:0:0:0:
320,192,77135,1,0,0:0:0:0:
64,192,77311,1,0,0:0:0:0:
192,192,77311,1,0,0:0:0:0:
64,192,77488,1,0,0:0:0:0:
448,192,77488,1,0,0:0:0:0:
448,192,77664,1,0,0:0:0:0:
320,192,77752,1,0,0:0:0:0:
64,192,77929,1,0,0:0:0:0:
192,192,78017,1,0,0:0:0:0:
64,192,78194,1,0,0:0:0:0:
448,192,78194,1,0,0:0:0:0:
64,192,78370,1,0,0:0:0:0:
448,192,78370,1,0,0:0:0:0:
192,192,78546,1,0,0:0:0:0:
320,192,78546,1,0,0:0:0:0:
320,192,78723,1,0,0:0:0:0:
448,192,78723,1,0,0:0:0:0:
64,192,78899,1,0,0:0:0:0:
192,192,78899,1,0,0:0:0:0:
320,192,79076,1,0,0:0:0:0:
448,192,79076,1,0,0:0:0:0:
192,192,79252,1,0,0:0:0:0:
320,192,79252,1,0,0:0:0:0:
64,192,79429,1,0,0:0:0:0:
448,192,79429,1,0,0:0:0:0:
64,192,79605,1,0,0:0:0:0:
192,192,79605,1,0,0:0:0:0:
192,192,79782,1,0,0:0:0:0:
320,192,79782,1,0,0:0:0:0:
64,192,79958,1,0,0:0:0:0:
448,192,79958,1,0,0:0:0:0:
192,192,80135,1,0,0:0:0:0:
320,192,80135,1,0,0:0:0:0:
448,192,80311,1,0,0:0:0:0:
64,0,80311,128,0,81017:1:0:0:0:
320,192,80399,1,0,0:0:0:0:
192,192,80488,1,0,0:0:0:0:
320,192,80576,1,0,0:0:0:0:
192,192,80664,1,0,0:0:0:0:
320,192,80752,1,0,0:0:0:0:
448,192,80841,1,0,0:0:0:0:
320,192,80929,1,0,0:0:0:0:
192,0,81017,128,0,81193:1:0:0:0:
448,192,81193,1,0,0:0:0:0:
192,192,81370,1,0,0:0:0:0:
64,0,81546,128,0,81723:1:0:0:0:
448,192,81723,1,0,0:0:0:0:
320,192,81811,1,0,0:0:0:0:
448,192,81899,1,0,0:0:0:0:
320,192,81988,1,0,0:0:0:0:
448,0,82076,128,0,82252:1:0:0:0:
192,192,82252,1,0,0:0:0:0:
64,0,82429,128,0,82605:1:0:0:0:
448,192,82605,1,0,0:0:0:0:
320,192,82782,1,0,0:0:0:0:
192,0,82958,128,0,83135:1:0:0:0:
64,192,83135,1,0,0:0:0:0:
448,192,83223,1,0,0:0:0:0:
448,192,83311,1,0,0:0:0:0:
320,0,83488,128,0,83664:1:0:0:0:
192,192,83664,1,0,0:0:0:0:
320,0,83841,128,0,84017:1:0:0:0:
64,192,84017,1,0,0:0:0:0:
320,192,84193,1,0,0:0:0:0:
448,0,84370,128,0,84546:1:0:0:0:
192,192,84546,1,0,0:0:0:0:
64,192,84635,1,0,0:0:0:0:
320,192,84811,1,0,0:0:0:0:
192,0,84899,128,0,85076:1:0:0:0:
448,192,85076,1,0,0:0:0:0:
192,0,85252,128,0,85429:1:0:0:0:
448,192,85429,1,0,0:0:0:0:
320,192,85495,1,0,0:0:0:0:
192,192,85694,1,0,0:0:0:0:
64,0,85782,128,0,85958:1:0:0:0:
320,192,85958,1,0,0:0:0:0:
320,0,86311,128,0,86488:1:0:0:0:
64,0,86664,128,0,86841:1:0:0:0:
192,192,86841,1,0,0:0:0:0:
320,192,87017,1,0,0:0:0:0:
448,0,87194,128,0,87370:1:0:0:0:
320,192,87370,1,0,0:0:0:0:
192,192,87458,1,0,0:0:0:0:
320,192,87547,1,0,0:0:0:0:
64,192,87635,1,0,0:0:0:0:
192,0,87723,128,0,87900:1:0:0:0:
320,192,87900,1,0,0:0:0:0:
448,0,88076,128,0,88252:1:0:0:0:
320,192,88252,1,0,0:0:0:0:
64,192,88429,1,0,0:0:0:0:
192,0,88605,128,0,88782:1:0:0:0:
448,192,88782,1,0,0:0:0:0:
320,192,88870,1,0,0:0:0:0:
192,192,88914,1,0,0:0:0:0:
64,192,88958,1,0,0:0:0:0:
192,192,89047,1,0,0:0:0:0:
448,0,89135,128,0,89311:1:0:0:0:
192,192,89311,1,0,0:0:0:0:
448,0,89488,128,0,89664:1:0:0:0:
320,192,89664,1,0,0:0:0:0:
192,192,89841,1,0,0:0:0:0:
64,0,90017,128,0,90194:1:0:0:0:
448,192,90194,1,0,0:0:0:0:
320,192,90282,1,0,0:0:0:0:
192,192,90458,1,0,0:0:0:0:
64,0,90547,128,0,90723:1:0:0:0:
448,192,90723,1,0,0:0:0:0:
448,0,90900,128,0,91076:1:0:0:0:
192,192,91076,1,0,0:0:0:0:
320,192,91164,1,0,0:0:0:0:
320,192,91341,1,0,0:0:0:0:
64,0,91429,128,0,91605:1:0:0:0:
320,192,91605,1,0,0:0:0:0:
320,0,91958,128,0,92135:1:0:0:0:
64,192,92311,1,0,0:0:0:0:
448,192,92311,1,0,0:0:0:0:
64,192,92488,1,0,0:0:0:0:
192,192,92576,1,0,0:0:0:0:
320,192,92664,1,0,0:0:0:0:
448,192,92664,1,0,0:0:0:0:
64,192,92841,1,0,0:0:0:0:
192,192,92929,1,0,0:0:0:0:
320,192,93017,1,0,0:0:0:0:
448,192,93017,1,0,0:0:0:0:
192,192,93194,1,0,0:0:0:0:
320,192,93282,1,0,0:0:0:0:
64,192,93370,1,0,0:0:0:0:
192,192,93370,1,0,0:0:0:0:
192,192,93547,1,0,0:0:0:0:
320,192,93635,1,0,0:0:0:0:
64,192,93723,1,0,0:0:0:0:
448,192,93723,1,0,0:0:0:0:
192,192,93899,1,0,0:0:0:0:
320,192,93899,1,0,0:0:0:0:
320,192,94076,1,0,0:0:0:0:
448,192,94076,1,0,0:0:0:0:
192,192,94252,1,0,0:0:0:0:
320,192,94252,1,0,0:0:0:0:
64,192,94429,1,0,0:0:0:0:
192,192,94429,1,0,0:0:0:0:
64,192,95135,1,0,0:0:0:0:
192,192,95135,1,0,0:0:0:0:
64,192,95311,1,0,0:0:0:0:
192,192,95399,1,0,0:0:0:0:
320,192,95488,1,0,0:0:0:0:
448,192,95488,1,0,0:0:0:0:
192,192,95664,1,0,0:0:0:0:
64,192,95752,1,0,0:0:0:0:
192,192,95841,1,0,0:0:0:0:
448,192,95841,1,0,0:0:0:0:
320,192,96017,1,0,0:0:0:0:
448,192,96105,1,0,0:0:0:0:
64,192,96194,1,0,0:0:0:0:
320,192,96194,1,0,0:0:0:0:
192,192,96370,1,0,0:0:0:0:
64,192,96458,1,0,0:0:0:0:
192,192,96547,1,0,0:0:0:0:
448,192,96547,1,0,0:0:0:0:
64,192,96723,1,0,0:0:0:0:
448,192,96723,1,0,0:0:0:0:
64,192,96899,1,0,0:0:0:0:
320,192,96899,1,0,0:0:0:0:
192,192,97076,1,0,0:0:0:0:
448,192,97076,1,0,0:0:0:0:
192,192,97252,1,0,0:0:0:0:
320,192,97252,1,0,0:0:0:0:
64,192,97958,1,0,0:0:0:0:
192,192,97958,1,0,0:0:0:0:
64,192,98135,1,0,0:0:0:0:
192,192,98223,1,0,0:0:0:0:
320,192,98311,1,0,0:0:0:0:
448,192,98311,1,0,0:0:0:0:
192,192,98488,1,0,0:0:0:0:
64,192,98576,1,0,0:0:0:0:
192,192,98664,1,0,0:0:0:0:
448,192,98664,1,0,0:0:0:0:
320,192,98841,1,0,0:0:0:0:
448,192,98929,1,0,0:0:0:0:
64,192,99017,1,0,0:0:0:0:
320,192,99017,1,0,0:0:0:0:
192,192,99194,1,0,0:0:0:0:
320,192,99282,1,0,0:0:0:0:
192,192,99370,1,0,0:0:0:0:
448,192,99370,1,0,0:0:0:0:
64,192,99546,1,0,0:0:0:0:
448,192,99546,1,0,0:0:0:0:
64,192,99723,1,0,0:0:0:0:
320,192,99723,1,0,0:0:0:0:
192,192,99899,1,0,0:0:0:0:
448,192,99899,1,0,0:0:0:0:
64,192,100076,1,0,0:0:0:0:
320,192,100076,1,0,0:0:0:0:
192,192,100605,1,0,0:0:0:0:
192,192,100694,1,0,0:0:0:0:
192,192,100782,1,0,0:0:0:0:
192,192,101135,1,0,0:0:0:0:
320,192,101135,1,0,0:0:0:0:
64,192,101488,1,0,0:0:0:0:
192,192,101488,1,0,0:0:0:0:
192,192,101841,1,0,0:0:0:0:
320,192,101841,1,0,0:0:0:0:
192,192,102017,1,0,0:0:0:0:
320,192,102017,1,0,0:0:0:0:
320,192,102194,1,0,0:0:0:0:
448,192,102194,1,0,0:0:0:0:
64,192,102466,1,0,0:0:0:0:
192,192,102466,1,0,0:0:0:0:
64,192,102723,1,0,0:0:0:0:
448,192,102723,1,0,0:0:0:0:
64,0,102899,128,0,104311:1:0:0:0:
448,0,102899,128,0,104311:1:0:0:0:
192,192,103605,1,0,0:0:0:0:
320,192,103693,1,0,0:0:0:0:
192,192,103781,1,0,0:0:0:0:
320,192,103870,1,0,0:0:0:0:
192,192,103958,1,0,0:0:0:0:
320,192,104046,1,0,0:0:0:0:
192,192,104134,1,0,0:0:0:0:
320,192,104223,1,0,0:0:0:0:
192,192,104311,1,0,0:0:0:0:
64,192,104664,1,0,0:0:0:0:
448,192,104664,1,0,0:0:0:0:
320,0,104664,128,0,105017:1:0:0:0:
64,192,105017,1,0,0:0:0:0:
192,192,105017,1,0,0:0:0:0:
448,192,105017,1,0,0:0:0:0:
320,192,105105,1,0,0:0:0:0:
64,192,105193,1,0,0:0:0:0:
192,192,105281,1,0,0:0:0:0:
320,192,105370,1,0,0:0:0:0:
448,192,105370,1,0,0:0:0:0:
192,192,105458,1,0,0:0:0:0:
320,192,105546,1,0,0:0:0:0:
448,192,105634,1,0,0:0:0:0:
64,192,105723,1,0,0:0:0:0:
192,192,105723,1,0,0:0:0:0:
320,192,105811,1,0,0:0:0:0:
448,192,105899,1,0,0:0:0:0:
320,192,105987,1,0,0:0:0:0:
192,192,106076,1,0,0:0:0:0:
320,192,106164,1,0,0:0:0:0:
448,192,106252,1,0,0:0:0:0:
192,192,106340,1,0,0:0:0:0:
320,192,106429,1,0,0:0:0:0:
448,192,106429,1,0,0:0:0:0:
64,192,106517,1,0,0:0:0:0:
192,192,106605,1,0,0:0:0:0:
448,192,106693,1,0,0:0:0:0:
64,192,106781,1,0,0:0:0:0:
192,192,106781,1,0,0:0:0:0:
448,192,106870,1,0,0:0:0:0:
320,192,106958,1,0,0:0:0:0:
64,192,107046,1,0,0:0:0:0:
192,192,107134,1,0,0:0:0:0:
320,192,107134,1,0,0:0:0:0:
64,192,107223,1,0,0:0:0:0:
192,192,107311,1,0,0:0:0:0:
448,192,107399,1,0,0:0:0:0:
64,192,107487,1,0,0:0:0:0:
192,192,107487,1,0,0:0:0:0:
320,192,107576,1,0,0:0:0:0:
448,192,107664,1,0,0:0:0:0:
192,192,107752,1,0,0:0:0:0:
64,192,107840,1,0,0:0:0:0:
448,0,107840,128,0,108164:1:0:0:0:
320,192,107929,1,0,0:0:0:0:
64,192,108017,1,0,0:0:0:0:
192,192,108105,1,0,0:0:0:0:
64,192,108193,1,0,0:0:0:0:
320,192,108193,1,0,0:0:0:0:
192,192,108281,1,0,0:0:0:0:
448,192,108370,1,0,0:0:0:0:
64,192,108458,1,0,0:0:0:0:
448,192,108546,1,0,0:0:0:0:
320,0,108546,128,0,108870:1:0:0:0:
64,192,108634,1,0,0:0:0:0:
448,192,108723,1,0,0:0:0:0:
192,192,108811,1,0,0:0:0:0:
64,192,108899,1,0,0:0:0:0:
448,192,108899,1,0,0:0:0:0:
192,192,108987,1,0,0:0:0:0:
320,192,109076,1,0,0:0:0:0:
192,192,109164,1,0,0:0:0:0:
448,192,109252,1,0,0:0:0:0:
64,0,109252,128,0,109576:1:0:0:0:
64,192,109958,1,0,0:0:0:0:
192,192,109958,1,0,0:0:0:0:
448,192,110046,1,0,0:0:0:0:
192,192,110135,1,0,0:0:0:0:
320,192,110223,1,0,0:0:0:0:
64,192,110311,1,0,0:0:0:0:
192,192,110311,1,0,0:0:0:0:
448,192,110399,1,0,0:0:0:0:
192,192,110488,1,0,0:0:0:0:
64,192,110576,1,0,0:0:0:0:
320,192,110664,1,0,0:0:0:0:
448,192,110664,1,0,0:0:0:0:
64,192,110752,1,0,0:0:0:0:
192,192,110840,1,0,0:0:0:0:
320,192,110929,1,0,0:0:0:0:
192,192,111017,1,0,0:0:0:0:
448,192,111105,1,0,0:0:0:0:
192,192,111193,1,0,0:0:0:0:
320,192,111282,1,0,0:0:0:0:
64,192,111370,1,0,0:0:0:0:
192,192,111370,1,0,0:0:0:0:
320,192,111458,1,0,0:0:0:0:
448,192,111546,1,0,0:0:0:0:
64,192,111635,1,0,0:0:0:0:
448,192,111723,1,0,0:0:0:0:
64,192,111811,1,0,0:0:0:0:
192,192,111899,1,0,0:0:0:0:
448,192,111899,1,0,0:0:0:0:
64,192,111988,1,0,0:0:0:0:
192,192,112076,1,0,0:0:0:0:
320,192,112076,1,0,0:0:0:0:
448,192,112164,1,0,0:0:0:0:
64,192,112252,1,0,0:0:0:0:
320,192,112340,1,0,0:0:0:0:
64,192,112429,1,0,0:0:0:0:
192,192,112429,1,0,0:0:0:0:
320,192,112517,1,0,0:0:0:0:
448,192,112605,1,0,0:0:0:0:
320,192,112693,1,0,0:0:0:0:
64,192,112782,1,0,0:0:0:0:
192,192,112782,1,0,0:0:0:0:
320,192,112870,1,0,0:0:0:0:
192,192,112958,1,0,0:0:0:0:
64,192,113046,1,0,0:0:0:0:
320,192,113135,1,0,0:0:0:0:
448,192,113135,1,0,0:0:0:0:
192,192,113223,1,0,0:0:0:0:
64,192,113311,1,0,0:0:0:0:
448,192,113399,1,0,0:0:0:0:
192,192,113488,1,0,0:0:0:0:
64,0,113488,128,0,114193:1:0:0:0:
320,192,114193,1,0,0:0:0:0:
448,192,114193,1,0,0:0:0:0:
192,192,114282,1,0,0:0:0:0:
320,192,114370,1,0,0:0:0:0:
64,192,114458,1,0,0:0:0:0:
320,192,114546,1,0,0:0:0:0:
448,192,114546,1,0,0:0:0:0:
192,192,114635,1,0,0:0:0:0:
320,192,114723,1,0,0:0:0:0:
64,192,114811,1,0,0:0:0:0:
320,192,114899,1,0,0:0:0:0:
448,192,114899,1,0,0:0:0:0:
64,192,115605,1,0,0:0:0:0:
448,192,115605,1,0,0:0:0:0:
320,192,115693,1,0,0:0:0:0:
448,192,115782,1,0,0:0:0:0:
320,192,115870,1,0,0:0:0:0:
64,192,115958,1,0,0:0:0:0:
448,192,115958,1,0,0:0:0:0:
320,192,116046,1,0,0:0:0:0:
448,192,116135,1,0,0:0:0:0:
320,192,116223,1,0,0:0:0:0:
64,192,116311,1,0,0:0:0:0:
448,192,116311,1,0,0:0:0:0:
320,192,116399,1,0,0:0:0:0:
192,192,116487,1,0,0:0:0:0:
448,192,116576,1,0,0:0:0:0:
64,192,116664,1,0,0:0:0:0:
192,192,116752,1,0,0:0:0:0:
320,192,116840,1,0,0:0:0:0:
448,192,116929,1,0,0:0:0:0:
64,192,117017,1,0,0:0:0:0:
192,192,117017,1,0,0:0:0:0:
448,192,117105,1,0,0:0:0:0:
320,192,117193,1,0,0:0:0:0:
192,192,117282,1,0,0:0:0:0:
64,192,117370,1,0,0:0:0:0:
192,192,117458,1,0,0:0:0:0:
320,192,117546,1,0,0:0:0:0:
448,192,117635,1,0,0:0:0:0:
192,192,117723,1,0,0:0:0:0:
320,192,117723,1,0,0:0:0:0:
64,192,117811,1,0,0:0:0:0:
192,192,117899,1,0,0:0:0:0:
64,192,117987,1,0,0:0:0:0:
192,192,118076,1,0,0:0:0:0:
320,192,118076,1,0,0:0:0:0:
448,192,118164,1,0,0:0:0:0:
320,192,118252,1,0,0:0:0:0:
192,192,118340,1,0,0:0:0:0:
64,192,118429,1,0,0:0:0:0:
448,192,118429,1,0,0:0:0:0:
320,192,118517,1,0,0:0:0:0:
192,192,118605,1,0,0:0:0:0:
320,192,118693,1,0,0:0:0:0:
64,192,118782,1,0,0:0:0:0:
448,192,118782,1,0,0:0:0:0:
64,192,119135,1,0,0:0:0:0:
448,192,119135,1,0,0:0:0:0:
64,192,119421,1,0,0:0:0:0:
448,192,119421,1,0,0:0:0:0:
64,192,119664,1,0,0:0:0:0:
192,192,119664,1,0,0:0:0:0:
320,192,119877,1,0,0:0:0:0:
448,192,119877,1,0,0:0:0:0:
64,192,120120,1,0,0:0:0:0:
192,192,120120,1,0,0:0:0:0:
192,192,120355,1,0,0:0:0:0:
320,192,120355,1,0,0:0:0:0:
64,192,120568,1,0,0:0:0:0:
448,192,120568,1,0,0:0:0:0:
320,192,121252,1,0,0:0:0:0:
448,192,121252,1,0,0:0:0:0:
192,192,121340,1,0,0:0:0:0:
64,192,121429,1,0,0:0:0:0:
320,192,121517,1,0,0:0:0:0:
192,192,121605,1,0,0:0:0:0:
448,192,121605,1,0,0:0:0:0:
320,192,121693,1,0,0:0:0:0:
192,192,121782,1,0,0:0:0:0:
320,192,121870,1,0,0:0:0:0:
64,192,121958,1,0,0:0:0:0:
448,192,121958,1,0,0:0:0:0:
192,192,122046,1,0,0:0:0:0:
64,192,122134,1,0,0:0:0:0:
320,192,122223,1,0,0:0:0:0:
448,192,122311,1,0,0:0:0:0:
320,192,122399,1,0,0:0:0:0:
192,192,122487,1,0,0:0:0:0:
320,192,122576,1,0,0:0:0:0:
64,192,122664,1,0,0:0:0:0:
448,192,122664,1,0,0:0:0:0:
192,192,122752,1,0,0:0:0:0:
448,192,122840,1,0,0:0:0:0:
192,192,122929,1,0,0:0:0:0:
448,192,123017,1,0,0:0:0:0:
320,192,123105,1,0,0:0:0:0:
64,192,123193,1,0,0:0:0:0:
192,192,123193,1,0,0:0:0:0:
320,192,123282,1,0,0:0:0:0:
192,192,123370,1,0,0:0:0:0:
448,192,123370,1,0,0:0:0:0:
64,192,123458,1,0,0:0:0:0:
448,192,123546,1,0,0:0:0:0:
192,192,123634,1,0,0:0:0:0:
320,192,123723,1,0,0:0:0:0:
448,192,123723,1,0,0:0:0:0:
64,192,123811,1,0,0:0:0:0:
448,192,123899,1,0,0:0:0:0:
192,192,123987,1,0,0:0:0:0:
64,192,124076,1,0,0:0:0:0:
320,192,124076,1,0,0:0:0:0:
192,192,124164,1,0,0:0:0:0:
448,192,124252,1,0,0:0:0:0:
320,192,124340,1,0,0:0:0:0:
64,192,124429,1,0,0:0:0:0:
448,192,124429,1,0,0:0:0:0:
320,192,124517,1,0,0:0:0:0:
448,192,124605,1,0,0:0:0:0:
192,192,124693,1,0,0:0:0:0:
64,192,124782,1,0,0:0:0:0:
448,192,124782,1,0,0:0:0:0:
192,192,124870,1,0,0:0:0:0:
320,192,124958,1,0,0:0:0:0:
192,192,125046,1,0,0:0:0:0:
320,192,125134,1,0,0:0:0:0:
448,192,125223,1,0,0:0:0:0:
64,192,125311,1,0,0:0:0:0:
320,192,125311,1,0,0:0:0:0:
192,192,125399,1,0,0:0:0:0:
448,192,125487,1,0,0:0:0:0:
64,0,125487,128,0,127429:1:0:0:0:
192,192,126899,1,0,0:0:0:0:
320,192,126987,1,0,0:0:0:0:
192,192,127076,1,0,0:0:0:0:
320,192,127164,1,0,0:0:0:0:
192,192,127252,1,0,0:0:0:0:
320,192,127340,1,0,0:0:0:0:
192,192,127429,1,0,0:0:0:0:
320,192,127517,1,0,0:0:0:0:
448,192,127605,1,0,0:0:0:0:
320,192,127693,1,0,0:0:0:0:
192,192,127781,1,0,0:0:0:0:
320,192,127870,1,0,0:0:0:0:
192,192,127958,1,0,0:0:0:0:
64,192,128046,1,0,0:0:0:0:
192,192,128134,1,0,0:0:0:0:
64,192,128223,1,0,0:0:0:0:
192,192,128311,1,0,0:0:0:0:
448,192,128399,1,0,0:0:0:0:
320,192,128487,1,0,0:0:0:0:
192,192,128576,1,0,0:0:0:0:
320,192,128664,1,0,0:0:0:0:
192,192,128752,1,0,0:0:0:0:
64,192,128840,1,0,0:0:0:0:
192,192,128929,1,0,0:0:0:0:
64,192,129017,1,0,0:0:0:0:
192,192,129105,1,0,0:0:0:0:
448,192,129193,1,0,0:0:0:0:
320,192,129281,1,0,0:0:0:0:
192,192,129370,1,0,0:0:0:0:
320,192,129458,1,0,0:0:0:0:
192,192,129546,1,0,0:0:0:0:
64,192,129634,1,0,0:0:0:0:
192,192,129723,1,0,0:0:0:0:
64,192,129811,1,0,0:0:0:0:
192,192,129899,1,0,0:0:0:0:
448,192,129987,1,0,0:0:0:0:
320,192,130076,1,0,0:0:0:0:
192,192,130164,1,0,0:0:0:0:
320,192,130252,1,0,0:0:0:0:
192,192,130340,1,0,0:0:0:0:
64,192,130429,1,0,0:0:0:0:
448,192,130781,1,0,0:0:0:0:
320,192,131134,1,0,0:0:0:0:
64,192,131487,1,0,0:0:0:0:
192,192,131840,1,0,0:0:0:0:
320,192,132193,1,0,0:0:0:0:
448,192,132546,1,0,0:0:0:0:
320,192,132899,1,0,0:0:0:0:
448,192,133252,1,0,0:0:0:0:
320,192,133340,1,0,0:0:0:0:
192,192,133429,1,0,0:0:0:0:
64,192,133517,1,0,0:0:0:0:
448,192,133605,1,0,0:0:0:0:
320,192,133693,1,0,0:0:0:0:
192,192,133781,1,0,0:0:0:0:
64,192,133870,1,0,0:0:0:0:
448,192,133958,1,0,0:0:0:0:
320,192,134046,1,0,0:0:0:0:
192,192,134134,1,0,0:0:0:0:
64,192,134223,1,0,0:0:0:0:
448,192,134311,1,0,0:0:0:0:
320,192,134399,1,0,0:0:0:0:
192,192,134487,1,0,0:0:0:0:
64,192,134576,1,0,0:0:0:0:
192,192,134664,1,0,0:0:0:0:
320,192,134752,1,0,0:0:0:0:
448,192,134840,1,0,0:0:0:0:
64,192,134928,1,0,0:0:0:0:
192,192,135017,1,0,0:0:0:0:
320,192,135105,1,0,0:0:0:0:
448,192,135193,1,0,0:0:0:0:
64,192,135281,1,0,0:0:0:0:
192,192,135370,1,0,0:0:0:0:
320,192,135458,1,0,0:0:0:0:
448,192,135546,1,0,0:0:0:0:
64,192,135634,1,0,0:0:0:0:
192,192,135723,1,0,0:0:0:0:
320,192,135811,1,0,0:0:0:0:
448,192,135899,1,0,0:0:0:0:
64,192,135987,1,0,0:0:0:0:
192,192,136076,1,0,0:0:0:0:
448,192,136428,1,0,0:0:0:0:
320,192,136781,1,0,0:0:0:0:
192,192,137134,1,0,0:0:0:0:
64,192,137487,1,0,0:0:0:0:
192,192,137840,1,0,0:0:0:0:
320,192,138193,1,0,0:0:0:0:
192,192,138281,1,0,0:0:0:0:
320,192,138370,1,0,0:0:0:0:
192,192,138458,1,0,0:0:0:0:
320,192,138546,1,0,0:0:0:0:
192,192,138634,1,0,0:0:0:0:
320,192,138723,1,0,0:0:0:0:
192,192,138811,1,0,0:0:0:0:
64,192,138899,1,0,0:0:0:0:
448,192,138899,1,0,0:0:0:0:
64,192,139958,1,0,0:0:0:0:
448,192,139958,1,0,0:0:0:0:
64,192,140311,1,0,0:0:0:0:
320,192,140311,1,0,0:0:0:0:
192,192,140664,1,0,0:0:0:0:
448,192,140664,1,0,0:0:0:0:
192,192,141017,1,0,0:0:0:0:
320,192,141017,1,0,0:0:0:0:
64,192,141370,1,0,0:0:0:0:
192,192,141370,1,0,0:0:0:0:
64,192,141723,1,0,0:0:0:0:
448,192,141723,1,0,0:0:0:0:
448,192,142075,1,0,0:0:0:0:
320,192,142164,1,0,0:0:0:0:
192,192,142252,1,0,0:0:0:0:
64,192,142340,1,0,0:0:0:0:
192,192,142428,1,0,0:0:0:0:
320,192,142517,1,0,0:0:0:0:
448,192,142605,1,0,0:0:0:0:
320,192,142693,1,0,0:0:0:0:
192,192,142781,1,0,0:0:0:0:
64,192,142870,1,0,0:0:0:0:
192,192,142958,1,0,0:0:0:0:
320,192,143046,1,0,0:0:0:0:
448,192,143134,1,0,0:0:0:0:
320,192,143223,1,0,0:0:0:0:
192,192,143311,1,0,0:0:0:0:
64,192,143399,1,0,0:0:0:0:
192,192,143487,1,0,0:0:0:0:
320,192,143575,1,0,0:0:0:0:
448,192,143664,1,0,0:0:0:0:
320,192,143752,1,0,0:0:0:0:
64,192,143840,1,0,0:0:0:0:
192,192,143840,1,0,0:0:0:0:
64,192,144193,1,0,0:0:0:0:
192,192,144193,1,0,0:0:0:0:
64,192,144546,1,0,0:0:0:0:
192,192,144546,1,0,0:0:0:0:
192,192,145605,1,0,0:0:0:0:
320,192,145605,1,0,0:0:0:0:
320,192,145958,1,0,0:0:0:0:
448,192,145958,1,0,0:0:0:0:
64,192,146311,1,0,0:0:0:0:
320,192,146311,1,0,0:0:0:0:
192,192,146664,1,0,0:0:0:0:
320,192,146664,1,0,0:0:0:0:
64,192,147017,1,0,0:0:0:0:
448,192,147017,1,0,0:0:0:0:
192,192,147370,1,0,0:0:0:0:
320,192,147370,1,0,0:0:0:0:
192,192,147899,1,0,0:0:0:0:
320,192,147899,1,0,0:0:0:0:
64,192,148075,1,0,0:0:0:0:
448,192,148075,1,0,0:0:0:0:
64,192,148428,1,0,0:0:0:0:
192,192,148517,1,0,0:0:0:0:
320,192,148605,1,0,0:0:0:0:
448,192,148693,1,0,0:0:0:0:
320,192,148781,1,0,0:0:0:0:
192,192,148870,1,0,0:0:0:0:
64,192,148958,1,0,0:0:0:0:
192,192,149046,1,0,0:0:0:0:
320,192,149134,1,0,0:0:0:0:
448,192,149222,1,0,0:0:0:0:
320,192,149311,1,0,0:0:0:0:
192,192,149399,1,0,0:0:0:0:
64,192,149487,1,0,0:0:0:0:
192,192,149575,1,0,0:0:0:0:
320,192,149664,1,0,0:0:0:0:
448,192,149752,1,0,0:0:0:0:
64,192,149840,1,0,0:0:0:0:
192,192,149840,1,0,0:0:0:0:
64,192,150193,1,0,0:0:0:0:
192,192,150193,1,0,0:0:0:0:
448,192,150193,1,0,0:0:0:0:
320,192,150722,1,0,0:0:0:0:
448,192,150722,1,0,0:0:0:0:
64,192,151252,1,0,0:0:0:0:
448,192,151252,1,0,0:0:0:0:
64,192,151605,1,0,0:0:0:0:
448,192,151605,1,0,0:0:0:0:
64,192,152664,1,0,0:0:0:0:
448,192,152664,1,0,0:0:0:0:
192,192,152840,1,0,0:0:0:0:
192,192,153017,1,0,0:0:0:0:
320,192,153017,1,0,0:0:0:0:
64,192,153546,1,0,0:0:0:0:
448,192,153546,1,0,0:0:0:0:
320,192,154075,1,0,0:0:0:0:
448,192,154075,1,0,0:0:0:0:
64,192,154428,1,0,0:0:0:0:
448,192,154428,1,0,0:0:0:0:
64,192,155487,1,0,0:0:0:0:
448,192,155487,1,0,0:0:0:0:
64,192,155840,1,0,0:0:0:0:
192,192,155840,1,0,0:0:0:0:
448,192,155840,1,0,0:0:0:0:
192,192,156546,1,0,0:0:0:0:
320,192,156546,1,0,0:0:0:0:
64,192,157252,1,0,0:0:0:0:
448,192,157252,1,0,0:0:0:0:
320,192,157958,1,0,0:0:0:0:
448,192,157958,1,0,0:0:0:0:
64,192,158664,1,0,0:0:0:0:
320,192,158664,1,0,0:0:0:0:
192,192,159722,1,0,0:0:0:0:
320,192,159722,1,0,0:0:0:0:
64,192,159899,1,0,0:0:0:0:
320,192,159899,1,0,0:0:0:0:
320,192,160075,1,0,0:0:0:0:
448,192,160075,1,0,0:0:0:0:
192,192,160781,1,0,0:0:0:0:
192,192,161134,1,0,0:0:0:0:
192,192,161487,1,0,0:0:0:0:
192,192,162016,1,0,0:0:0:0:
192,0,162193,128,0,165370:1:0:0:0:
320,192,162899,1,0,0:0:0:0:
448,192,162987,1,0,0:0:0:0:
320,192,163075,1,0,0:0:0:0:
64,192,163163,1,0,0:0:0:0:
320,192,163252,1,0,0:0:0:0:
448,192,163340,1,0,0:0:0:0:
320,192,163428,1,0,0:0:0:0:
64,192,163516,1,0,0:0:0:0:
320,192,163605,1,0,0:0:0:0:
448,192,163693,1,0,0:0:0:0:
320,192,163781,1,0,0:0:0:0:
64,192,163869,1,0,0:0:0:0:
320,192,163958,1,0,0:0:0:0:
64,192,164311,1,0,0:0:0:0:
320,192,164399,1,0,0:0:0:0:
448,192,164487,1,0,0:0:0:0:
320,192,164575,1,0,0:0:0:0:
64,192,164664,1,0,0:0:0:0:
320,192,164752,1,0,0:0:0:0:
448,192,164840,1,0,0:0:0:0:
320,192,164928,1,0,0:0:0:0:
64,192,165017,1,0,0:0:0:0:
320,192,165105,1,0,0:0:0:0:
448,192,165193,1,0,0:0:0:0:
64,192,165281,1,0,0:0:0:0:
448,192,165370,1,0,0:0:0:0:
320,192,165458,1,0,0:0:0:0:
448,192,165546,1,0,0:0:0:0:
320,192,165634,1,0,0:0:0:0:
192,192,165723,1,0,0:0:0:0:
64,192,165811,1,0,0:0:0:0:
192,192,165899,1,0,0:0:0:0:
320,192,165987,1,0,0:0:0:0:
448,192,166075,1,0,0:0:0:0:
320,192,166164,1,0,0:0:0:0:
192,192,166252,1,0,0:0:0:0:
64,192,166340,1,0,0:0:0:0:
192,192,166428,1,0,0:0:0:0:
320,192,166517,1,0,0:0:0:0:
448,192,166605,1,0,0:0:0:0:
320,192,166693,1,0,0:0:0:0:
192,192,166781,1,0,0:0:0:0:
64,192,167134,1,0,0:0:0:0:
448,192,167134,1,0,0:0:0:0:
192,192,167487,1,0,0:0:0:0:
320,192,167487,1,0,0:0:0:0:
64,192,167840,1,0,0:0:0:0:
448,192,167840,1,0,0:0:0:0:
192,192,168193,1,0,0:0:0:0:
320,192,168193,1,0,0:0:0:0:
64,192,168546,1,0,0:0:0:0:
448,192,168546,1,0,0:0:0:0:
192,192,168899,1,0,0:0:0:0:
320,192,168899,1,0,0:0:0:0:
64,192,169252,1,0,0:0:0:0:
448,192,169252,1,0,0:0:0:0:
320,192,169605,1,0,0:0:0:0:
448,192,169605,1,0,0:0:0:0:
320,192,169781,1,0,0:0:0:0:
448,192,169781,1,0,0:0:0:0:
64,192,169958,1,0,0:0:0:0:
192,192,169958,1,0,0:0:0:0:
192,192,170311,1,0,0:0:0:0:
320,192,170311,1,0,0:0:0:0:
64,192,170664,1,0,0:0:0:0:
448,192,170664,1,0,0:0:0:0:
192,192,171017,1,0,0:0:0:0:
320,192,171017,1,0,0:0:0:0:
448,192,171370,1,0,0:0:0:0:
320,192,171458,1,0,0:0:0:0:
448,192,171546,1,0,0:0:0:0:
320,192,171634,1,0,0:0:0:0:
448,192,171722,1,0,0:0:0:0:
320,192,171811,1,0,0:0:0:0:
448,192,171899,1,0,0:0:0:0:
320,192,171987,1,0,0:0:0:0:
448,192,172075,1,0,0:0:0:0:
320,192,172164,1,0,0:0:0:0:
448,192,172252,1,0,0:0:0:0:
320,192,172340,1,0,0:0:0:0:
448,192,172428,1,0,0:0:0:0:
320,192,172517,1,0,0:0:0:0:
448,192,172605,1,0,0:0:0:0:
192,192,172693,1,0,0:0:0:0:
64,192,172781,1,0,0:0:0:0:
320,192,172781,1,0,0:0:0:0:
448,192,172781,1,0,0:0:0:0:
64,192,172958,1,0,0:0:0:0:
192,192,172958,1,0,0:0:0:0:
192,192,173134,1,0,0:0:0:0:
448,192,173134,1,0,0:0:0:0:
320,192,173311,1,0,0:0:0:0:
448,192,173311,1,0,0:0:0:0:
64,192,173487,1,0,0:0:0:0:
192,192,173487,1,0,0:0:0:0:
64,192,173664,1,0,0:0:0:0:
192,192,173664,1,0,0:0:0:0:
320,192,173840,1,0,0:0:0:0:
448,192,173840,1,0,0:0:0:0:
64,192,174017,1,0,0:0:0:0:
192,192,174017,1,0,0:0:0:0:
192,192,174193,1,0,0:0:0:0:
320,192,174193,1,0,0:0:0:0:
320,192,174370,1,0,0:0:0:0:
448,192,174370,1,0,0:0:0:0:
192,192,174546,1,0,0:0:0:0:
320,192,174546,1,0,0:0:0:0:
64,192,174722,1,0,0:0:0:0:
448,192,174722,1,0,0:0:0:0:
192,192,174899,1,0,0:0:0:0:
320,192,174899,1,0,0:0:0:0:
320,192,175075,1,0,0:0:0:0:
448,192,175075,1,0,0:0:0:0:
320,192,175164,1,0,0:0:0:0:
448,192,175164,1,0,0:0:0:0:
64,192,175340,1,0,0:0:0:0:
192,192,175340,1,0,0:0:0:0:
64,192,175428,1,0,0:0:0:0:
192,192,175428,1,0,0:0:0:0:
64,192,175605,1,0,0:0:0:0:
320,192,175605,1,0,0:0:0:0:
192,192,175781,1,0,0:0:0:0:
448,192,175781,1,0,0:0:0:0:
64,192,175958,1,0,0:0:0:0:
448,192,175958,1,0,0:0:0:0:
192,192,176134,1,0,0:0:0:0:
320,192,176134,1,0,0:0:0:0:
64,192,176311,1,0,0:0:0:0:
448,192,176311,1,0,0:0:0:0:
64,192,176487,1,0,0:0:0:0:
192,192,176487,1,0,0:0:0:0:
64,192,176664,1,0,0:0:0:0:
448,192,176664,1,0,0:0:0:0:
192,192,176840,1,0,0:0:0:0:
448,192,176840,1,0,0:0:0:0:
64,192,177017,1,0,0:0:0:0:
448,192,177017,1,0,0:0:0:0:
192,192,177193,1,0,0:0:0:0:
320,192,177193,1,0,0:0:0:0:
64,192,177369,1,0,0:0:0:0:
192,192,177369,1,0,0:0:0:0:
192,192,177546,1,0,0:0:0:0:
448,192,177546,1,0,0:0:0:0:
64,192,177722,1,0,0:0:0:0:
448,192,177722,1,0,0:0:0:0:
64,192,177899,1,0,0:0:0:0:
448,192,177899,1,0,0:0:0:0:
192,192,177987,1,0,0:0:0:0:
320,192,178075,1,0,0:0:0:0:
192,192,178164,1,0,0:0:0:0:
64,192,178252,1,0,0:0:0:0:
448,192,178252,1,0,0:0:0:0:
64,192,178428,1,0,0:0:0:0:
448,192,178428,1,0,0:0:0:0:
192,192,178605,1,0,0:0:0:0:
320,192,178605,1,0,0:0:0:0:
320,192,178781,1,0,0:0:0:0:
448,192,178781,1,0,0:0:0:0:
64,192,178958,1,0,0:0:0:0:
192,192,178958,1,0,0:0:0:0:
192,192,179134,1,0,0:0:0:0:
320,192,179134,1,0,0:0:0:0:
64,192,179311,1,0,0:0:0:0:
448,192,179311,1,0,0:0:0:0:
64,192,179487,1,0,0:0:0:0:
192,192,179487,1,0,0:0:0:0:
320,192,179664,1,0,0:0:0:0:
448,192,179664,1,0,0:0:0:0:
64,192,179840,1,0,0:0:0:0:
448,192,179840,1,0,0:0:0:0:
64,192,180017,1,0,0:0:0:0:
448,192,180017,1,0,0:0:0:0:
192,192,180193,1,0,0:0:0:0:
320,192,180193,1,0,0:0:0:0:
64,192,180369,1,0,0:0:0:0:
192,192,180369,1,0,0:0:0:0:
64,192,180546,1,0,0:0:0:0:
448,192,180546,1,0,0:0:0:0:
192,192,180722,1,0,0:0:0:0:
320,192,180722,1,0,0:0:0:0:
192,192,180811,1,0,0:0:0:0:
320,192,180811,1,0,0:0:0:0:
64,192,180987,1,0,0:0:0:0:
448,192,180987,1,0,0:0:0:0:
64,192,181075,1,0,0:0:0:0:
448,192,181075,1,0,0:0:0:0:
320,192,181252,1,0,0:0:0:0:
448,192,181252,1,0,0:0:0:0:
64,192,181428,1,0,0:0:0:0:
320,192,181428,1,0,0:0:0:0:
192,192,181605,1,0,0:0:0:0:
320,192,181605,1,0,0:0:0:0:
320,192,181781,1,0,0:0:0:0:
448,192,181781,1,0,0:0:0:0:
64,192,181958,1,0,0:0:0:0:
192,192,181958,1,0,0:0:0:0:
320,192,182134,1,0,0:0:0:0:
448,192,182134,1,0,0:0:0:0:
192,192,182311,1,0,0:0:0:0:
320,192,182311,1,0,0:0:0:0:
64,192,182487,1,0,0:0:0:0:
448,192,182487,1,0,0:0:0:0:
64,192,182664,1,0,0:0:0:0:
192,192,182664,1,0,0:0:0:0:
192,192,182840,1,0,0:0:0:0:
320,192,182840,1,0,0:0:0:0:
64,192,183016,1,0,0:0:0:0:
448,192,183016,1,0,0:0:0:0:
192,192,183193,1,0,0:0:0:0:
320,192,183193,1,0,0:0:0:0:
64,192,183369,1,0,0:0:0:0:
448,0,183371,128,0,185489:1:0:0:0:
192,192,183458,1,0,0:0:0:0:
64,192,183546,1,0,0:0:0:0:
192,192,183634,1,0,0:0:0:0:
320,192,183722,1,0,0:0:0:0:
192,192,183811,1,0,0:0:0:0:
64,192,183899,1,0,0:0:0:0:
192,192,183987,1,0,0:0:0:0:
320,192,184077,128,0,185489:0:0:0:0:
192,192,185136,1,0,0:0:0:0:
64,192,185489,1,0,0:0:0:0:
192,192,185489,1,0,0:0:0:0:
448,192,185577,1,0,0:0:0:0:
320,192,185665,1,0,0:0:0:0:
192,192,185754,1,0,0:0:0:0:
64,192,185842,1,0,0:0:0:0:
192,192,185930,1,0,0:0:0:0:
320,192,186018,1,0,0:0:0:0:
192,192,186107,1,0,0:0:0:0:
64,192,186195,1,0,0:0:0:0:
448,192,186195,1,0,0:0:0:0:
320,192,186283,1,0,0:0:0:0:
448,192,186371,1,0,0:0:0:0:
320,192,186459,1,0,0:0:0:0:
192,192,186548,1,0,0:0:0:0:
320,192,186636,1,0,0:0:0:0:
448,192,186724,1,0,0:0:0:0:
192,192,186812,1,0,0:0:0:0:
320,192,186901,1,0,0:0:0:0:
448,192,186901,1,0,0:0:0:0:
64,192,186989,1,0,0:0:0:0:
192,192,187077,1,0,0:0:0:0:
448,192,187165,1,0,0:0:0:0:
64,192,187254,1,0,0:0:0:0:
192,192,187254,1,0,0:0:0:0:
448,192,187342,1,0,0:0:0:0:
320,192,187430,1,0,0:0:0:0:
64,192,187518,1,0,0:0:0:0:
320,192,187607,1,0,0:0:0:0:
448,192,187607,1,0,0:0:0:0:
64,192,187695,1,0,0:0:0:0:
192,192,187783,1,0,0:0:0:0:
448,192,187871,1,0,0:0:0:0:
64,192,187959,1,0,0:0:0:0:
192,192,187959,1,0,0:0:0:0:
448,192,188048,1,0,0:0:0:0:
320,192,188136,1,0,0:0:0:0:
192,192,188224,1,0,0:0:0:0:
64,192,188312,1,0,0:0:0:0:
320,192,188312,1,0,0:0:0:0:
448,0,188312,128,0,188636:1:0:0:0:
192,192,188401,1,0,0:0:0:0:
64,192,188489,1,0,0:0:0:0:
320,192,188577,1,0,0:0:0:0:
64,192,188665,1,0,0:0:0:0:
192,192,188665,1,0,0:0:0:0:
448,192,188665,1,0,0:0:0:0:
320,192,188754,1,0,0:0:0:0:
192,192,188842,1,0,0:0:0:0:
64,192,188930,1,0,0:0:0:0:
192,192,189018,1,0,0:0:0:0:
448,192,189018,1,0,0:0:0:0:
320,0,189018,128,0,189341:1:0:0:0:
64,192,189107,1,0,0:0:0:0:
448,192,189195,1,0,0:0:0:0:
192,192,189283,1,0,0:0:0:0:
64,192,189371,1,0,0:0:0:0:
320,192,189371,1,0,0:0:0:0:
448,192,189371,1,0,0:0:0:0:
192,192,189459,1,0,0:0:0:0:
448,192,189548,1,0,0:0:0:0:
320,192,189636,1,0,0:0:0:0:
192,192,189724,1,0,0:0:0:0:
448,192,189724,1,0,0:0:0:0:
64,0,189724,128,0,190047:1:0:0:0:
64,192,190430,1,0,0:0:0:0:
448,192,190430,1,0,0:0:0:0:
320,192,190518,1,0,0:0:0:0:
192,192,190607,1,0,0:0:0:0:
320,192,190695,1,0,0:0:0:0:
64,192,190783,1,0,0:0:0:0:
192,192,190783,1,0,0:0:0:0:
320,192,190871,1,0,0:0:0:0:
192,192,190959,1,0,0:0:0:0:
64,192,191048,1,0,0:0:0:0:
320,192,191136,1,0,0:0:0:0:
448,192,191136,1,0,0:0:0:0:
64,192,191224,1,0,0:0:0:0:
192,192,191312,1,0,0:0:0:0:
320,192,191401,1,0,0:0:0:0:
192,192,191489,1,0,0:0:0:0:
448,192,191577,1,0,0:0:0:0:
64,192,191665,1,0,0:0:0:0:
320,192,191754,1,0,0:0:0:0:
64,192,191842,1,0,0:0:0:0:
192,192,191842,1,0,0:0:0:0:
320,192,191930,1,0,0:0:0:0:
64,192,192018,1,0,0:0:0:0:
448,192,192107,1,0,0:0:0:0:
64,192,192195,1,0,0:0:0:0:
448,192,192283,1,0,0:0:0:0:
64,192,192371,1,0,0:0:0:0:
320,192,192371,1,0,0:0:0:0:
192,192,192459,1,0,0:0:0:0:
320,192,192548,1,0,0:0:0:0:
448,192,192548,1,0,0:0:0:0:
192,192,192636,1,0,0:0:0:0:
320,192,192724,1,0,0:0:0:0:
448,192,192812,1,0,0:0:0:0:
64,192,192901,1,0,0:0:0:0:
192,192,192901,1,0,0:0:0:0:
448,192,192989,1,0,0:0:0:0:
64,192,193077,1,0,0:0:0:0:
192,192,193165,1,0,0:0:0:0:
64,192,193254,1,0,0:0:0:0:
320,192,193254,1,0,0:0:0:0:
448,192,193342,1,0,0:0:0:0:
192,192,193430,1,0,0:0:0:0:
320,192,193518,1,0,0:0:0:0:
192,192,193607,1,0,0:0:0:0:
448,192,193607,1,0,0:0:0:0:
320,192,193695,1,0,0:0:0:0:
64,192,193783,1,0,0:0:0:0:
448,192,193871,1,0,0:0:0:0:
320,192,193959,1,0,0:0:0:0:
64,0,193959,128,0,194135:1:0:0:0:
448,192,194048,1,0,0:0:0:0:
320,192,194136,1,0,0:0:0:0:
192,192,194224,1,0,0:0:0:0:
64,192,194312,1,0,0:0:0:0:
448,192,194312,1,0,0:0:0:0:
192,192,194401,1,0,0:0:0:0:
320,192,194489,1,0,0:0:0:0:
192,192,194577,1,0,0:0:0:0:
64,192,194665,1,0,0:0:0:0:
448,0,194665,128,0,194841:1:0:0:0:
192,192,194754,1,0,0:0:0:0:
64,192,194842,1,0,0:0:0:0:
320,192,194930,1,0,0:0:0:0:
64,192,195018,1,0,0:0:0:0:
448,192,195018,1,0,0:0:0:0:
320,192,195107,1,0,0:0:0:0:
192,0,195195,128,0,195283:1:0:0:0:
64,192,195283,1,0,0:0:0:0:
448,192,195371,1,0,0:0:0:0:
320,0,195371,128,0,195547:1:0:0:0:
64,192,196077,1,0,0:0:0:0:
448,192,196077,1,0,0:0:0:0:
320,192,196165,1,0,0:0:0:0:
192,192,196254,1,0,0:0:0:0:
320,192,196342,1,0,0:0:0:0:
64,192,196430,1,0,0:0:0:0:
448,192,196430,1,0,0:0:0:0:
192,192,196518,1,0,0:0:0:0:
320,192,196607,1,0,0:0:0:0:
192,192,196695,1,0,0:0:0:0:
448,192,196783,1,0,0:0:0:0:
64,0,196783,128,0,197136:1:0:0:0:
320,192,196871,1,0,0:0:0:0:
192,192,196959,1,0,0:0:0:0:
320,192,197048,1,0,0:0:0:0:
448,192,197136,1,0,0:0:0:0:
192,192,197224,1,0,0:0:0:0:
320,192,197312,1,0,0:0:0:0:
448,192,197401,1,0,0:0:0:0:
192,192,197489,1,0,0:0:0:0:
64,0,197489,128,0,197842:1:0:0:0:
448,192,197577,1,0,0:0:0:0:
320,192,197665,1,0,0:0:0:0:
192,192,197754,1,0,0:0:0:0:
448,192,197842,1,0,0:0:0:0:
320,192,197930,1,0,0:0:0:0:
192,192,198018,1,0,0:0:0:0:
448,192,198107,1,0,0:0:0:0:
192,192,198195,1,0,0:0:0:0:
320,192,198195,1,0,0:0:0:0:
64,192,198283,1,0,0:0:0:0:
448,192,198371,1,0,0:0:0:0:
64,192,198459,1,0,0:0:0:0:
192,192,198548,1,0,0:0:0:0:
320,192,198548,1,0,0:0:0:0:
448,192,198636,1,0,0:0:0:0:
320,192,198724,1,0,0:0:0:0:
192,192,198812,1,0,0:0:0:0:
64,192,198901,1,0,0:0:0:0:
448,192,198901,1,0,0:0:0:0:
320,192,198989,1,0,0:0:0:0:
192,192,199077,1,0,0:0:0:0:
320,192,199165,1,0,0:0:0:0:
64,192,199254,1,0,0:0:0:0:
448,192,199254,1,0,0:0:0:0:
64,192,199607,1,0,0:0:0:0:
320,192,199607,1,0,0:0:0:0:
448,192,199607,1,0,0:0:0:0:
64,192,199871,1,0,0:0:0:0:
192,192,199871,1,0,0:0:0:0:
320,192,199871,1,0,0:0:0:0:
64,192,200136,1,0,0:0:0:0:
192,192,200136,1,0,0:0:0:0:
448,192,200136,1,0,0:0:0:0:
192,192,200312,1,0,0:0:0:0:
320,192,200312,1,0,0:0:0:0:
448,192,200312,1,0,0:0:0:0:
64,192,200577,1,0,0:0:0:0:
192,192,200577,1,0,0:0:0:0:
448,192,200577,1,0,0:0:0:0:
64,192,200842,1,0,0:0:0:0:
192,192,200842,1,0,0:0:0:0:
320,192,200842,1,0,0:0:0:0:
64,192,201018,1,0,0:0:0:0:
192,192,201018,1,0,0:0:0:0:
448,192,201018,1,0,0:0:0:0:
64,192,201724,1,0,0:0:0:0:
320,192,201724,1,0,0:0:0:0:
448,192,201812,1,0,0:0:0:0:
320,192,201901,1,0,0:0:0:0:
192,192,201989,1,0,0:0:0:0:
64,192,202077,1,0,0:0:0:0:
320,192,202077,1,0,0:0:0:0:
192,192,202165,1,0,0:0:0:0:
320,192,202254,1,0,0:0:0:0:
448,192,202342,1,0,0:0:0:0:
64,192,202430,1,0,0:0:0:0:
320,192,202430,1,0,0:0:0:0:
448,192,202518,1,0,0:0:0:0:
320,192,202607,1,0,0:0:0:0:
192,192,202695,1,0,0:0:0:0:
64,192,202783,1,0,0:0:0:0:
192,192,202871,1,0,0:0:0:0:
320,192,202959,1,0,0:0:0:0:
192,192,203048,1,0,0:0:0:0:
64,192,203136,1,0,0:0:0:0:
448,192,203136,1,0,0:0:0:0:
192,192,203224,1,0,0:0:0:0:
320,192,203312,1,0,0:0:0:0:
192,192,203401,1,0,0:0:0:0:
64,192,203489,1,0,0:0:0:0:
192,192,203577,1,0,0:0:0:0:
64,192,203665,1,0,0:0:0:0:
448,192,203665,1,0,0:0:0:0:
320,192,203754,1,0,0:0:0:0:
64,192,203842,1,0,0:0:0:0:
448,192,203842,1,0,0:0:0:0:
192,192,203930,1,0,0:0:0:0:
448,192,204018,1,0,0:0:0:0:
320,192,204107,1,0,0:0:0:0:
64,192,204195,1,0,0:0:0:0:
192,192,204195,1,0,0:0:0:0:
448,192,204283,1,0,0:0:0:0:
64,192,204371,1,0,0:0:0:0:
320,192,204459,1,0,0:0:0:0:
192,192,204548,1,0,0:0:0:0:
448,192,204548,1,0,0:0:0:0:
320,192,204636,1,0,0:0:0:0:
64,192,204724,1,0,0:0:0:0:
192,192,204812,1,0,0:0:0:0:
64,192,204901,1,0,0:0:0:0:
320,192,204901,1,0,0:0:0:0:
192,192,204989,1,0,0:0:0:0:
64,192,205077,1,0,0:0:0:0:
320,192,205165,1,0,0:0:0:0:
64,192,205254,1,0,0:0:0:0:
448,192,205254,1,0,0:0:0:0:
320,192,205342,1,0,0:0:0:0:
192,192,205430,1,0,0:0:0:0:
320,192,205518,1,0,0:0:0:0:
192,192,205607,1,0,0:0:0:0:
320,192,205695,1,0,0:0:0:0:
64,192,205783,1,0,0:0:0:0:
448,192,205783,1,0,0:0:0:0:
192,192,205871,1,0,0:0:0:0:
64,192,205959,1,0,0:0:0:0:
448,192,205959,1,0,0:0:0:0:
320,192,206048,1,0,0:0:0:0:
192,192,206136,1,0,0:0:0:0:
320,192,206224,1,0,0:0:0:0:
64,192,206312,1,0,0:0:0:0:
448,192,206401,1,0,0:0:0:0:
320,192,206489,1,0,0:0:0:0:
192,192,206577,1,0,0:0:0:0:
320,192,206665,1,0,0:0:0:0:
192,192,206754,1,0,0:0:0:0:
64,192,206842,1,0,0:0:0:0:
448,192,206930,1,0,0:0:0:0:
192,192,207018,1,0,0:0:0:0:
320,192,207107,1,0,0:0:0:0:
192,192,207195,1,0,0:0:0:0:
320,192,207283,1,0,0:0:0:0:
64,192,207371,1,0,0:0:0:0:
448,192,207371,1,0,0:0:0:0:
320,192,207459,1,0,0:0:0:0:
192,192,207548,1,0,0:0:0:0:
320,192,207636,1,0,0:0:0:0:
64,192,207724,1,0,0:0:0:0:
448,192,207724,1,0,0:0:0:0:
320,192,207812,1,0,0:0:0:0:
192,192,207901,1,0,0:0:0:0:
320,192,207989,1,0,0:0:0:0:
64,192,208077,1,0,0:0:0:0:
192,192,208077,1,0,0:0:0:0:
448,192,208077,1,0,0:0:0:0:
320,192,208165,1,0,0:0:0:0:
192,192,208254,1,0,0:0:0:0:
448,192,208342,1,0,0:0:0:0:
64,192,208430,1,0,0:0:0:0:
192,192,208430,1,0,0:0:0:0:
320,192,208518,1,0,0:0:0:0:
192,192,208607,1,0,0:0:0:0:
64,192,208695,1,0,0:0:0:0:
320,192,208783,1,0,0:0:0:0:
448,192,208783,1,0,0:0:0:0:
192,192,208871,1,0,0:0:0:0:
64,192,208959,1,0,0:0:0:0:
192,192,209048,1,0,0:0:0:0:
320,192,209136,1,0,0:0:0:0:
192,192,209224,1,0,0:0:0:0:
64,192,209312,1,0,0:0:0:0:
320,192,209401,1,0,0:0:0:0:
64,192,209489,1,0,0:0:0:0:
192,192,209489,1,0,0:0:0:0:
448,192,209577,1,0,0:0:0:0:
320,192,209665,1,0,0:0:0:0:
64,192,209754,1,0,0:0:0:0:
320,192,209842,1,0,0:0:0:0:
448,192,209842,1,0,0:0:0:0:
64,192,209930,1,0,0:0:0:0:
192,192,210018,1,0,0:0:0:0:
448,192,210107,1,0,0:0:0:0:
192,192,210195,1,0,0:0:0:0:
320,192,210195,1,0,0:0:0:0:
448,192,210283,1,0,0:0:0:0:
320,192,210371,1,0,0:0:0:0:
64,192,210459,1,0,0:0:0:0:
320,192,210548,1,0,0:0:0:0:
448,192,210548,1,0,0:0:0:0:
192,192,210636,1,0,0:0:0:0:
64,192,210724,1,0,0:0:0:0:
320,192,210812,1,0,0:0:0:0:
448,192,210901,1,0,0:0:0:0:
64,0,210901,128,0,211225:1:0:0:0:
192,192,210989,1,0,0:0:0:0:
448,192,211077,1,0,0:0:0:0:
320,192,211165,1,0,0:0:0:0:
192,192,211254,1,0,0:0:0:0:
448,192,211254,1,0,0:0:0:0:
320,192,211342,1,0,0:0:0:0:
64,192,211430,1,0,0:0:0:0:
448,192,211518,1,0,0:0:0:0:
64,192,211607,1,0,0:0:0:0:
192,0,211607,128,0,211930:1:0:0:0:
448,192,211695,1,0,0:0:0:0:
64,192,211783,1,0,0:0:0:0:
320,192,211871,1,0,0:0:0:0:
64,192,211959,1,0,0:0:0:0:
448,192,211959,1,0,0:0:0:0:
320,192,212048,1,0,0:0:0:0:
192,192,212136,1,0,0:0:0:0:
320,192,212224,1,0,0:0:0:0:
64,192,212312,1,0,0:0:0:0:
448,0,212312,128,0,212635:1:0:0:0:
320,192,213018,1,0,0:0:0:0:
448,192,213018,1,0,0:0:0:0:
64,192,213107,1,0,0:0:0:0:
320,192,213195,1,0,0:0:0:0:
192,192,213283,1,0,0:0:0:0:
320,192,213371,1,0,0:0:0:0:
448,192,213371,1,0,0:0:0:0:
64,192,213459,1,0,0:0:0:0:
320,192,213548,1,0,0:0:0:0:
448,192,213636,1,0,0:0:0:0:
64,192,213724,1,0,0:0:0:0:
192,192,213724,1,0,0:0:0:0:
448,192,213812,1,0,0:0:0:0:
320,192,213901,1,0,0:0:0:0:
192,192,213989,1,0,0:0:0:0:
320,192,214077,1,0,0:0:0:0:
64,192,214165,1,0,0:0:0:0:
320,192,214254,1,0,0:0:0:0:
192,192,214342,1,0,0:0:0:0:
320,192,214430,1,0,0:0:0:0:
448,192,214430,1,0,0:0:0:0:
192,192,214518,1,0,0:0:0:0:
64,192,214607,1,0,0:0:0:0:
448,192,214695,1,0,0:0:0:0:
64,192,214783,1,0,0:0:0:0:
448,192,214871,1,0,0:0:0:0:
64,192,214959,1,0,0:0:0:0:
320,192,214959,1,0,0:0:0:0:
448,192,215048,1,0,0:0:0:0:
192,192,215136,1,0,0:0:0:0:
320,192,215136,1,0,0:0:0:0:
64,192,215224,1,0,0:0:0:0:
448,192,215312,1,0,0:0:0:0:
192,192,215401,1,0,0:0:0:0:
320,192,215489,1,0,0:0:0:0:
448,192,215489,1,0,0:0:0:0:
192,192,215577,1,0,0:0:0:0:
64,192,215665,1,0,0:0:0:0:
192,192,215754,1,0,0:0:0:0:
320,192,215842,1,0,0:0:0:0:
448,192,215842,1,0,0:0:0:0:
192,192,215930,1,0,0:0:0:0:
320,192,216018,1,0,0:0:0:0:
448,192,216107,1,0,0:0:0:0:
64,192,216195,1,0,0:0:0:0:
192,192,216195,1,0,0:0:0:0:
320,192,216283,1,0,0:0:0:0:
448,192,216371,1,0,0:0:0:0:
64,192,216459,1,0,0:0:0:0:
320,192,216548,1,0,0:0:0:0:
448,0,216548,128,0,217254:1:0:0:0:
64,192,217254,1,0,0:0:0:0:
192,192,217254,1,0,0:0:0:0:
320,192,217342,1,0,0:0:0:0:
192,192,217430,1,0,0:0:0:0:
448,192,217518,1,0,0:0:0:0:
64,192,217607,1,0,0:0:0:0:
192,192,217607,1,0,0:0:0:0:
320,192,217695,1,0,0:0:0:0:
192,192,217783,1,0,0:0:0:0:
448,192,217871,1,0,0:0:0:0:
64,192,217959,1,0,0:0:0:0:
192,192,217959,1,0,0:0:0:0:
64,192,218665,1,0,0:0:0:0:
448,192,218665,1,0,0:0:0:0:
192,192,218754,1,0,0:0:0:0:
64,192,218842,1,0,0:0:0:0:
192,192,218930,1,0,0:0:0:0:
64,192,219018,1,0,0:0:0:0:
448,192,219018,1,0,0:0:0:0:
192,192,219107,1,0,0:0:0:0:
64,192,219195,1,0,0:0:0:0:
192,192,219283,1,0,0:0:0:0:
64,192,219371,1,0,0:0:0:0:
320,192,219371,1,0,0:0:0:0:
448,192,219371,1,0,0:0:0:0:
192,192,219459,1,0,0:0:0:0:
320,192,219548,1,0,0:0:0:0:
64,192,219636,1,0,0:0:0:0:
448,192,219724,1,0,0:0:0:0:
320,192,219812,1,0,0:0:0:0:
192,192,219901,1,0,0:0:0:0:
64,192,219989,1,0,0:0:0:0:
320,192,220077,1,0,0:0:0:0:
448,192,220077,1,0,0:0:0:0:
64,192,220165,1,0,0:0:0:0:
192,192,220254,1,0,0:0:0:0:
320,192,220342,1,0,0:0:0:0:
448,192,220430,1,0,0:0:0:0:
320,192,220518,1,0,0:0:0:0:
192,192,220607,1,0,0:0:0:0:
64,192,220695,1,0,0:0:0:0:
192,192,220783,1,0,0:0:0:0:
320,192,220783,1,0,0:0:0:0:
448,192,220871,1,0,0:0:0:0:
320,192,220959,1,0,0:0:0:0:
448,192,221048,1,0,0:0:0:0:
192,192,221136,1,0,0:0:0:0:
320,192,221136,1,0,0:0:0:0:
64,192,221224,1,0,0:0:0:0:
192,192,221312,1,0,0:0:0:0:
320,192,221401,1,0,0:0:0:0:
64,192,221489,1,0,0:0:0:0:
448,192,221489,1,0,0:0:0:0:
192,192,221577,1,0,0:0:0:0:
320,192,221665,1,0,0:0:0:0:
192,192,221754,1,0,0:0:0:0:
64,192,221842,1,0,0:0:0:0:
448,192,221842,1,0,0:0:0:0:
64,192,222195,1,0,0:0:0:0:
320,192,222195,1,0,0:0:0:0:
448,192,222195,1,0,0:0:0:0:
64,192,222459,1,0,0:0:0:0:
192,192,222459,1,0,0:0:0:0:
448,192,222459,1,0,0:0:0:0:
192,192,222724,1,0,0:0:0:0:
320,192,222724,1,0,0:0:0:0:
448,192,222724,1,0,0:0:0:0:
64,192,222901,1,0,0:0:0:0:
192,192,222901,1,0,0:0:0:0:
320,192,222901,1,0,0:0:0:0:
192,192,223165,1,0,0:0:0:0:
320,192,223165,1,0,0:0:0:0:
448,192,223165,1,0,0:0:0:0:
64,192,223430,1,0,0:0:0:0:
192,192,223430,1,0,0:0:0:0:
320,192,223430,1,0,0:0:0:0:
64,192,223607,1,0,0:0:0:0:
192,192,223607,1,0,0:0:0:0:
448,192,223607,1,0,0:0:0:0:
64,192,224312,1,0,0:0:0:0:
192,192,224312,1,0,0:0:0:0:
320,192,224401,1,0,0:0:0:0:
448,192,224489,1,0,0:0:0:0:
192,192,224577,1,0,0:0:0:0:
64,192,224665,1,0,0:0:0:0:
320,192,224665,1,0,0:0:0:0:
192,192,224754,1,0,0:0:0:0:
320,192,224842,1,0,0:0:0:0:
192,192,224930,1,0,0:0:0:0:
64,192,225018,1,0,0:0:0:0:
448,192,225018,1,0,0:0:0:0:
320,192,225107,1,0,0:0:0:0:
448,192,225195,1,0,0:0:0:0:
192,192,225283,1,0,0:0:0:0:
64,192,225371,1,0,0:0:0:0:
192,192,225459,1,0,0:0:0:0:
320,192,225548,1,0,0:0:0:0:
192,192,225636,1,0,0:0:0:0:
64,192,225724,1,0,0:0:0:0:
448,192,225724,1,0,0:0:0:0:
320,192,225812,1,0,0:0:0:0:
64,192,225901,1,0,0:0:0:0:
320,192,225989,1,0,0:0:0:0:
64,192,226077,1,0,0:0:0:0:
192,192,226165,1,0,0:0:0:0:
320,192,226254,1,0,0:0:0:0:
448,192,226254,1,0,0:0:0:0:
192,192,226342,1,0,0:0:0:0:
64,192,226430,1,0,0:0:0:0:
320,192,226430,1,0,0:0:0:0:
448,192,226518,1,0,0:0:0:0:
64,192,226607,1,0,0:0:0:0:
320,192,226695,1,0,0:0:0:0:
64,192,226783,1,0,0:0:0:0:
192,192,226783,1,0,0:0:0:0:
448,192,226871,1,0,0:0:0:0:
64,192,226959,1,0,0:0:0:0:
320,192,227048,1,0,0:0:0:0:
192,192,227136,1,0,0:0:0:0:
448,192,227136,1,0,0:0:0:0:
320,192,227224,1,0,0:0:0:0:
64,192,227312,1,0,0:0:0:0:
192,192,227401,1,0,0:0:0:0:
64,192,227489,1,0,0:0:0:0:
448,192,227489,1,0,0:0:0:0:
192,192,227577,1,0,0:0:0:0:
64,192,227665,1,0,0:0:0:0:
320,192,227754,1,0,0:0:0:0:
64,192,227842,1,0,0:0:0:0:
448,192,227842,1,0,0:0:0:0:
320,192,227930,1,0,0:0:0:0:
192,192,228018,1,0,0:0:0:0:
320,192,228107,1,0,0:0:0:0:
192,192,228195,1,0,0:0:0:0:
448,192,228283,1,0,0:0:0:0:
64,192,228371,1,0,0:0:0:0:
320,192,228371,1,0,0:0:0:0:
192,192,228459,1,0,0:0:0:0:
64,192,228548,1,0,0:0:0:0:
320,0,228548,128,0,230313:1:0:0:0:
64,192,229254,1,0,0:0:0:0:
448,192,229342,1,0,0:0:0:0:
64,192,229430,1,0,0:0:0:0:
448,192,229518,1,0,0:0:0:0:
64,192,229607,1,0,0:0:0:0:
448,192,229695,1,0,0:0:0:0:
64,192,229783,1,0,0:0:0:0:
448,192,229871,1,0,0:0:0:0:
64,192,229959,1,0,0:0:0:0:
192,192,229959,1,0,0:0:0:0:
448,192,230048,1,0,0:0:0:0:
192,192,230136,1,0,0:0:0:0:
448,192,230224,1,0,0:0:0:0:
64,192,230312,1,0,0:0:0:0:
192,192,230312,1,0,0:0:0:0:
448,192,230401,1,0,0:0:0:0:
64,192,230489,1,0,0:0:0:0:
320,192,230577,1,0,0:0:0:0:
64,192,230665,1,0,0:0:0:0:
192,192,230665,1,0,0:0:0:0:
448,192,230665,1,0,0:0:0:0:
320,192,230754,1,0,0:0:0:0:
192,192,230842,1,0,0:0:0:0:
320,192,230930,1,0,0:0:0:0:
64,192,231018,1,0,0:0:0:0:
448,192,231107,1,0,0:0:0:0:
192,192,231195,1,0,0:0:0:0:
320,192,231283,1,0,0:0:0:0:
64,192,231371,1,0,0:0:0:0:
448,192,231371,1,0,0:0:0:0:
320,192,231459,1,0,0:0:0:0:
192,192,231548,1,0,0:0:0:0:
320,192,231636,1,0,0:0:0:0:
64,192,231724,1,0,0:0:0:0:
448,192,231812,1,0,0:0:0:0:
192,192,231901,1,0,0:0:0:0:
448,192,231989,1,0,0:0:0:0:
192,192,232077,1,0,0:0:0:0:
320,192,232077,1,0,0:0:0:0:
64,192,232165,1,0,0:0:0:0:
448,192,232254,1,0,0:0:0:0:
192,192,232342,1,0,0:0:0:0:
64,192,232430,1,0,0:0:0:0:
448,192,232430,1,0,0:0:0:0:
320,192,232518,1,0,0:0:0:0:
192,192,232607,1,0,0:0:0:0:
448,192,232695,1,0,0:0:0:0:
192,192,232783,1,0,0:0:0:0:
320,192,232783,1,0,0:0:0:0:
64,192,232871,1,0,0:0:0:0:
448,192,232959,1,0,0:0:0:0:
192,192,233048,1,0,0:0:0:0:
64,192,233136,1,0,0:0:0:0:
448,192,233136,1,0,0:0:0:0:
320,192,233224,1,0,0:0:0:0:
192,192,233312,1,0,0:0:0:0:
320,192,233401,1,0,0:0:0:0:
64,192,233489,1,0,0:0:0:0:
192,192,233489,1,0,0:0:0:0:
320,192,233577,1,0,0:0:0:0:
192,192,233665,1,0,0:0:0:0:
448,192,233754,1,0,0:0:0:0:
192,192,233842,1,0,0:0:0:0:
320,192,233930,1,0,0:0:0:0:
448,192,234018,1,0,0:0:0:0:
320,192,234107,1,0,0:0:0:0:
64,192,234195,1,0,0:0:0:0:
192,192,234195,1,0,0:0:0:0:
320,192,234283,1,0,0:0:0:0:
192,192,234371,1,0,0:0:0:0:
64,192,234459,1,0,0:0:0:0:
320,192,234548,1,0,0:0:0:0:
448,192,234548,1,0,0:0:0:0:
64,192,234636,1,0,0:0:0:0:
192,192,234724,1,0,0:0:0:0:
320,192,234812,1,0,0:0:0:0:
192,192,234901,1,0,0:0:0:0:
448,192,234901,1,0,0:0:0:0:
320,192,234989,1,0,0:0:0:0:
192,192,235077,1,0,0:0:0:0:
64,192,235165,1,0,0:0:0:0:
192,192,235254,1,0,0:0:0:0:
320,192,235342,1,0,0:0:0:0:
448,192,235430,1,0,0:0:0:0:
320,192,235518,1,0,0:0:0:0:
192,192,235607,1,0,0:0:0:0:
448,192,235607,1,0,0:0:0:0:
64,192,235695,1,0,0:0:0:0:
448,192,235783,1,0,0:0:0:0:
64,192,235871,1,0,0:0:0:0:
192,192,235959,1,0,0:0:0:0:
320,192,235959,1,0,0:0:0:0:
64,192,236048,1,0,0:0:0:0:
448,192,236136,1,0,0:0:0:0:
192,192,236224,1,0,0:0:0:0:
64,192,236312,1,0,0:0:0:0:
320,192,236312,1,0,0:0:0:0:
448,192,236312,1,0,0:0:0:0:
192,192,236401,1,0,0:0:0:0:
64,192,236489,1,0,0:0:0:0:
448,192,236577,1,0,0:0:0:0:
320,192,236665,1,0,0:0:0:0:
192,192,236754,1,0,0:0:0:0:
64,192,236842,1,0,0:0:0:0:
192,192,236930,1,0,0:0:0:0:
64,192,237018,1,0,0:0:0:0:
448,192,237018,1,0,0:0:0:0:
192,192,237107,1,0,0:0:0:0:
320,192,237195,1,0,0:0:0:0:
192,192,237283,1,0,0:0:0:0:
320,192,237371,1,0,0:0:0:0:
448,192,237459,1,0,0:0:0:0:
320,192,237548,1,0,0:0:0:0:
192,192,237636,1,0,0:0:0:0:
64,192,237724,1,0,0:0:0:0:
448,192,237724,1,0,0:0:0:0:
320,192,237812,1,0,0:0:0:0:
192,192,237901,1,0,0:0:0:0:
64,192,237989,1,0,0:0:0:0:
320,192,238077,1,0,0:0:0:0:
448,192,238077,1,0,0:0:0:0:
192,192,238165,1,0,0:0:0:0:
64,192,238254,1,0,0:0:0:0:
192,192,238342,1,0,0:0:0:0:
320,192,238430,1,0,0:0:0:0:
448,192,238430,1,0,0:0:0:0:
64,192,238518,1,0,0:0:0:0:
192,192,238607,1,0,0:0:0:0:
64,192,238695,1,0,0:0:0:0:
192,192,238783,1,0,0:0:0:0:
320,192,238783,1,0,0:0:0:0:
448,192,238871,1,0,0:0:0:0:
320,192,238959,1,0,0:0:0:0:
448,192,239048,1,0,0:0:0:0:
64,192,239136,1,0,0:0:0:0:
192,192,239136,1,0,0:0:0:0:
320,192,239224,1,0,0:0:0:0:
448,192,239312,1,0,0:0:0:0:
192,192,239401,1,0,0:0:0:0:
64,192,239489,1,0,0:0:0:0:
448,192,239489,1,0,0:0:0:0:
320,192,239577,1,0,0:0:0:0:
448,192,239665,1,0,0:0:0:0:
64,192,239754,1,0,0:0:0:0:
192,192,239842,1,0,0:0:0:0:
320,192,239842,1,0,0:0:0:0:
64,192,239930,1,0,0:0:0:0:
448,192,240018,1,0,0:0:0:0:
192,192,240107,1,0,0:0:0:0:
64,192,240195,1,0,0:0:0:0:
320,192,240195,1,0,0:0:0:0:
192,192,240283,1,0,0:0:0:0:
448,192,240371,1,0,0:0:0:0:
320,192,240459,1,0,0:0:0:0:
192,192,240548,1,0,0:0:0:0:
448,192,240548,1,0,0:0:0:0:
64,192,240636,1,0,0:0:0:0:
320,192,240724,1,0,0:0:0:0:
448,192,240812,1,0,0:0:0:0:
320,192,240901,1,0,0:0:0:0:
64,192,240989,1,0,0:0:0:0:
320,192,241077,1,0,0:0:0:0:
448,192,241165,1,0,0:0:0:0:
64,192,241254,1,0,0:0:0:0:
320,192,241254,1,0,0:0:0:0:
192,192,241342,1,0,0:0:0:0:
320,192,241430,1,0,0:0:0:0:
192,192,241518,1,0,0:0:0:0:
64,192,241607,1,0,0:0:0:0:
448,192,241607,1,0,0:0:0:0:
320,192,241695,1,0,0:0:0:0:
192,192,241783,1,0,0:0:0:0:
320,192,241871,1,0,0:0:0:0:
64,192,241959,1,0,0:0:0:0:
192,192,241959,1,0,0:0:0:0:
448,192,241959,1,0,0:0:0:0:
320,192,242048,1,0,0:0:0:0:
64,192,242136,1,0,0:0:0:0:
320,192,242224,1,0,0:0:0:0:
64,192,242312,1,0,0:0:0:0:
448,192,242401,1,0,0:0:0:0:
192,192,242489,1,0,0:0:0:0:
320,192,242577,1,0,0:0:0:0:
64,192,242665,1,0,0:0:0:0:
448,192,242665,1,0,0:0:0:0:
192,192,242754,1,0,0:0:0:0:
64,192,242842,1,0,0:0:0:0:
320,192,242930,1,0,0:0:0:0:
448,192,243018,1,0,0:0:0:0:
192,192,243107,1,0,0:0:0:0:
64,192,243195,1,0,0:0:0:0:
320,192,243283,1,0,0:0:0:0:
64,192,243371,1,0,0:0:0:0:
448,192,243371,1,0,0:0:0:0:
192,192,243459,1,0,0:0:0:0:
320,192,243548,1,0,0:0:0:0:
192,192,243636,1,0,0:0:0:0:
320,192,243724,1,0,0:0:0:0:
448,192,243724,1,0,0:0:0:0:
192,192,243812,1,0,0:0:0:0:
320,192,243901,1,0,0:0:0:0:
448,192,243989,1,0,0:0:0:0:
64,192,244077,1,0,0:0:0:0:
192,192,244077,1,0,0:0:0:0:
448,192,244165,1,0,0:0:0:0:
320,192,244254,1,0,0:0:0:0:
192,192,244342,1,0,0:0:0:0:
320,192,244430,1,0,0:0:0:0:
448,192,244430,1,0,0:0:0:0:
192,192,244518,1,0,0:0:0:0:
64,192,244607,1,0,0:0:0:0:
192,192,244695,1,0,0:0:0:0:
64,192,244783,1,0,0:0:0:0:
320,192,244783,1,0,0:0:0:0:
448,192,244783,1,0,0:0:0:0:
192,192,244871,1,0,0:0:0:0:
320,192,244959,1,0,0:0:0:0:
448,192,245048,1,0,0:0:0:0:
320,192,245136,1,0,0:0:0:0:
64,192,245224,1,0,0:0:0:0:
448,192,245312,1,0,0:0:0:0:
320,192,245401,1,0,0:0:0:0:
64,192,245489,1,0,0:0:0:0:
192,192,245489,1,0,0:0:0:0:
448,192,245489,1,0,0:0:0:0:
320,192,245577,1,0,0:0:0:0:
192,192,245665,1,0,0:0:0:0:
320,192,245754,1,0,0:0:0:0:
64,192,245842,1,0,0:0:0:0:
448,192,245842,1,0,0:0:0:0:
192,192,245930,1,0,0:0:0:0:
448,192,246018,1,0,0:0:0:0:
320,192,246107,1,0,0:0:0:0:
64,192,246195,1,0,0:0:0:0:
192,192,246195,1,0,0:0:0:0:
448,192,246195,1,0,0:0:0:0:
320,192,246283,1,0,0:0:0:0:
192,192,246371,1,0,0:0:0:0:
64,192,246459,1,0,0:0:0:0:
192,192,246548,1,0,0:0:0:0:
320,192,246636,1,0,0:0:0:0:
448,192,246724,1,0,0:0:0:0:
320,192,246812,1,0,0:0:0:0:
64,192,246901,1,0,0:0:0:0:
448,192,246901,1,0,0:0:0:0:
192,192,246989,1,0,0:0:0:0:
64,192,247077,1,0,0:0:0:0:
448,192,247165,1,0,0:0:0:0:
192,192,247254,1,0,0:0:0:0:
320,192,247254,1,0,0:0:0:0:
448,192,247342,1,0,0:0:0:0:
192,192,247430,1,0,0:0:0:0:
320,192,247518,1,0,0:0:0:0:
64,192,247607,1,0,0:0:0:0:
448,192,247607,1,0,0:0:0:0:
192,192,247695,1,0,0:0:0:0:
320,192,247783,1,0,0:0:0:0:
64,192,247871,1,0,0:0:0:0:
448,192,247959,1,0,0:0:0:0:
192,192,248048,1,0,0:0:0:0:
320,192,248136,1,0,0:0:0:0:
192,192,248224,1,0,0:0:0:0:
64,192,248312,1,0,0:0:0:0:
448,192,248312,1,0,0:0:0:0:
320,192,248401,1,0,0:0:0:0:
448,192,248489,1,0,0:0:0:0:
192,192,248577,1,0,0:0:0:0:
64,192,248665,1,0,0:0:0:0:
448,192,248754,1,0,0:0:0:0:
320,192,248842,1,0,0:0:0:0:
192,192,248930,1,0,0:0:0:0:
320,192,249018,1,0,0:0:0:0:
448,192,249018,1,0,0:0:0:0:
64,192,249107,1,0,0:0:0:0:
192,192,249195,1,0,0:0:0:0:
64,192,249283,1,0,0:0:0:0:
192,192,249371,1,0,0:0:0:0:
320,192,249371,1,0,0:0:0:0:
448,192,249459,1,0,0:0:0:0:
320,192,249548,1,0,0:0:0:0:
448,192,249636,1,0,0:0:0:0:
64,192,249724,1,0,0:0:0:0:
192,192,249724,1,0,0:0:0:0:
448,192,249812,1,0,0:0:0:0:
320,192,249901,1,0,0:0:0:0:
448,192,249989,1,0,0:0:0:0:
192,192,250077,1,0,0:0:0:0:
320,192,250077,1,0,0:0:0:0:
448,192,250165,1,0,0:0:0:0:
320,192,250254,1,0,0:0:0:0:
448,192,250342,1,0,0:0:0:0:
64,192,250430,1,0,0:0:0:0:
320,192,250430,1,0,0:0:0:0:
192,192,250607,1,0,0:0:0:0:
448,192,250607,1,0,0:0:0:0:
64,192,250783,1,0,0:0:0:0:
448,192,250783,1,0,0:0:0:0:
64,192,250959,1,0,0:0:0:0:
320,192,250959,1,0,0:0:0:0:
192,192,251136,1,0,0:0:0:0:
448,192,251136,1,0,0:0:0:0:
320,192,251312,1,0,0:0:0:0:
448,192,251312,1,0,0:0:0:0:
64,192,251489,1,0,0:0:0:0:
192,192,251489,1,0,0:0:0:0:
320,192,251665,1,0,0:0:0:0:
448,192,251665,1,0,0:0:0:0:
192,192,251842,1,0,0:0:0:0:
320,192,251842,1,0,0:0:0:0:
64,192,252018,1,0,0:0:0:0:
192,192,252018,1,0,0:0:0:0:
192,192,252195,1,0,0:0:0:0:
320,192,252195,1,0,0:0:0:0:
64,192,252371,1,0,0:0:0:0:
448,192,252371,1,0,0:0:0:0:
192,192,252548,1,0,0:0:0:0:
320,192,252548,1,0,0:0:0:0:
320,192,252724,1,0,0:0:0:0:
192,192,252812,1,0,0:0:0:0:
192,192,252989,1,0,0:0:0:0:
320,192,253077,1,0,0:0:0:0:
64,192,253254,1,0,0:0:0:0:
448,192,253254,1,0,0:0:0:0:
64,192,253430,1,0,0:0:0:0:
320,192,253430,1,0,0:0:0:0:
64,192,253607,1,0,0:0:0:0:
448,192,253607,1,0,0:0:0:0:
192,192,253783,1,0,0:0:0:0:
448,192,253783,1,0,0:0:0:0:
64,192,253959,1,0,0:0:0:0:
448,192,253959,1,0,0:0:0:0:
192,192,254136,1,0,0:0:0:0:
320,192,254136,1,0,0:0:0:0:
64,192,254312,1,0,0:0:0:0:
448,192,254312,1,0,0:0:0:0:
64,192,254489,1,0,0:0:0:0:
320,192,254489,1,0,0:0:0:0:
64,192,254665,1,0,0:0:0:0:
448,192,254665,1,0,0:0:0:0:
192,192,254842,1,0,0:0:0:0:
320,192,254842,1,0,0:0:0:0:
320,192,255018,1,0,0:0:0:0:
448,192,255018,1,0,0:0:0:0:
64,192,255195,1,0,0:0:0:0:
320,192,255195,1,0,0:0:0:0:
64,192,255371,1,0,0:0:0:0:
448,192,255371,1,0,0:0:0:0:
64,192,255548,1,0,0:0:0:0:
192,192,255636,1,0,0:0:0:0:
320,192,255724,1,0,0:0:0:0:
448,192,255812,1,0,0:0:0:0:
320,192,255901,1,0,0:0:0:0:
64,192,256077,1,0,0:0:0:0:
448,192,256077,1,0,0:0:0:0:
192,192,256254,1,0,0:0:0:0:
320,192,256254,1,0,0:0:0:0:
64,192,256430,1,0,0:0:0:0:
192,192,256430,1,0,0:0:0:0:
320,192,256607,1,0,0:0:0:0:
448,192,256607,1,0,0:0:0:0:
192,192,256783,1,0,0:0:0:0:
320,192,256783,1,0,0:0:0:0:
64,192,256959,1,0,0:0:0:0:
448,192,256959,1,0,0:0:0:0:
320,192,257136,1,0,0:0:0:0:
448,192,257136,1,0,0:0:0:0:
64,192,257312,1,0,0:0:0:0:
192,192,257312,1,0,0:0:0:0:
192,192,257489,1,0,0:0:0:0:
320,192,257489,1,0,0:0:0:0:
64,192,257665,1,0,0:0:0:0:
448,192,257665,1,0,0:0:0:0:
192,192,257842,1,0,0:0:0:0:
320,192,257842,1,0,0:0:0:0:
320,192,258018,1,0,0:0:0:0:
448,192,258018,1,0,0:0:0:0:
64,192,258195,1,0,0:0:0:0:
448,192,258195,1,0,0:0:0:0:
64,192,258371,1,0,0:0:0:0:
192,192,258459,1,0,0:0:0:0:
320,192,258636,1,0,0:0:0:0:
448,192,258724,1,0,0:0:0:0:
192,192,258901,1,0,0:0:0:0:
320,192,258901,1,0,0:0:0:0:
64,192,259077,1,0,0:0:0:0:
448,192,259077,1,0,0:0:0:0:
192,192,259254,1,0,0:0:0:0:
320,192,259254,1,0,0:0:0:0:
64,192,259430,1,0,0:0:0:0:
192,192,259430,1,0,0:0:0:0:
320,192,259607,1,0,0:0:0:0:
448,192,259607,1,0,0:0:0:0:
64,192,259783,1,0,0:0:0:0:
192,192,259783,1,0,0:0:0:0:
192,192,259959,1,0,0:0:0:0:
320,192,259959,1,0,0:0:0:0:
64,192,260136,1,0,0:0:0:0:
448,192,260136,1,0,0:0:0:0:
320,192,260312,1,0,0:0:0:0:
448,192,260312,1,0,0:0:0:0:
192,192,260489,1,0,0:0:0:0:
320,192,260489,1,0,0:0:0:0:
64,192,260665,1,0,0:0:0:0:
448,192,260665,1,0,0:0:0:0:
192,192,260842,1,0,0:0:0:0:
320,192,260842,1,0,0:0:0:0:
64,192,261018,1,0,0:0:0:0:
448,0,261018,128,0,261724:1:0:0:0:
320,192,261107,1,0,0:0:0:0:
192,192,261195,1,0,0:0:0:0:
64,192,261283,1,0,0:0:0:0:
192,192,261371,1,0,0:0:0:0:
320,192,261459,1,0,0:0:0:0:
192,192,261548,1,0,0:0:0:0:
64,192,261636,1,0,0:0:0:0:
192,192,261724,1,0,0:0:0:0:
320,192,261812,1,0,0:0:0:0:
448,192,261901,1,0,0:0:0:0:
320,192,261989,1,0,0:0:0:0:
192,192,262077,1,0,0:0:0:0:
320,192,262165,1,0,0:0:0:0:
448,192,262254,1,0,0:0:0:0:
320,192,262342,1,0,0:0:0:0:
448,192,262430,1,0,0:0:0:0:
320,192,262474,1,0,0:0:0:0:
192,192,262518,1,0,0:0:0:0:
64,192,262562,1,0,0:0:0:0:
448,192,262607,1,0,0:0:0:0:
320,192,262650,1,0,0:0:0:0:
192,192,262695,1,0,0:0:0:0:
64,192,262739,1,0,0:0:0:0:
448,192,262783,1,0,0:0:0:0:
320,192,262827,1,0,0:0:0:0:
192,192,262871,1,0,0:0:0:0:
64,192,262915,1,0,0:0:0:0:
448,192,262959,1,0,0:0:0:0:
320,192,263003,1,0,0:0:0:0:
192,192,263048,1,0,0:0:0:0:
64,192,263092,1,0,0:0:0:0:
320,0,263136,128,0,273724:1:0:0:0:
448,0,263136,128,0,273724:1:0:0:0:
