osu file format v14

[General]
AudioFilename: Super Street Fighter 4 - Balrog Theme.mp3
AudioLeadIn: 0
PreviewTime: -1
Countdown: 1
SampleSet: Normal
StackLeniency: 0.7
Mode: 0
LetterboxInBreaks: 1
WidescreenStoryboard: 0

[Editor]
DistanceSpacing: 0.8
BeatDivisor: 4
GridSize: 4
TimelineZoom: 3.999998

[Metadata]
Title:Super Street Fighter 4 Balrog Theme Soundtrack HD
TitleUnicode:Super Street Fighter 4 Balrog Theme Soundtrack HD
Artist:Ice Cube
ArtistUnicode:Ice Cube
Creator:Fear xx ME
Version:Ultra
Source:
Tags:
BeatmapID:676799
BeatmapSetID:301876

[Difficulty]
HPDrainRate:6
CircleSize:4.5
OverallDifficulty:7
ApproachRate:9.5
SliderMultiplier:3.59999990463257
SliderTickRate:1

[Events]
//Background and Video events
0,0,"balrog.jpg",0,0
//Break Periods
2,13677,26666
2,84387,88804
2,103026,115801
//Storyboard Layer 0 (Background)
//Storyboard Layer 1 (Fail)
//Storyboard Layer 2 (Pass)
//Storyboard Layer 3 (Foreground)
//Storyboard Sound Samples

[TimingPoints]
85,428.543285286143,4,1,0,70,1,0
41333,-200,4,1,0,70,0,0
55046,-100,4,1,0,70,0,1
61903,-50,4,1,0,70,0,1
63510,-100,4,1,0,70,0,1
84187,-100,4,1,0,70,0,0
89329,3428.57142857143,4,1,0,70,1,0
92757,428.543879322044,4,1,0,70,1,0
94471,3428.57142857143,4,1,0,70,1,0
94899,857.142857142857,4,1,0,70,1,0
101327,428.543879322044,4,1,0,70,1,0
130468,-200,4,1,0,70,0,0
144182,-100,4,1,0,70,0,1
164751,-50,4,1,0,70,0,1
170466,-100,4,1,0,70,0,1
171072,-133.333333333333,4,1,0,70,0,1
171340,-66.6666666666667,4,1,0,70,0,1
171608,-50,4,1,0,70,0,1
173751,-100,4,1,0,70,0,0

[HitObjects]
256,192,85,12,4,5334,0:0:0:0:
256,192,5549,5,4,0:0:0:0:
408,268,5763,2,0,B|456:336|428:208,1,74.9999976158142
115,75,5978,2,0,B|67:7|95:135,1,74.9999976158142
300,36,6193,1,0,0:0:0:0:
300,36,6299,1,0,0:0:0:0:
300,36,6406,2,0,L|364:100,2,89.9999976158142
164,312,6835,5,0,0:0:0:0:
136,288,6942,1,0,0:0:0:0:
108,264,7049,1,0,0:0:0:0:
64,80,7263,1,0,0:0:0:0:
256,344,7478,1,8,0:0:0:0:
460,66,7692,1,0,0:0:0:0:
64,293,7906,1,0,0:0:0:0:
256,36,8120,1,0,0:0:0:0:
474,296,8335,1,8,0:0:0:0:
160,196,8549,5,0,0:0:0:0:
160,196,8656,1,0,0:0:0:0:
160,196,8763,1,0,0:0:0:0:
360,204,8978,1,0,0:0:0:0:
360,204,9085,1,0,0:0:0:0:
360,204,9192,1,0,0:0:0:0:
228,316,9406,6,0,B|272:340|320:268|320:268,2,89.9999976158142
280,40,9835,2,0,B|248:32|196:68|196:68,2,89.9999976158142
300,348,10262,1,0,0:0:0:0:
324,336,10333,1,0,0:0:0:0:
344,320,10405,1,0,0:0:0:0:
99,192,10585,5,0,0:0:0:0:
113,192,10692,1,0,0:0:0:0:
257,41,10799,1,0,0:0:0:0:
257,55,10906,1,8,0:0:0:0:
417,195,11013,1,0,0:0:0:0:
403,195,11120,1,0,0:0:0:0:
257,334,11227,1,0,0:0:0:0:
257,321,11335,1,0,0:0:0:0:
192,192,11549,5,0,0:0:0:0:
256,192,11763,5,8,0:0:0:0:
316,192,11977,5,0,0:0:0:0:
452,188,12192,6,0,B|292:320|264:176|296:60|456:188|452:196,1,359.999990463257
316,192,12727,5,0,0:0:0:0:
256,192,12834,5,0,0:0:0:0:
196,192,12942,5,0,0:0:0:0:
60,196,13049,6,0,B|220:64|248:208|216:324|56:196|60:188,1,359.999990463257,0|4,0:0|0:0,0:0:0:0:
255,192,27191,5,0,0:0:0:0:
255,192,27298,1,0,0:0:0:0:
255,192,27405,1,0,0:0:0:0:
140,72,27619,5,4,0:0:0:0:
380,128,27833,1,0,0:0:0:0:
388,148,27941,1,0,0:0:0:0:
208,328,28155,1,0,0:0:0:0:
172,328,28262,1,0,0:0:0:0:
188,296,28369,1,0,0:0:0:0:
188,316,28476,2,0,P|120:316|144:204,2,179.999995231628,0|0|8,0:0|0:0|0:0,0:0:0:0:
376,47,29119,1,0,0:0:0:0:
360,79,29226,1,0,0:0:0:0:
360,59,29333,2,0,P|428:59|416:163,2,179.999995231628,0|0|8,0:0|0:0|0:0,0:0:0:0:
72,48,29976,5,0,0:0:0:0:
256,192,30190,1,0,0:0:0:0:
432,324,30405,1,0,0:0:0:0:
256,192,30619,1,0,0:0:0:0:
47,198,30833,2,0,B|47:189|48:288,2,89.9999976158142
75,130,31155,1,0,0:0:0:0:
123,78,31262,1,0,0:0:0:0:
185,40,31369,1,0,0:0:0:0:
256,35,31476,1,0,0:0:0:0:
324,56,31583,1,0,0:0:0:0:
384,94,31690,1,0,0:0:0:0:
431,147,31797,1,0,0:0:0:0:
460,208,31905,2,0,L|460:308|460:308,2,89.9999976158143,0|0|8,0:0|0:0|0:0,0:0:0:0:
76,360,32333,5,0,0:0:0:0:
76,360,32440,1,0,0:0:0:0:
424,192,32547,1,0,0:0:0:0:
424,192,32655,1,0,0:0:0:0:
72,36,32762,1,0,0:0:0:0:
80,32,32869,1,0,0:0:0:0:
256,192,32976,1,0,0:0:0:0:
260,196,33083,1,0,0:0:0:0:
352,324,33190,6,0,L|392:132,1,179.999995231628,8|0,0:0|0:0,0:0:0:0:
136,324,33619,2,0,L|92:148,1,179.999995231628,8|0,0:0|0:0,0:0:0:0:
228,60,34047,1,0,0:0:0:0:
228,60,34154,2,0,B|256:148|272:60|272:60,2,89.9999976158142
224,56,34476,5,8,0:0:0:0:
68,196,34690,1,0,0:0:0:0:
84,192,34797,1,0,0:0:0:0:
72,324,35012,1,0,0:0:0:0:
92,324,35119,1,0,0:0:0:0:
108,324,35226,1,0,0:0:0:0:
124,324,35333,2,0,L|188:260,1,89.9999976158142,8|0,0:0|0:0,0:0:0:0:
380,52,35547,2,0,L|316:124,1,89.9999976158142
448,200,35761,2,0,L|336:200,1,89.9999976158142
80,192,35976,2,0,L|180:192,1,89.9999976158142
388,332,36190,6,0,L|320:260,1,89.9999976158142,8|0,0:0|0:0,0:0:0:0:
124,44,36404,2,0,L|192:116,1,89.9999976158142
128,332,36619,2,0,L|200:260,1,89.9999976158142
400,40,36833,2,0,L|328:120,1,89.9999976158142
232,192,37047,6,0,L|280:192,6,44.9999988079071,8|0|8|0|8|0|8,0:0|0:0|0:0|0:0|0:0|0:0|0:0,0:0:0:0:
212,64,37690,5,0,0:0:0:0:
256,44,37797,1,0,0:0:0:0:
300,64,37904,1,0,0:0:0:0:
256,192,38118,1,8,0:0:0:0:
296,316,38333,1,0,0:0:0:0:
256,344,38440,1,0,0:0:0:0:
216,316,38547,1,0,0:0:0:0:
256,192,38761,1,8,0:0:0:0:
122,232,38976,1,0,0:0:0:0:
94,192,39083,1,0,0:0:0:0:
122,152,39190,1,0,0:0:0:0:
256,192,39404,1,8,0:0:0:0:
389,149,39618,1,0,0:0:0:0:
417,193,39725,1,0,0:0:0:0:
389,229,39833,1,0,0:0:0:0:
256,192,40047,12,4,41333,0:0:0:0:
256,192,43047,5,4,0:0:0:0:
79,193,44761,6,0,L|448:193,1,359.999990463257
115,69,45831,5,0,0:0:0:0:
115,69,45902,1,0,0:0:0:0:
115,69,45974,1,0,0:0:0:0:
396,69,46207,1,0,0:0:0:0:
396,69,46422,1,8,0:0:0:0:
401,299,46635,1,0,0:0:0:0:
401,299,46707,1,0,0:0:0:0:
401,299,46778,1,0,0:0:0:0:
115,303,47011,5,0,0:0:0:0:
115,303,47118,1,0,0:0:0:0:
115,303,47225,1,8,0:0:0:0:
186,308,47332,1,0,0:0:0:0:
252,280,47439,1,0,0:0:0:0:
308,236,47546,1,0,0:0:0:0:
356,180,47654,1,0,0:0:0:0:
354,126,47760,5,0,0:0:0:0:
345,78,47832,1,0,0:0:0:0:
311,44,47903,1,0,0:0:0:0:
264,31,47975,1,0,0:0:0:0:
219,49,48046,1,0,0:0:0:0:
200,92,48136,5,4,0:0:0:0:
200,92,48618,1,0,0:0:0:0:
200,92,49046,1,8,0:0:0:0:
200,92,49689,1,0,0:0:0:0:
200,92,49903,1,4,0:0:0:0:
200,92,50333,2,0,B|316:48|384:104|384:104,2,179.999995231629,0|8|0,0:0|0:0|0:0,0:0:0:0:
200,88,51403,1,0,0:0:0:0:
200,88,51618,1,0,0:0:0:0:
440,272,52046,6,0,L|380:332,5,44.9999988079071
380,312,52689,1,0,0:0:0:0:
353,320,52760,1,0,0:0:0:0:
326,325,52832,1,0,0:0:0:0:
298,327,52903,1,0,0:0:0:0:
270,325,52975,1,0,0:0:0:0:
243,319,53046,1,0,0:0:0:0:
217,308,53118,1,0,0:0:0:0:
193,294,53189,1,0,0:0:0:0:
171,277,53260,1,0,0:0:0:0:
152,256,53332,1,0,0:0:0:0:
136,234,53403,1,0,0:0:0:0:
123,209,53475,1,0,0:0:0:0:
112,183,53546,1,0,0:0:0:0:
100,136,53617,5,0,0:0:0:0:
112,88,53689,1,0,0:0:0:0:
156,104,53760,1,0,0:0:0:0:
204,116,53832,1,0,0:0:0:0:
252,116,53903,1,0,0:0:0:0:
300,116,53975,1,0,0:0:0:0:
348,104,54046,1,0,0:0:0:0:
392,88,54117,1,0,0:0:0:0:
436,68,54189,1,0,0:0:0:0:
472,124,54260,5,0,0:0:0:0:
472,188,54332,1,0,0:0:0:0:
432,240,54403,1,0,0:0:0:0:
376,280,54475,1,0,0:0:0:0:
312,304,54546,1,0,0:0:0:0:
244,312,54617,1,0,0:0:0:0:
176,308,54689,1,0,0:0:0:0:
116,264,54760,1,0,0:0:0:0:
80,200,54832,1,0,0:0:0:0:
80,124,54903,1,0,0:0:0:0:
272,44,55046,5,4,0:0:0:0:
400,72,55153,1,0,0:0:0:0:
440,184,55260,1,0,0:0:0:0:
392,288,55367,1,0,0:0:0:0:
268,324,55474,1,0,0:0:0:0:
160,320,55582,1,0,0:0:0:0:
64,260,55689,1,0,0:0:0:0:
56,180,55796,1,0,0:0:0:0:
56,168,55849,1,0,0:0:0:0:
56,152,55903,2,0,B|104:60|180:32|184:32,3,179.999995231629,8|0|0|0,0:0|0:0|0:0|0:0,0:0:0:0:
364,120,56760,5,0,0:0:0:0:
372,140,56867,1,0,0:0:0:0:
300,224,56974,1,0,0:0:0:0:
172,224,57082,1,0,0:0:0:0:
88,136,57189,1,8,0:0:0:0:
156,48,57296,1,0,0:0:0:0:
216,132,57403,1,0,0:0:0:0:
320,136,57510,1,0,0:0:0:0:
464,140,57617,2,0,P|464:236|436:324,3,179.999995231629,8|0|0|0,0:0|0:0|0:0|0:0,0:0:0:0:
68,336,58474,5,0,0:0:0:0:
452,340,58689,1,0,0:0:0:0:
68,188,58902,1,0,0:0:0:0:
452,192,59117,1,0,0:0:0:0:
64,28,59331,1,0,0:0:0:0:
448,32,59546,1,0,0:0:0:0:
80,332,59760,5,0,0:0:0:0:
80,332,59867,1,0,0:0:0:0:
80,332,59974,1,8,0:0:0:0:
76,8,60188,1,0,0:0:0:0:
76,8,60296,1,0,0:0:0:0:
76,8,60403,1,8,0:0:0:0:
448,196,60617,1,0,0:0:0:0:
260,192,60831,5,0,0:0:0:0:
260,192,60902,1,0,0:0:0:0:
260,192,60973,1,0,0:0:0:0:
292,228,61045,1,0,0:0:0:0:
284,276,61116,1,0,0:0:0:0:
240,296,61188,1,0,0:0:0:0:
192,296,61259,1,0,0:0:0:0:
156,264,61330,1,0,0:0:0:0:
144,216,61402,1,0,0:0:0:0:
148,168,61473,1,0,0:0:0:0:
176,128,61545,5,0,0:0:0:0:
216,104,61616,1,0,0:0:0:0:
264,100,61688,1,0,0:0:0:0:
84,352,61903,6,4,P|32:180|60:-24,1,359.999990463257,4|0,0:0|0:0,0:0:0:0:
424,4,62331,2,0,P|476:176|448:380,1,359.999990463257
72,76,62760,2,0,P|264:28|440:52,1,359.999990463257
440,304,63188,2,0,P|248:352|72:328,1,359.999990463257,8|0,0:0|0:0,0:0:0:0:
96,172,63617,1,0,0:0:0:0:
96,172,63724,1,0,0:0:0:0:
90,179,63831,2,0,B|176:32|176:32|356:32|356:32|448:192|448:192|360:340|360:340|172:340|172:340|96:172,1,1079.99997138977,0|8,0:0|0:0,0:0:0:0:
120,64,65331,5,0,0:0:0:0:
184,36,65438,1,0,0:0:0:0:
256,28,65545,1,0,0:0:0:0:
320,60,65652,1,0,0:0:0:0:
384,236,65759,5,0,0:0:0:0:
348,268,65830,1,0,0:0:0:0:
300,280,65902,1,0,0:0:0:0:
252,284,65973,1,0,0:0:0:0:
104,216,66081,5,0,0:0:0:0:
96,176,66135,1,8,0:0:0:0:
96,136,66188,1,0,0:0:0:0:
112,96,66242,1,0,0:0:0:0:
146,67,66295,1,0,0:0:0:0:
188,52,66349,5,0,0:0:0:0:
231,41,66402,1,0,0:0:0:0:
274,45,66456,1,0,0:0:0:0:
317,58,66509,1,0,0:0:0:0:
256,344,66831,37,0,0:0:0:0:
168,240,67259,1,8,0:0:0:0:
332,240,67474,1,0,0:0:0:0:
68,136,67688,1,0,0:0:0:0:
444,140,67902,1,8,0:0:0:0:
256,192,68009,12,0,68652,0:0:0:0:
124,48,68759,6,0,L|176:144,1,89.9999976158143,4|0,0:0|0:0,0:0:0:0:
80,132,68974,2,0,L|132:232,1,89.9999976158143
396,44,69188,2,0,L|352:132,1,89.9999976158143,8|0,0:0|0:0,0:0:0:0:
448,128,69402,2,0,L|408:208,1,89.9999976158143
368,324,69616,2,0,L|316:244,1,89.9999976158143,8|0,0:0|0:0,0:0:0:0:
116,320,69831,2,0,L|184:216,1,89.9999976158143
248,344,70045,2,0,L|248:160,1,179.999995231629,8|0,0:0|0:0,0:0:0:0:
132,88,70474,5,0,0:0:0:0:
164,76,70527,1,0,0:0:0:0:
200,80,70581,2,0,L|248:100,1,44.9999988079071
344,120,70688,2,0,L|364:168,2,44.9999988079071,8|0|0,0:0|0:0|0:0,0:0:0:0:
408,284,70902,2,0,L|356:312,2,44.9999988079071,8|0|0,0:0|0:0|0:0,0:0:0:0:
244,328,71116,2,0,L|180:288,2,44.9999988079071,8|0|0,0:0|0:0|0:0,0:0:0:0:
120,248,71331,2,0,L|84:184,3,44.9999988079071,8|0|8|0,0:0|0:0|0:0|0:0,0:0:0:0:
80,112,71652,2,0,L|124:44,8,44.9999988079071,8|0|0|0|0|0|0|0|0,0:0|0:0|0:0|0:0|0:0|0:0|0:0|0:0|0:0,0:0:0:0:
112,52,72188,6,0,L|208:52,1,89.9999976158143,8|0,0:0|0:0,0:0:0:0:
432,52,72402,2,0,L|340:52,1,89.9999976158143
112,160,72616,2,0,L|208:160,1,89.9999976158143,8|0,0:0|0:0,0:0:0:0:
432,160,72830,2,0,L|340:160,1,89.9999976158143
304,32,73045,2,0,L|304:144,1,89.9999976158143,8|0,0:0|0:0,0:0:0:0:
208,32,73259,2,0,L|208:136,1,89.9999976158143
216,320,73473,6,0,L|220:268,1,44.9999988079071
248,324,73580,2,0,L|247:271,1,44.9999988079071
280,320,73688,2,0,L|274:268,1,44.9999988079071
284,48,73902,2,0,L|280:100,1,44.9999988079071
264,44,74009,2,0,L|264:96,1,44.9999988079071
240,44,74116,2,0,L|245:95,1,44.9999988079071
216,44,74223,2,0,L|225:95,1,44.9999988079071
256,192,74330,12,4,75508,0:0:0:0:
60,56,75615,6,0,L|160:56,1,89.9999976158143
300,60,75830,2,0,L|400:60,1,89.9999976158143
480,212,76044,2,0,L|368:212,1,89.9999976158143,8|0,0:0|0:0,0:0:0:0:
208,208,76258,2,0,L|108:208,1,89.9999976158143
72,352,76472,5,0,0:0:0:0:
84,352,76580,2,0,L|160:276,1,89.9999976158143
412,40,76795,2,0,L|336:112,1,89.9999976158143
420,348,77009,2,0,L|348:276,2,89.9999976158143
168,96,77330,2,0,L|100:28,1,89.9999976158143,8|0,0:0|0:0,0:0:0:0:
352,192,77544,2,0,L|444:192,1,89.9999976158143
176,192,77759,2,0,L|84:192,1,89.9999976158143,8|0,0:0|0:0,0:0:0:0:
260,112,77973,2,0,L|260:16,1,89.9999976158143
260,268,78187,2,0,L|260:360,1,89.9999976158143,8|0,0:0|0:0,0:0:0:0:
208,108,78402,2,0,P|316:108|292:92,1,359.999990463257,0|4,0:0|0:0,0:0:0:0:
100,228,79044,5,0,0:0:0:0:
92,183,79098,1,0,0:0:0:0:
95,138,79152,1,0,0:0:0:0:
108,96,79205,1,0,0:0:0:0:
132,68,79259,2,0,L|168:32,3,44.9999988079071,8|0|0|0,0:0|0:0|0:0|0:0,0:0:0:0:
200,28,79473,5,0,0:0:0:0:
236,24,79526,1,0,0:0:0:0:
272,32,79580,1,0,0:0:0:0:
304,44,79634,1,0,0:0:0:0:
332,68,79687,1,8,0:0:0:0:
352,100,79741,2,0,L|360:152,3,44.9999988079071
364,180,79955,5,0,0:0:0:0:
356,216,80009,1,0,0:0:0:0:
336,244,80062,1,0,0:0:0:0:
308,268,80116,1,0,0:0:0:0:
152,232,80276,5,0,0:0:0:0:
273,81,80384,1,0,0:0:0:0:
342,262,80491,1,8,0:0:0:0:
169,121,80598,1,0,0:0:0:0:
360,152,80705,1,0,0:0:0:0:
238,302,80812,1,0,0:0:0:0:
96,192,80919,5,0,0:0:0:0:
256,32,81026,1,0,0:0:0:0:
416,192,81134,1,8,0:0:0:0:
256,352,81241,1,0,0:0:0:0:
96,352,81348,5,0,0:0:0:0:
96,32,81455,1,0,0:0:0:0:
416,32,81562,1,8,0:0:0:0:
416,32,81669,1,0,0:0:0:0:
416,32,81776,1,0,0:0:0:0:
420,356,81883,5,8,0:0:0:0:
420,356,81991,1,0,0:0:0:0:
420,356,82098,1,0,0:0:0:0:
260,196,82205,1,8,0:0:0:0:
260,196,82312,1,0,0:0:0:0:
296,240,82419,1,8,0:0:0:0:
260,196,82526,1,0,0:0:0:0:
216,148,82633,1,0,0:0:0:0:
256,192,82741,12,4,84187,0:0:0:0:
168,144,89329,6,0,P|208:96|212:108,1,134.999996423721
376,100,91044,1,8,0:0:0:0:
384,236,91686,2,0,L|348:284,1,44.9999988079071
168,300,92436,1,0,0:0:0:0:
256,48,92758,2,0,B|284:40|284:40|228:40|228:40|288:40|288:40|224:40|224:40|288:44|288:44|224:44|224:44|256:56|256:56|284:44|284:44|228:44|228:44|284:56|284:56|288:56|288:56|224:56|224:56|256:80|256:80|256:176|256:176,1,719.999980926514,0|8,0:0|0:0,0:0:0:0:
120,64,94043,6,0,L|192:136,1,100.000001490116
412,56,94258,2,0,L|348:136,1,100.000001490116
256,192,94472,2,0,L|256:216,1,20.0000002980232,0|8,0:0|0:0,0:0:0:0:
256,192,94899,5,0,0:0:0:0:
256,192,95327,1,0,0:0:0:0:
256,192,95756,1,0,0:0:0:0:
256,192,96184,5,0,0:0:0:0:
256,188,96398,2,0,L|256:108,1,44.9999988079071
256,192,96613,2,0,L|312:224,1,44.9999988079071,8|0,0:0|0:0,0:0:0:0:
256,192,96827,2,0,L|208:216,1,44.9999988079071
256,192,97041,6,0,L|304:168,1,44.9999988079071
256,192,97255,2,0,L|256:244,1,44.9999988079071
256,192,97470,2,0,L|224:160,1,44.9999988079071,8|0,0:0|0:0,0:0:0:0:
140,76,97898,5,0,0:0:0:0:
168,52,98005,1,0,0:0:0:0:
192,44,98113,1,0,0:0:0:0:
324,40,98327,5,0,0:0:0:0:
352,56,98434,1,0,0:0:0:0:
372,84,98541,1,0,0:0:0:0:
380,208,98755,5,0,0:0:0:0:
360,228,98862,1,0,0:0:0:0:
332,240,98969,1,0,0:0:0:0:
232,236,99184,5,0,0:0:0:0:
212,236,99291,1,0,0:0:0:0:
192,228,99398,1,0,0:0:0:0:
176,208,99505,1,0,0:0:0:0:
168,188,99612,1,0,0:0:0:0:
168,168,99720,1,0,0:0:0:0:
216,168,99827,6,0,L|272:204,1,44.9999988079071
256,240,100042,2,0,L|256:182,1,44.9999988079071,8|0,0:0|0:0,0:0:0:0:
296,172,100256,2,0,L|251:197,1,44.9999988079071
216,216,100470,6,0,L|262:191,1,44.9999988079071
296,220,100684,2,0,L|243:183,1,44.9999988079071
256,148,100899,2,0,L|256:196,1,44.9999988079071,8|0,0:0|0:0,0:0:0:0:
256,68,101327,5,0,0:0:0:0:
360,72,101434,2,0,P|436:108|500:88,1,89.9999976158143
256,68,101755,1,8,0:0:0:0:
152,72,101862,2,0,P|76:108|12:88,1,89.9999976158143
256,68,102184,1,0,0:0:0:0:
340,200,102291,2,0,P|387:269|453:283,1,89.9999976158143
256,68,102612,1,8,0:0:0:0:
172,200,102719,2,0,P|124:269|58:283,1,89.9999976158143
256,192,116326,5,4,0:0:0:0:
256,192,116433,1,0,0:0:0:0:
256,192,116540,1,0,0:0:0:0:
136,308,116754,5,0,0:0:0:0:
132,80,116969,1,0,0:0:0:0:
132,80,117076,1,8,0:0:0:0:
328,80,117290,2,0,P|412:48|428:32,2,89.9999976158143
224,84,117611,6,0,L|180:84,1,44.9999988079071
224,112,117718,2,0,L|180:119,1,44.9999988079071
236,140,117825,2,0,L|194:155,1,44.9999988079071
248,168,117933,2,0,L|209:190,1,44.9999988079071
67,31,118200,6,0,P|117:74|184:80,1,134.999996423721
288,84,118467,6,0,L|332:84,1,44.9999988079071
288,112,118574,2,0,L|331:119,1,44.9999988079071
276,140,118681,2,0,L|317:155,1,44.9999988079071
264,168,118789,2,0,L|302:190,1,44.9999988079071,0|8,0:0|0:0,0:0:0:0:
152,336,119111,5,0,0:0:0:0:
148,40,119326,1,0,0:0:0:0:
404,192,119540,1,0,0:0:0:0:
152,336,119754,1,0,0:0:0:0:
47,185,119968,6,0,B|47:195|48:96,2,89.9999976158142
75,254,120290,1,0,0:0:0:0:
123,306,120397,1,0,0:0:0:0:
185,344,120504,1,0,0:0:0:0:
256,349,120611,1,0,0:0:0:0:
324,328,120718,1,0,0:0:0:0:
384,290,120825,1,0,0:0:0:0:
431,237,120932,1,0,0:0:0:0:
460,176,121040,2,0,L|460:76|460:76,2,89.9999976158143,0|0|8,0:0|0:0|0:0,0:0:0:0:
133,66,121468,5,0,0:0:0:0:
137,74,121575,1,0,0:0:0:0:
381,69,121682,1,8,0:0:0:0:
373,73,121789,1,0,0:0:0:0:
378,317,121897,1,0,0:0:0:0:
374,309,122004,1,0,0:0:0:0:
130,314,122111,1,8,0:0:0:0:
138,310,122218,1,0,0:0:0:0:
164,24,122325,6,0,L|164:220,1,179.999995231629
340,360,122754,2,0,L|340:160,1,179.999995231629,8|0,0:0|0:0,0:0:0:0:
300,192,123075,1,0,0:0:0:0:
300,192,123182,2,0,L|196:192,2,89.9999976158143,8|0|0,0:0|0:0|0:0,0:0:0:0:
210,192,123611,5,4,0:0:0:0:
108,76,123825,1,0,0:0:0:0:
108,76,123932,1,0,0:0:0:0:
152,256,124147,1,0,0:0:0:0:
172,272,124254,1,0,0:0:0:0:
192,280,124361,1,0,0:0:0:0:
212,292,124468,6,0,P|296:292|316:276,1,89.9999976158143,8|0,0:0|0:0,0:0:0:0:
356,236,124682,2,0,P|356:152|340:132,1,89.9999976158143
300,92,124897,2,0,P|216:92|196:108,1,89.9999976158143
156,148,125111,2,0,P|156:232|172:252,1,89.9999976158143
216,340,125325,6,0,P|300:340|320:324,1,89.9999976158143,8|0,0:0|0:0,0:0:0:0:
404,232,125539,2,0,P|404:148|388:128,1,89.9999976158143
296,44,125754,2,0,P|212:44|192:60,1,89.9999976158143
108,152,125968,2,0,P|108:236|124:256,1,89.9999976158143
408,352,126182,2,0,P|488:288|488:244,1,89.9999976158143,8|0,0:0|0:0,0:0:0:0:
480,77,126396,2,0,P|450:45|408:32,1,89.9999976158143
104,31,126611,2,0,P|61:45|31:77,1,89.9999976158143
31,306,126825,2,0,P|61:338|104:352,1,89.9999976158143
160,80,127039,5,8,0:0:0:0:
164,92,127111,1,0,0:0:0:0:
168,104,127182,2,0,L|188:164,2,59.9999984105428
400,72,127468,1,0,0:0:0:0:
372,104,127540,1,0,0:0:0:0:
348,132,127611,2,0,L|308:184,2,59.9999984105428
76,172,127896,1,0,0:0:0:0:
116,228,127968,1,0,0:0:0:0:
160,280,128039,2,0,L|208:340,2,59.9999984105428
380,236,128325,5,8,0:0:0:0:
396,204,128379,1,0,0:0:0:0:
408,172,128432,1,0,0:0:0:0:
416,136,128486,1,0,0:0:0:0:
412,100,128539,2,0,P|372:264|364:276,2,179.999995231629
168,128,129182,5,8,0:0:0:0:
152,160,129236,1,0,0:0:0:0:
140,192,129289,1,0,0:0:0:0:
132,228,129343,1,0,0:0:0:0:
136,264,129396,2,0,P|176:100|184:88,2,179.999995231629
256,192,129932,12,4,130468,0:0:0:0:
256,192,132182,5,4,0:0:0:0:
116,192,133896,6,0,L|480:192,1,359.999990463257
116,64,134967,5,0,0:0:0:0:
116,64,135182,1,0,0:0:0:0:
256,192,135396,1,0,0:0:0:0:
256,192,135503,1,0,0:0:0:0:
256,192,135610,1,8,0:0:0:0:
396,320,135824,1,0,0:0:0:0:
396,320,136039,1,0,0:0:0:0:
84,300,136253,1,0,0:0:0:0:
84,300,136360,1,0,0:0:0:0:
156,292,136467,1,8,0:0:0:0:
216,248,136574,1,0,0:0:0:0:
256,192,136681,1,0,0:0:0:0:
272,124,136788,5,0,0:0:0:0:
252,80,136860,1,0,0:0:0:0:
212,56,136931,1,0,0:0:0:0:
164,52,137003,1,0,0:0:0:0:
128,84,137074,1,0,0:0:0:0:
128,132,137145,1,0,0:0:0:0:
160,168,137217,1,0,0:0:0:0:
208,160,137288,5,4,0:0:0:0:
208,160,137753,1,0,0:0:0:0:
208,160,138181,2,0,L|352:72,1,134.999996423721
323,89,138825,1,0,0:0:0:0:
323,89,139039,1,8,0:0:0:0:
328,92,139468,1,0,0:0:0:0:
328,92,139896,1,0,0:0:0:0:
328,92,140218,1,0,0:0:0:0:
328,92,140539,6,0,L|232:160,1,89.9999976158143,0|8,0:0|0:0,0:0:0:0:
124,280,141825,5,0,0:0:0:0:
256,32,141932,1,0,0:0:0:0:
384,288,142039,1,8,0:0:0:0:
128,112,142146,1,0,0:0:0:0:
256,352,142253,1,0,0:0:0:0:
372,112,142360,1,0,0:0:0:0:
124,280,142468,1,0,0:0:0:0:
116,264,142539,5,0,0:0:0:0:
112,248,142610,1,0,0:0:0:0:
116,224,142682,1,0,0:0:0:0:
128,204,142753,1,0,0:0:0:0:
148,192,142825,1,0,0:0:0:0:
172,188,142896,1,0,0:0:0:0:
196,196,142968,1,0,0:0:0:0:
216,208,143039,1,0,0:0:0:0:
236,220,143110,1,8,0:0:0:0:
264,236,143182,5,0,0:0:0:0:
296,248,143253,1,0,0:0:0:0:
332,244,143325,1,0,0:0:0:0:
364,236,143396,1,0,0:0:0:0:
396,216,143467,1,0,0:0:0:0:
416,176,143538,1,0,0:0:0:0:
420,132,143610,1,0,0:0:0:0:
408,84,143681,1,0,0:0:0:0:
380,48,143753,1,0,0:0:0:0:
336,20,143824,1,0,0:0:0:0:
268,16,143896,1,0,0:0:0:0:
196,32,143967,1,0,0:0:0:0:
136,72,144039,1,0,0:0:0:0:
88,184,144181,5,4,0:0:0:0:
141,314,144288,1,0,0:0:0:0:
272,368,144395,1,0,0:0:0:0:
402,314,144502,1,0,0:0:0:0:
456,184,144610,1,8,0:0:0:0:
402,53,144717,1,0,0:0:0:0:
272,0,144824,1,0,0:0:0:0:
141,53,144931,1,0,0:0:0:0:
88,184,145038,2,0,P|220:344|292:372,2,269.999992847443
264,324,145895,5,0,0:0:0:0:
264,324,146002,1,0,0:0:0:0:
352,320,146109,1,8,0:0:0:0:
352,224,146217,5,0,0:0:0:0:
256,224,146324,1,0,0:0:0:0:
160,224,146431,1,0,0:0:0:0:
160,320,146538,1,0,0:0:0:0:
444,320,146645,1,0,0:0:0:0:
444,124,146752,1,0,0:0:0:0:
72,120,146859,1,0,0:0:0:0:
72,320,146967,1,0,0:0:0:0:
152,220,147074,6,0,P|428:220|448:232,1,269.999992847443
36,32,147609,5,0,0:0:0:0:
480,352,147824,1,0,0:0:0:0:
476,32,148038,1,8,0:0:0:0:
36,352,148252,1,0,0:0:0:0:
256,32,148466,5,0,0:0:0:0:
256,352,148681,1,0,0:0:0:0:
32,192,148895,1,8,0:0:0:0:
480,192,149109,1,0,0:0:0:0:
260,196,149324,2,8,B|200:264|388:312|444:236|404:96|392:68|92:60|156:236|200:284,2,539.999985694885
152,260,151038,6,0,P|192:348|212:356,1,89.9999976158143
376,260,151252,2,0,P|336:348|316:356,1,89.9999976158143,8|0,0:0|0:0,0:0:0:0:
112,152,151466,2,0,P|196:212|240:192,1,89.9999976158143
400,152,151681,2,0,P|316:212|272:192,1,89.9999976158143
60,48,151895,2,0,P|168:60|192:40,1,89.9999976158143,8|0,0:0|0:0,0:0:0:0:
452,48,152109,2,0,P|344:60|320:40,2,89.9999976158143
232,164,152752,6,0,L|272:208,2,59.9999984105428
320,192,152966,2,0,L|412:192,1,89.9999976158143,8|0,0:0|0:0,0:0:0:0:
184,192,153181,2,0,L|92:192,1,89.9999976158143
368,128,153395,2,0,L|496:48,1,89.9999976158143
144,256,153609,2,0,L|16:336,1,89.9999976158143,8|0,0:0|0:0,0:0:0:0:
396,72,153824,2,0,L|460:-8,1,89.9999976158143
116,312,154038,2,0,L|52:392,1,89.9999976158143
88,108,154466,5,0,0:0:0:0:
120,72,154538,1,0,0:0:0:0:
164,60,154609,1,0,0:0:0:0:
208,76,154680,1,0,0:0:0:0:
224,120,154752,1,0,0:0:0:0:
208,164,154823,5,8,0:0:0:0:
168,192,154895,1,0,0:0:0:0:
120,204,154966,1,0,0:0:0:0:
100,248,155037,1,0,0:0:0:0:
108,296,155109,1,0,0:0:0:0:
144,324,155180,1,0,0:0:0:0:
192,336,155252,1,0,0:0:0:0:
232,308,155323,6,0,L|272:264,3,59.9999984105428,8|0|0|0,0:0|0:0|0:0|0:0,0:0:0:0:
284,216,155609,1,0,0:0:0:0:
244,192,155680,1,0,0:0:0:0:
204,168,155752,5,8,0:0:0:0:
172,132,155823,1,0,0:0:0:0:
156,88,155895,1,0,0:0:0:0:
168,44,155966,1,0,0:0:0:0:
208,20,156037,1,0,0:0:0:0:
256,24,156109,6,0,L|312:56,3,59.9999984105428
336,92,156395,1,8,0:0:0:0:
340,140,156466,1,0,0:0:0:0:
300,168,156537,1,0,0:0:0:0:
256,184,156609,1,8,0:0:0:0:
84,312,156823,5,0,0:0:0:0:
84,312,157037,1,8,0:0:0:0:
256,192,157144,12,0,157787,0:0:0:0:
172,192,157894,6,0,P|256:252|280:244,1,89.9999976158143,4|0,0:0|0:0,0:0:0:0:
340,192,158109,2,0,P|256:132|232:140,1,89.9999976158143
108,232,158323,2,0,P|192:292|216:284,1,89.9999976158143,8|0,0:0|0:0,0:0:0:0:
404,152,158537,2,0,P|320:92|296:100,1,89.9999976158143
32,284,158752,2,0,P|116:344|140:336,2,89.9999976158143,8|0|0,0:0|0:0|0:0,0:0:0:0:
480,100,159073,2,0,P|396:40|372:48,2,89.9999976158143
408,352,159609,6,0,P|488:288|488:244,1,89.9999976158143
480,77,159823,2,0,P|450:45|408:32,1,89.9999976158143,8|0,0:0|0:0,0:0:0:0:
104,31,160038,2,0,P|61:45|31:77,1,89.9999976158143
31,306,160251,2,0,P|61:338|104:352,2,89.9999976158143,8|0|8,0:0|0:0|0:0,0:0:0:0:
31,76,160573,2,0,P|61:44|104:31,1,89.9999976158143,8|0,0:0|0:0,0:0:0:0:
406,31,160788,2,0,P|449:44|480:77,1,89.9999976158143
480,306,161002,2,0,P|450:338|408:352,1,89.9999976158143,0|8,0:0|0:0,0:0:0:0:
260,192,161323,5,0,0:0:0:0:
260,192,161376,1,0,0:0:0:0:
260,192,161430,1,0,0:0:0:0:
260,192,161484,1,0,0:0:0:0:
260,192,161537,1,0,0:0:0:0:
260,192,161591,1,0,0:0:0:0:
260,192,161644,1,0,0:0:0:0:
260,192,161698,1,0,0:0:0:0:
260,192,161751,2,0,L|312:192,6,44.9999988079071
260,192,162126,2,0,L|260:248,6,44.9999988079071
284,340,162608,6,0,B|440:340|440:340|440:248|440:248,1,224.999994039536,0|8,0:0|0:0,0:0:0:0:
284,44,162983,2,0,B|440:44|440:44|440:124|440:124,1,224.999994039536,0|8,0:0|0:0,0:0:0:0:
256,192,163412,12,0,164537,0:0:0:0:
120,88,164751,6,0,L|468:352,1,359.999990463257,4|0,0:0|0:0,0:0:0:0:
406,78,165180,2,0,L|120:296,1,359.999990463257
432,316,165608,2,0,P|432:16|444:8,1,359.999990463257
80,316,166037,2,0,P|80:16|68:8,1,359.999990463257
124,112,166465,5,0,0:0:0:0:
124,112,166537,1,0,0:0:0:0:
124,112,166608,1,0,0:0:0:0:
156,152,166680,1,0,0:0:0:0:
204,176,166751,1,8,0:0:0:0:
388,112,166894,5,0,0:0:0:0:
388,112,166966,1,0,0:0:0:0:
388,112,167037,1,0,0:0:0:0:
356,152,167109,1,0,0:0:0:0:
308,176,167180,1,0,0:0:0:0:
124,272,167322,5,0,0:0:0:0:
124,272,167394,1,0,0:0:0:0:
124,272,167465,1,0,0:0:0:0:
156,232,167537,1,0,0:0:0:0:
204,208,167608,1,8,0:0:0:0:
388,272,167751,5,0,0:0:0:0:
388,272,167823,1,0,0:0:0:0:
388,272,167894,1,0,0:0:0:0:
356,232,167966,1,0,0:0:0:0:
308,208,168037,1,0,0:0:0:0:
92,76,168180,5,0,0:0:0:0:
119,77,168233,1,0,0:0:0:0:
147,80,168287,1,0,0:0:0:0:
174,85,168340,1,0,0:0:0:0:
201,95,168394,1,0,0:0:0:0:
222,112,168447,1,0,0:0:0:0:
250,190,168608,5,0,0:0:0:0:
258,217,168662,1,0,0:0:0:0:
272,241,168715,1,0,0:0:0:0:
293,258,168769,1,0,0:0:0:0:
320,266,168822,1,0,0:0:0:0:
348,265,168876,1,0,0:0:0:0:
417,222,169037,5,0,0:0:0:0:
431,198,169090,1,0,0:0:0:0:
437,170,169144,1,0,0:0:0:0:
433,143,169197,1,0,0:0:0:0:
419,119,169251,1,0,0:0:0:0:
398,101,169304,1,0,0:0:0:0:
373,89,169358,1,0,0:0:0:0:
345,84,169412,1,0,0:0:0:0:
318,84,169465,1,8,0:0:0:0:
290,89,169519,1,0,0:0:0:0:
263,97,169572,1,0,0:0:0:0:
64,44,169679,5,0,0:0:0:0:
256,44,169787,1,0,0:0:0:0:
448,44,169894,1,0,0:0:0:0:
448,340,170001,1,0,0:0:0:0:
260,352,170108,5,8,0:0:0:0:
112,268,170215,1,0,0:0:0:0:
256,192,170322,1,8,0:0:0:0:
256,352,170429,1,0,0:0:0:0:
256,348,170536,6,0,L|256:256,1,89.9999976158143
128,192,170715,2,0,B|196:192|196:192|216:112|256:284|276:120|304:192|304:192|380:192,1,269.999992847443,8|8,0:0|0:0,0:0:0:0:
360,152,171072,2,0,P|384:92|312:16,1,168.750001966953,0|8,0:0|0:0,0:0:0:0:
136,28,171393,2,0,P|112:88|184:164,1,168.750001966953
252,68,171608,5,0,0:0:0:0:
252,88,171715,1,0,0:0:0:0:
252,112,171822,2,0,B|252:172|252:172|212:204|216:244|276:256|300:220|284:180|260:180|252:220|252:220,1,179.999995231629,0|4,0:0|0:0,0:0:0:0:
256,192,172036,12,0,173750,0:0:0:0:
