osu file format v14

[General]
AudioFilename: audio.mp3
AudioLeadIn: 0
PreviewTime: -1
Countdown: 1
SampleSet: None
StackLeniency: 0.7
Mode: 3
LetterboxInBreaks: 1
SpecialStyle: 1
WidescreenStoryboard: 0

[Editor]
DistanceSpacing: 1.2
BeatDivisor: 8
GridSize: 32
TimelineZoom: 1

[Metadata]
Title:citanLu
TitleUnicode:citanLu
Artist:Ice
ArtistUnicode:Ice
Creator:Riutz
Version:agony of defeat
Source:
Tags:
BeatmapID:1073767
BeatmapSetID:504714

[Difficulty]
HPDrainRate:5
CircleSize:7
OverallDifficulty:5
ApproachRate:5
SliderMultiplier:1.4
SliderTickRate:1

[Events]
//Background and Video events
0,0,"CitanLu.jpg",0,0
//Break Periods
//Storyboard Layer 0 (Background)
//Storyboard Layer 1 (Fail)
//Storyboard Layer 2 (Pass)
//Storyboard Layer 3 (Foreground)
//Storyboard Sound Samples

[TimingPoints]
1057,357.142857142857,3,2,0,25,1,0
1057,-100,3,3,0,25,0,0
22485,-100,3,3,0,25,0,0
39628,-100,3,2,0,12,0,0
56871,-66.6666666666667,3,3,0,25,0,0
65342,-90.9090909090909,3,3,0,25,0,0
73914,-100,3,2,0,0,0,0
81414,-100,3,2,0,0,0,0
82485,-100,3,3,0,25,0,0
91056,-100,3,2,0,13,0,0
108199,-100,3,3,0,25,0,1
126414,-133.333333333333,3,2,0,0,0,0

[HitObjects]
448,192,1057,5,4,2:0:0:0:
192,192,1057,1,0,2:0:0:0:
64,192,1057,1,4,0:0:0:0:
256,192,1057,1,0,0:0:0:0:
448,192,1235,1,4,2:0:0:0:
192,192,1235,1,0,2:0:0:0:
64,192,1235,1,4,0:0:0:0:
402,192,1235,1,0,0:0:0:0:
448,192,1592,1,4,2:0:0:0:
192,192,1592,1,0,2:0:0:0:
64,192,1592,1,4,0:0:0:0:
109,192,1592,1,0,0:0:0:0:
448,192,1771,1,4,2:0:0:0:
192,192,1771,1,0,2:0:0:0:
64,192,1771,1,4,0:0:0:0:
256,192,1771,1,0,0:0:0:0:
448,192,2128,1,4,2:0:0:0:
192,192,2128,1,0,2:0:0:0:
64,192,2128,1,4,0:0:0:0:
256,192,2128,1,0,0:0:0:0:
448,192,2306,1,4,2:0:0:0:
192,192,2306,1,0,2:0:0:0:
64,192,2306,1,4,0:0:0:0:
256,192,2306,1,0,0:0:0:0:
448,192,2664,1,4,2:0:0:0:
192,192,2664,1,0,2:0:0:0:
64,192,2664,1,4,0:0:0:0:
256,192,2664,1,0,0:0:0:0:
448,192,3021,1,4,2:0:0:0:
192,192,3021,1,0,2:0:0:0:
320,192,3021,1,4,0:0:0:0:
402,192,3021,1,0,0:0:0:0:
320,192,3199,1,0,2:0:0:0:
64,192,3199,1,4,2:0:0:0:
192,192,3199,1,4,0:0:0:0:
109,192,3199,1,0,0:0:0:0:
320,192,3378,1,0,2:0:0:0:
64,192,3378,1,4,2:0:0:0:
192,192,3378,1,4,0:0:0:0:
256,192,3378,1,0,0:0:0:0:
320,192,3735,1,0,2:0:0:0:
64,192,3735,1,4,2:0:0:0:
192,192,3735,1,4,0:0:0:0:
256,192,3735,1,0,0:0:0:0:
320,192,3914,1,0,2:0:0:0:
64,192,3914,1,4,2:0:0:0:
192,192,3914,1,4,0:0:0:0:
256,192,3914,1,0,0:0:0:0:
320,192,4271,1,0,2:0:0:0:
64,192,4271,1,4,2:0:0:0:
192,192,4271,1,4,0:0:0:0:
402,192,4271,1,0,0:0:0:0:
320,192,4449,1,0,2:0:0:0:
64,192,4449,1,4,2:0:0:0:
192,192,4449,1,4,0:0:0:0:
402,192,4449,1,0,0:0:0:0:
64,192,4806,1,4,2:0:0:0:
320,192,4806,1,0,2:0:0:0:
192,192,4806,1,4,0:0:0:0:
402,192,4806,1,0,0:0:0:0:
64,192,5164,1,4,2:0:0:0:
320,192,5164,1,0,2:0:0:0:
192,192,5164,1,4,0:0:0:0:
402,192,5164,1,0,0:0:0:0:
320,192,5342,1,4,2:0:0:0:
448,192,5342,1,4,2:0:0:0:
192,192,5342,1,0,2:0:0:0:
256,192,5342,1,0,0:0:0:0:
320,192,5521,1,4,2:0:0:0:
448,192,5521,1,4,2:0:0:0:
192,192,5521,1,0,2:0:0:0:
256,192,5521,1,0,0:0:0:0:
320,192,5878,1,4,2:0:0:0:
448,192,5878,1,4,2:0:0:0:
192,192,5878,1,0,2:0:0:0:
256,192,5878,1,0,0:0:0:0:
320,192,6056,1,4,2:0:0:0:
448,192,6056,1,4,2:0:0:0:
192,192,6056,1,0,2:0:0:0:
256,192,6056,1,0,0:0:0:0:
320,192,6414,1,4,2:0:0:0:
448,192,6414,1,4,2:0:0:0:
192,192,6414,1,0,2:0:0:0:
256,192,6414,1,0,0:0:0:0:
320,192,6592,1,4,2:0:0:0:
448,192,6592,1,4,2:0:0:0:
192,192,6592,1,0,2:0:0:0:
256,192,6592,1,0,0:0:0:0:
320,192,6949,1,4,2:0:0:0:
448,192,6949,1,4,2:0:0:0:
192,192,6949,1,0,2:0:0:0:
402,192,6949,1,0,0:0:0:0:
320,192,7306,1,4,2:0:0:0:
448,192,7306,1,4,2:0:0:0:
192,192,7306,1,0,2:0:0:0:
402,192,7306,1,0,0:0:0:0:
448,192,7485,1,4,0:0:0:0:
64,192,7485,1,4,2:0:0:0:
320,192,7485,1,0,2:0:0:0:
182,192,7485,1,0,0:0:0:0:
448,192,7664,1,4,0:0:0:0:
64,192,7664,1,4,2:0:0:0:
320,192,7664,1,0,2:0:0:0:
182,192,7664,1,0,0:0:0:0:
448,192,8021,1,4,0:0:0:0:
64,192,8021,1,4,2:0:0:0:
320,192,8021,1,0,2:0:0:0:
256,192,8021,1,0,0:0:0:0:
448,192,8199,1,4,0:0:0:0:
64,192,8199,1,4,2:0:0:0:
320,192,8199,1,0,2:0:0:0:
256,192,8199,1,0,0:0:0:0:
448,192,8556,1,4,0:0:0:0:
64,192,8556,1,4,2:0:0:0:
320,192,8556,1,0,2:0:0:0:
109,192,8556,1,0,0:0:0:0:
448,192,8735,1,4,0:0:0:0:
64,192,8735,1,4,2:0:0:0:
320,192,8735,1,0,2:0:0:0:
109,192,8735,1,0,0:0:0:0:
448,192,9092,1,4,0:0:0:0:
64,192,9092,1,4,2:0:0:0:
320,192,9092,1,0,2:0:0:0:
256,192,9092,1,0,0:0:0:0:
320,192,9449,1,0,2:0:0:0:
192,192,9449,1,4,0:0:0:0:
448,192,9449,1,4,0:0:0:0:
256,192,9449,1,0,0:0:0:0:
448,192,9628,1,0,1:0:0:0:
320,192,9628,1,4,3:0:0:0:
64,192,9628,1,4,2:0:0:0:
192,192,9628,1,4,3:0:0:0:
402,192,9628,1,0,0:0:0:0:
109,192,9628,1,0,0:0:0:0:
320,192,9717,1,4,0:0:0:0:
448,192,9717,1,4,0:0:0:0:
402,192,9717,1,0,0:0:0:0:
448,192,9806,1,0,1:0:0:0:
320,192,9806,1,4,0:0:0:0:
192,192,9806,1,4,3:0:0:0:
64,192,9806,1,4,2:0:0:0:
402,192,9806,1,0,0:0:0:0:
109,192,9806,1,0,0:0:0:0:
64,192,9896,1,4,0:0:0:0:
192,192,9896,1,4,0:0:0:0:
109,192,9896,1,0,0:0:0:0:
320,192,9985,1,4,0:0:0:0:
448,192,9985,1,4,0:0:0:0:
402,192,9985,1,0,0:0:0:0:
448,192,10164,1,0,1:0:0:0:
320,192,10164,1,4,0:0:0:0:
64,192,10164,1,4,2:0:0:0:
192,192,10164,1,4,3:0:0:0:
402,192,10164,1,0,0:0:0:0:
109,192,10164,1,0,0:0:0:0:
192,192,10253,1,4,0:0:0:0:
64,192,10253,1,4,0:0:0:0:
109,192,10253,1,0,0:0:0:0:
448,192,10342,1,0,1:0:0:0:
320,192,10342,1,4,0:0:0:0:
192,192,10342,1,4,3:0:0:0:
64,192,10342,1,4,2:0:0:0:
109,192,10342,1,0,0:0:0:0:
402,192,10342,1,0,0:0:0:0:
320,192,10431,1,4,0:0:0:0:
448,192,10431,1,4,0:0:0:0:
402,192,10431,1,0,0:0:0:0:
192,192,10521,1,4,0:0:0:0:
64,192,10521,1,4,0:0:0:0:
109,192,10521,1,0,0:0:0:0:
320,192,10699,1,4,0:0:0:0:
448,192,10699,1,0,1:0:0:0:
64,192,10699,1,4,2:0:0:0:
192,192,10699,1,4,3:0:0:0:
109,192,10699,1,0,0:0:0:0:
402,192,10699,1,0,0:0:0:0:
64,192,10789,1,4,0:0:0:0:
192,192,10789,1,4,0:0:0:0:
109,192,10789,1,0,0:0:0:0:
320,192,10878,1,4,0:0:0:0:
64,192,10878,1,4,2:0:0:0:
448,192,10878,1,0,1:0:0:0:
192,192,10878,1,4,3:0:0:0:
109,192,10878,1,0,0:0:0:0:
402,192,10878,1,0,0:0:0:0:
320,192,10967,1,4,0:0:0:0:
448,192,10967,1,4,0:0:0:0:
402,192,10967,1,0,0:0:0:0:
64,192,11056,1,4,0:0:0:0:
192,192,11056,1,4,0:0:0:0:
109,192,11056,1,0,0:0:0:0:
320,192,11235,1,4,0:0:0:0:
448,192,11235,1,0,1:0:0:0:
64,192,11235,1,4,2:0:0:0:
192,192,11235,1,4,0:0:0:0:
109,192,11235,1,0,0:0:0:0:
402,192,11235,1,0,0:0:0:0:
192,192,11324,1,4,0:0:0:0:
64,192,11324,1,4,0:0:0:0:
109,192,11324,1,0,0:0:0:0:
320,192,11414,1,4,0:0:0:0:
448,192,11414,1,4,0:0:0:0:
402,192,11414,1,0,0:0:0:0:
64,192,11503,1,4,0:0:0:0:
192,192,11503,1,4,0:0:0:0:
109,192,11503,1,0,0:0:0:0:
320,192,11592,1,4,0:0:0:0:
448,192,11592,1,0,1:0:0:0:
192,192,11592,1,4,0:0:0:0:
64,192,11592,1,4,2:0:0:0:
109,192,11592,1,0,0:0:0:0:
402,192,11592,1,0,0:0:0:0:
320,192,11681,1,4,0:0:0:0:
448,192,11681,1,4,0:0:0:0:
402,192,11681,1,0,0:0:0:0:
320,192,11771,1,4,0:0:0:0:
64,192,11771,1,4,2:0:0:0:
448,192,11771,1,0,1:0:0:0:
192,192,11771,1,4,0:0:0:0:
402,192,11771,1,0,0:0:0:0:
109,192,11771,1,0,0:0:0:0:
192,192,11860,1,4,0:0:0:0:
64,192,11860,1,4,0:0:0:0:
109,192,11860,1,0,0:0:0:0:
320,192,11949,1,4,0:0:0:0:
64,192,11949,1,4,2:0:0:0:
192,192,11949,1,4,0:0:0:0:
448,192,11949,1,0,1:0:0:0:
109,192,11949,1,0,0:0:0:0:
402,192,11949,1,0,0:0:0:0:
320,192,12039,1,4,0:0:0:0:
448,192,12039,1,4,0:0:0:0:
402,192,12039,1,0,0:0:0:0:
192,192,12128,1,4,0:0:0:0:
64,192,12128,1,4,0:0:0:0:
109,192,12128,1,0,0:0:0:0:
64,192,12306,1,4,2:0:0:0:
320,192,12306,1,4,0:0:0:0:
448,192,12306,1,0,1:0:0:0:
192,192,12306,1,4,0:0:0:0:
109,192,12306,1,0,0:0:0:0:
402,192,12306,1,0,0:0:0:0:
448,192,12396,1,4,0:0:0:0:
320,192,12396,1,4,0:0:0:0:
402,192,12396,1,0,0:0:0:0:
64,192,12485,1,4,2:0:0:0:
192,192,12485,1,4,0:0:0:0:
320,192,12485,1,4,0:0:0:0:
448,192,12485,1,0,1:0:0:0:
402,192,12485,1,0,0:0:0:0:
109,192,12485,1,0,0:0:0:0:
64,192,12574,1,4,0:0:0:0:
192,192,12574,1,4,0:0:0:0:
109,192,12574,1,0,0:0:0:0:
448,192,12664,1,4,0:0:0:0:
320,192,12664,1,4,0:0:0:0:
402,192,12664,1,0,0:0:0:0:
64,192,12842,1,4,2:0:0:0:
320,192,12842,1,4,0:0:0:0:
448,192,12842,1,0,1:0:0:0:
192,192,12842,1,4,0:0:0:0:
402,192,12842,1,0,0:0:0:0:
109,192,12842,1,0,0:0:0:0:
192,192,12931,1,4,0:0:0:0:
64,192,12931,1,4,0:0:0:0:
109,192,12931,1,0,0:0:0:0:
320,192,13021,1,4,0:0:0:0:
64,192,13021,1,4,2:0:0:0:
192,192,13021,1,4,0:0:0:0:
448,192,13021,1,0,1:0:0:0:
109,192,13021,1,0,0:0:0:0:
402,192,13021,1,0,0:0:0:0:
320,192,13110,1,4,0:0:0:0:
448,192,13110,1,4,0:0:0:0:
402,192,13110,1,0,0:0:0:0:
192,192,13199,1,4,0:0:0:0:
64,192,13199,1,4,0:0:0:0:
109,192,13199,1,0,0:0:0:0:
192,192,13378,1,4,0:0:0:0:
448,192,13378,1,0,1:0:0:0:
320,192,13378,1,4,0:0:0:0:
64,192,13378,1,4,2:0:0:0:
109,192,13378,1,0,0:0:0:0:
402,192,13378,1,0,0:0:0:0:
320,192,13467,1,4,0:0:0:0:
448,192,13467,1,4,0:0:0:0:
402,192,13467,1,0,0:0:0:0:
64,192,13556,1,4,0:0:0:0:
192,192,13556,1,4,0:0:0:0:
109,192,13556,1,0,0:0:0:0:
320,192,13646,1,4,0:0:0:0:
448,192,13646,1,4,0:0:0:0:
402,192,13646,1,0,0:0:0:0:
192,192,13735,1,4,0:0:0:0:
448,192,13735,1,0,1:0:0:0:
64,192,13735,1,4,2:0:0:0:
320,192,13735,1,4,0:0:0:0:
402,192,13735,1,0,0:0:0:0:
109,192,13735,1,0,0:0:0:0:
192,192,13824,1,4,0:0:0:0:
64,192,13824,1,4,0:0:0:0:
109,192,13824,1,0,0:0:0:0:
192,192,13914,1,4,0:0:0:0:
320,192,13914,1,4,0:0:0:0:
448,192,13914,1,0,1:0:0:0:
64,192,13914,1,4,2:0:0:0:
109,192,13914,1,0,0:0:0:0:
402,192,13914,1,0,0:0:0:0:
448,192,14003,1,4,0:0:0:0:
320,192,14003,1,4,0:0:0:0:
402,192,14003,1,0,0:0:0:0:
192,192,14092,1,4,0:0:0:0:
320,192,14092,1,4,0:0:0:0:
64,192,14092,1,4,2:0:0:0:
448,192,14092,1,0,1:0:0:0:
402,192,14092,1,0,0:0:0:0:
109,192,14092,1,0,0:0:0:0:
192,192,14181,1,4,0:0:0:0:
64,192,14181,1,4,0:0:0:0:
109,192,14181,1,0,0:0:0:0:
448,192,14271,1,4,0:0:0:0:
320,192,14271,1,4,0:0:0:0:
402,192,14271,1,0,0:0:0:0:
192,192,14449,1,4,0:0:0:0:
320,192,14449,1,4,0:0:0:0:
448,192,14449,1,0,1:0:0:0:
64,192,14449,1,4,2:0:0:0:
402,192,14449,1,0,0:0:0:0:
109,192,14449,1,0,0:0:0:0:
64,192,14539,1,4,0:0:0:0:
192,192,14539,1,4,0:0:0:0:
109,192,14539,1,0,0:0:0:0:
320,192,14628,1,4,0:0:0:0:
192,192,14628,1,4,0:0:0:0:
64,192,14628,1,4,2:0:0:0:
448,192,14628,1,0,1:0:0:0:
109,192,14628,1,0,0:0:0:0:
402,192,14628,1,0,0:0:0:0:
320,192,14717,1,4,0:0:0:0:
448,192,14717,1,4,0:0:0:0:
402,192,14717,1,0,0:0:0:0:
64,192,14806,1,4,0:0:0:0:
192,192,14806,1,4,0:0:0:0:
109,192,14806,1,0,0:0:0:0:
192,192,14985,1,4,0:0:0:0:
320,192,14985,1,4,0:0:0:0:
448,192,14985,1,0,1:0:0:0:
64,192,14985,1,4,2:0:0:0:
109,192,14985,1,0,0:0:0:0:
402,192,14985,1,0,0:0:0:0:
448,192,15074,1,4,0:0:0:0:
320,192,15074,1,4,0:0:0:0:
402,192,15074,1,0,0:0:0:0:
320,192,15164,1,4,0:0:0:0:
192,192,15164,1,4,0:0:0:0:
64,192,15164,1,4,2:0:0:0:
448,192,15164,1,0,1:0:0:0:
402,192,15164,1,0,0:0:0:0:
109,192,15164,1,0,0:0:0:0:
192,192,15253,1,4,0:0:0:0:
64,192,15253,1,4,0:0:0:0:
109,192,15253,1,0,0:0:0:0:
448,192,15342,1,4,0:0:0:0:
320,192,15342,1,4,0:0:0:0:
402,192,15342,1,0,0:0:0:0:
192,192,15521,1,4,0:0:0:0:
320,192,15521,1,4,0:0:0:0:
448,192,15521,1,0,1:0:0:0:
64,192,15521,1,4,2:0:0:0:
402,192,15521,1,0,0:0:0:0:
109,192,15521,1,0,0:0:0:0:
64,192,15610,1,4,0:0:0:0:
192,192,15610,1,4,0:0:0:0:
109,192,15610,1,0,0:0:0:0:
320,192,15699,1,4,0:0:0:0:
448,192,15699,1,4,0:0:0:0:
402,192,15699,1,0,0:0:0:0:
192,192,15789,1,4,0:0:0:0:
64,192,15789,1,4,0:0:0:0:
109,192,15789,1,0,0:0:0:0:
320,192,15878,1,4,0:0:0:0:
192,192,15878,1,4,0:0:0:0:
64,192,15878,1,4,2:0:0:0:
448,192,15878,1,0,1:0:0:0:
109,192,15878,1,0,0:0:0:0:
402,192,15878,1,0,0:0:0:0:
320,192,15967,1,4,0:0:0:0:
448,192,15967,1,4,0:0:0:0:
402,192,15967,1,0,0:0:0:0:
320,192,16056,1,4,0:0:0:0:
448,192,16056,1,0,1:0:0:0:
192,192,16056,1,4,0:0:0:0:
64,192,16056,1,4,2:0:0:0:
402,192,16056,1,0,0:0:0:0:
109,192,16056,1,0,0:0:0:0:
64,192,16146,1,4,0:0:0:0:
192,192,16146,1,4,0:0:0:0:
109,192,16146,1,0,0:0:0:0:
320,192,16235,1,4,0:0:0:0:
448,192,16235,1,0,1:0:0:0:
64,192,16235,1,4,2:0:0:0:
192,192,16235,1,4,0:0:0:0:
109,192,16235,1,0,0:0:0:0:
402,192,16235,1,0,0:0:0:0:
320,192,16324,1,4,0:0:0:0:
448,192,16324,1,4,0:0:0:0:
402,192,16324,1,0,0:0:0:0:
192,192,16414,1,4,0:0:0:0:
64,192,16414,1,4,0:0:0:0:
109,192,16414,1,0,0:0:0:0:
320,192,16592,1,4,0:0:0:0:
448,192,16592,1,0,1:0:0:0:
192,192,16592,1,4,0:0:0:0:
64,192,16592,1,4,2:0:0:0:
109,192,16592,1,0,0:0:0:0:
402,192,16592,1,0,0:0:0:0:
448,192,16681,1,4,0:0:0:0:
320,192,16681,1,4,0:0:0:0:
402,192,16681,1,0,0:0:0:0:
448,192,16771,1,0,1:0:0:0:
64,192,16771,1,4,2:0:0:0:
192,192,16771,1,4,0:0:0:0:
320,192,16771,1,4,0:0:0:0:
402,192,16771,1,0,0:0:0:0:
109,192,16771,1,0,0:0:0:0:
64,192,16860,1,4,0:0:0:0:
192,192,16860,1,4,0:0:0:0:
109,192,16860,1,0,0:0:0:0:
448,192,16949,1,4,0:0:0:0:
320,192,16949,1,4,0:0:0:0:
402,192,16949,1,0,0:0:0:0:
256,192,16949,1,0,0:0:0:0:
320,192,17128,1,4,0:0:0:0:
448,192,17128,1,0,1:0:0:0:
192,192,17128,1,4,0:0:0:0:
64,192,17128,1,4,2:0:0:0:
109,192,17128,1,0,0:0:0:0:
402,192,17128,1,0,0:0:0:0:
192,192,17217,1,4,0:0:0:0:
64,192,17217,1,4,0:0:0:0:
109,192,17217,1,0,0:0:0:0:
320,192,17306,1,4,0:0:0:0:
448,192,17306,1,0,1:0:0:0:
192,192,17306,1,4,0:0:0:0:
64,192,17306,1,4,2:0:0:0:
109,192,17306,1,0,0:0:0:0:
402,192,17306,1,0,0:0:0:0:
320,192,17396,1,4,0:0:0:0:
448,192,17396,1,4,0:0:0:0:
402,192,17396,1,0,0:0:0:0:
256,192,17396,1,0,0:0:0:0:
192,192,17485,1,4,0:0:0:0:
64,192,17485,1,4,0:0:0:0:
109,192,17485,1,0,0:0:0:0:
448,192,17664,1,0,1:0:0:0:
64,192,17664,1,4,2:0:0:0:
192,192,17664,1,4,0:0:0:0:
320,192,17664,1,4,0:0:0:0:
109,192,17664,1,0,0:0:0:0:
402,192,17664,1,0,0:0:0:0:
320,192,17753,1,4,0:0:0:0:
448,192,17753,1,4,0:0:0:0:
402,192,17753,1,0,0:0:0:0:
192,192,17842,1,4,0:0:0:0:
64,192,17842,1,4,0:0:0:0:
109,192,17842,1,0,0:0:0:0:
320,192,17931,1,4,0:0:0:0:
448,192,17931,1,4,0:0:0:0:
402,192,17931,1,0,0:0:0:0:
64,192,18021,1,4,2:0:0:0:
192,192,18021,1,4,0:0:0:0:
448,192,18021,1,0,1:0:0:0:
320,192,18021,1,4,0:0:0:0:
402,192,18021,1,0,0:0:0:0:
109,192,18021,1,0,0:0:0:0:
64,192,18110,1,4,0:0:0:0:
192,192,18110,1,4,0:0:0:0:
109,192,18110,1,0,0:0:0:0:
320,192,18199,1,4,0:0:0:0:
192,192,18199,1,4,1:0:0:0:
64,192,18199,1,4,2:0:0:0:
448,192,18199,1,0,1:0:0:0:
109,192,18199,1,0,0:0:0:0:
402,192,18199,1,0,0:0:0:0:
320,192,18289,1,2,2:0:0:0:
192,192,18378,1,2,2:0:0:0:
320,192,18467,1,2,2:0:0:0:
402,192,18512,1,0,0:0:0:0:
448,192,18556,1,2,2:0:0:0:
402,192,18601,1,0,0:0:0:0:
320,192,18646,1,2,2:0:0:0:
256,192,18690,1,0,0:0:0:0:
192,192,18735,1,2,2:0:0:0:
109,192,18780,1,0,0:0:0:0:
64,192,18824,1,2,2:0:0:0:
448,192,18914,1,2,2:0:0:0:
402,192,18958,1,0,0:0:0:0:
320,192,19003,1,2,2:0:0:0:
256,192,19048,1,0,0:0:0:0:
192,192,19092,1,2,2:0:0:0:
109,192,19137,1,0,0:0:0:0:
64,192,19181,1,2,2:0:0:0:
448,192,19271,1,2,2:0:0:0:
402,192,19315,1,0,0:0:0:0:
320,192,19360,1,2,2:0:0:0:
448,192,19449,1,2,2:0:0:0:
402,192,19494,1,0,0:0:0:0:
320,192,19539,1,2,2:0:0:0:
256,192,19583,1,0,0:0:0:0:
192,192,19628,1,2,2:0:0:0:
109,192,19673,1,0,0:0:0:0:
64,192,19717,1,2,2:0:0:0:
448,192,19806,1,2,2:0:0:0:
402,192,19851,1,0,0:0:0:0:
320,192,19896,1,2,2:0:0:0:
256,192,19940,1,0,0:0:0:0:
192,192,19985,1,2,2:0:0:0:
109,192,20030,1,0,0:0:0:0:
64,192,20074,1,2,2:0:0:0:
320,192,20164,1,2,2:0:0:0:
256,192,20208,1,0,0:0:0:0:
182,192,20253,1,2,2:0:0:0:
109,192,20298,1,0,0:0:0:0:
36,192,20342,1,2,2:0:0:0:
256,192,20342,128,0,22128:0:0:0:0:
402,192,20342,128,2,22128:2:0:0:0:
64,192,22128,5,8,1:0:0:0:
448,192,22128,1,8,1:0:0:0:
192,192,22128,1,8,1:0:0:0:
320,192,22128,1,8,1:0:0:0:
256,192,22485,1,0,0:0:0:0:
64,192,22485,1,0,2:0:0:0:
192,192,22485,1,4,1:0:0:0:
448,192,22485,1,0,2:0:0:0:
320,192,22485,1,4,1:0:0:0:
109,192,22574,1,0,2:0:0:0:
256,192,22664,1,0,2:0:0:0:
448,192,22842,1,4,3:0:0:0:
320,192,22842,1,6,3:0:0:0:
64,192,22842,1,0,2:0:0:0:
402,192,22842,1,0,0:0:0:0:
192,192,22931,1,0,2:0:0:0:
320,192,23021,1,2,2:0:0:0:
64,192,23199,1,4,3:0:0:0:
448,192,23199,1,2,2:0:0:0:
182,192,23199,1,0,0:0:0:0:
320,192,23289,1,0,2:0:0:0:
192,192,23378,1,2,2:0:0:0:
256,192,23556,1,0,0:0:0:0:
320,192,23556,1,4,3:0:0:0:
448,192,23556,1,2,2:0:0:0:
192,192,23646,1,0,2:0:0:0:
64,192,23735,1,0,2:0:0:0:
64,192,23914,1,4,3:0:0:0:
192,192,23914,1,2,2:0:0:0:
329,192,23914,1,0,0:0:0:0:
256,192,24003,1,0,2:0:0:0:
448,192,24092,1,0,2:0:0:0:
192,192,24181,1,0,2:0:0:0:
64,192,24181,1,4,3:0:0:0:
320,192,24271,5,6,3:0:0:0:
109,192,24271,1,4,0:0:0:0:
448,192,24271,1,2,2:0:0:0:
192,192,24449,1,0,2:0:0:0:
64,192,24449,1,4,3:0:0:0:
256,192,24449,1,0,0:0:0:0:
320,192,24539,1,0,2:0:0:0:
448,192,24539,1,4,3:0:0:0:
192,192,24628,1,4,3:0:0:0:
402,192,24628,1,2,2:0:0:0:
320,192,24717,1,0,2:0:0:0:
192,192,24806,1,0,2:0:0:0:
448,192,24985,1,12,3:0:0:0:
64,192,24985,1,0,2:0:0:0:
320,192,24985,1,4,3:0:0:0:
192,192,25074,1,0,2:0:0:0:
320,192,25164,1,2,2:0:0:0:
64,192,25342,1,2,2:0:0:0:
448,192,25342,1,4,3:0:0:0:
256,192,25342,1,0,0:0:0:0:
192,192,25431,1,0,2:0:0:0:
320,192,25521,1,2,2:0:0:0:
109,192,25521,1,0,0:0:0:0:
448,192,25699,1,2,2:0:0:0:
192,192,25699,1,4,3:0:0:0:
320,192,25789,1,0,2:0:0:0:
192,192,25878,1,0,2:0:0:0:
402,192,25878,1,0,0:0:0:0:
109,192,25967,1,0,0:0:0:0:
448,192,26056,1,4,3:0:0:0:
64,192,26056,1,2,2:0:0:0:
320,192,26146,1,0,2:0:0:0:
192,192,26235,1,0,2:0:0:0:
448,192,26324,1,4,3:0:0:0:
320,192,26324,1,0,2:0:0:0:
64,192,26414,1,2,2:0:0:0:
402,192,26414,1,4,3:0:0:0:
192,192,26414,1,6,3:0:0:0:
64,192,26592,1,4,3:0:0:0:
192,192,26592,1,2,2:0:0:0:
320,192,26681,1,0,2:0:0:0:
448,192,26681,1,4,3:0:0:0:
256,192,26771,1,2,2:0:0:0:
64,192,26771,1,4,3:0:0:0:
320,192,26860,1,0,2:0:0:0:
192,192,26949,1,0,2:0:0:0:
320,192,27128,1,6,3:0:0:0:
448,192,27128,1,4,3:0:0:0:
64,192,27128,1,0,2:0:0:0:
192,192,27217,1,0,2:0:0:0:
320,192,27306,1,2,2:0:0:0:
109,192,27306,1,0,0:0:0:0:
64,192,27485,1,2,2:0:0:0:
448,192,27485,1,4,3:0:0:0:
256,192,27485,1,0,0:0:0:0:
192,192,27574,1,0,2:0:0:0:
320,192,27664,1,2,2:0:0:0:
448,192,27842,1,4,3:0:0:0:
192,192,27842,1,2,2:0:0:0:
109,192,27842,1,0,0:0:0:0:
320,192,27931,1,0,2:0:0:0:
192,192,28021,1,0,2:0:0:0:
402,192,28021,1,0,0:0:0:0:
448,192,28199,1,4,3:0:0:0:
64,192,28199,1,2,2:0:0:0:
256,192,28199,1,0,0:0:0:0:
192,192,28289,1,0,2:0:0:0:
320,192,28378,1,0,2:0:0:0:
109,192,28378,1,0,0:0:0:0:
402,192,28467,1,4,3:0:0:0:
192,192,28467,1,0,2:0:0:0:
320,192,28556,1,6,3:0:0:0:
448,192,28556,1,4,3:0:0:0:
64,192,28556,1,2,2:0:0:0:
192,192,28646,1,0,2:0:0:0:
402,192,28646,1,0,0:0:0:0:
256,192,28735,1,0,2:0:0:0:
109,192,28824,1,0,2:0:0:0:
64,192,28914,1,4,0:0:0:0:
192,192,28914,1,4,2:0:0:0:
448,192,28914,1,2,2:0:0:0:
320,192,28914,128,4,29271:0:0:0:0:
402,192,29003,1,2,2:0:0:0:
192,192,29092,1,4,0:0:0:0:
64,192,29092,1,2,2:0:0:0:
109,192,29092,1,0,0:0:0:0:
64,192,29181,1,2,2:0:0:0:
192,192,29181,1,4,0:0:0:0:
109,192,29181,1,0,0:0:0:0:
192,192,29271,1,4,0:0:0:0:
64,192,29271,1,2,2:0:0:0:
109,192,29271,1,0,0:0:0:0:
448,192,29449,1,4,0:0:0:0:
320,192,29449,1,4,2:0:0:0:
64,192,29449,1,2,2:0:0:0:
192,192,29449,128,4,29806:0:0:0:0:
402,192,29449,1,0,0:0:0:0:
64,192,29539,1,2,2:0:0:0:
448,192,29628,1,2,2:0:0:0:
320,192,29628,1,4,0:0:0:0:
402,192,29628,1,0,0:0:0:0:
320,192,29717,1,4,0:0:0:0:
448,192,29717,1,2,2:0:0:0:
402,192,29717,1,0,0:0:0:0:
402,192,29806,1,0,0:0:0:0:
448,192,29806,1,2,2:0:0:0:
320,192,29806,1,4,0:0:0:0:
320,192,29985,128,4,30342:0:0:0:0:
192,192,29985,1,4,2:0:0:0:
448,192,29985,1,2,2:0:0:0:
64,192,29985,1,4,0:0:0:0:
109,192,29985,1,0,0:0:0:0:
448,192,30074,1,2,2:0:0:0:
192,192,30164,1,4,0:0:0:0:
64,192,30164,1,2,2:0:0:0:
109,192,30164,1,0,0:0:0:0:
64,192,30253,1,2,2:0:0:0:
192,192,30253,1,4,0:0:0:0:
109,192,30253,1,0,0:0:0:0:
192,192,30342,1,4,0:0:0:0:
64,192,30342,1,2,2:0:0:0:
109,192,30342,1,0,0:0:0:0:
256,192,30431,1,2,2:0:0:0:
192,192,30521,128,4,30878:0:0:0:0:
320,192,30521,1,4,0:0:0:0:
448,192,30521,1,4,2:0:0:0:
64,192,30521,1,2,2:0:0:0:
402,192,30521,1,0,0:0:0:0:
402,192,30699,1,2,2:0:0:0:
320,192,30699,1,4,0:0:0:0:
448,192,30699,1,2,2:0:0:0:
320,192,30789,1,4,0:0:0:0:
448,192,30789,1,2,2:0:0:0:
402,192,30789,1,0,0:0:0:0:
448,192,30878,1,2,2:0:0:0:
64,192,30878,1,4,0:0:0:0:
320,192,30878,1,4,0:0:0:0:
402,192,30878,1,0,0:0:0:0:
192,192,31056,1,2,2:0:0:0:
109,192,31056,1,4,0:0:0:0:
256,192,31056,1,4,2:0:0:0:
448,192,31056,1,0,1:0:0:0:
320,192,31056,1,4,2:0:0:0:
64,192,31056,1,0,1:0:0:0:
402,192,31146,1,0,2:0:0:0:
192,192,31235,1,0,2:0:0:0:
109,192,31324,1,0,0:0:0:0:
448,192,31414,1,4,3:0:0:0:
64,192,31414,1,0,2:0:0:0:
320,192,31414,1,4,3:0:0:0:
192,192,31503,1,0,2:0:0:0:
402,192,31503,1,0,0:0:0:0:
320,192,31592,1,2,2:0:0:0:
64,192,31771,1,2,2:0:0:0:
448,192,31771,1,4,3:0:0:0:
256,192,31771,1,0,0:0:0:0:
320,192,31860,1,0,2:0:0:0:
192,192,31949,1,2,2:0:0:0:
448,192,32128,1,4,3:0:0:0:
320,192,32128,1,2,2:0:0:0:
109,192,32128,1,0,0:0:0:0:
192,192,32217,1,0,2:0:0:0:
64,192,32306,1,2,2:0:0:0:
402,192,32306,1,0,0:0:0:0:
192,192,32485,1,4,3:0:0:0:
448,192,32485,1,2,2:0:0:0:
256,192,32485,1,0,0:0:0:0:
320,192,32574,1,0,2:0:0:0:
448,192,32664,1,2,2:0:0:0:
64,192,32753,1,4,3:0:0:0:
192,192,32753,1,0,2:0:0:0:
320,192,32842,1,4,3:0:0:0:
448,192,32842,1,6,3:0:0:0:
109,192,32842,1,2,2:0:0:0:
448,192,33021,1,4,3:0:0:0:
64,192,33021,1,2,2:0:0:0:
256,192,33021,1,0,0:0:0:0:
320,192,33110,1,4,3:0:0:0:
448,192,33110,1,0,2:0:0:0:
64,192,33199,1,2,2:0:0:0:
192,192,33199,1,4,3:0:0:0:
402,192,33199,1,0,0:0:0:0:
320,192,33289,1,0,2:0:0:0:
109,192,33378,1,0,2:0:0:0:
448,192,33556,1,4,3:0:0:0:
320,192,33556,1,6,3:0:0:0:
64,192,33556,1,0,2:0:0:0:
256,192,33556,1,0,0:0:0:0:
192,192,33646,1,0,2:0:0:0:
320,192,33735,1,2,2:0:0:0:
109,192,33735,1,0,0:0:0:0:
64,192,33914,1,0,2:0:0:0:
320,192,33914,1,4,3:0:0:0:
402,192,33914,1,0,0:0:0:0:
192,192,34003,1,0,2:0:0:0:
448,192,34092,1,2,2:0:0:0:
256,192,34092,1,0,0:0:0:0:
192,192,34271,1,4,3:0:0:0:
448,192,34271,1,2,2:0:0:0:
320,192,34360,1,0,2:0:0:0:
109,192,34360,1,0,0:0:0:0:
192,192,34449,1,0,2:0:0:0:
64,192,34628,1,4,3:0:0:0:
320,192,34628,1,0,2:0:0:0:
402,192,34628,1,0,0:0:0:0:
192,192,34717,1,0,2:0:0:0:
64,192,34806,1,0,2:0:0:0:
192,192,34896,1,4,3:0:0:0:
320,192,34896,1,0,2:0:0:0:
448,192,34985,1,6,3:0:0:0:
64,192,34985,1,4,3:0:0:0:
256,192,34985,1,2,2:0:0:0:
109,192,35164,1,4,3:0:0:0:
448,192,35164,1,0,2:0:0:0:
192,192,35253,1,4,3:0:0:0:
320,192,35253,1,0,2:0:0:0:
64,192,35342,1,4,3:0:0:0:
256,192,35342,1,2,2:0:0:0:
448,192,35431,1,0,2:0:0:0:
109,192,35431,1,0,0:0:0:0:
320,192,35521,1,0,2:0:0:0:
448,192,35699,1,4,3:0:0:0:
64,192,35699,1,6,3:0:0:0:
192,192,35699,1,0,2:0:0:0:
402,192,35699,1,0,0:0:0:0:
320,192,35789,1,0,2:0:0:0:
192,192,35878,1,2,2:0:0:0:
192,192,36056,1,2,2:0:0:0:
64,192,36056,1,4,3:0:0:0:
109,192,36056,1,0,0:0:0:0:
448,192,36146,1,0,2:0:0:0:
256,192,36146,1,0,0:0:0:0:
320,192,36235,1,2,2:0:0:0:
448,192,36414,1,4,3:0:0:0:
320,192,36414,1,2,2:0:0:0:
109,192,36414,1,0,0:0:0:0:
64,192,36503,1,0,2:0:0:0:
192,192,36592,1,0,2:0:0:0:
64,192,36771,1,4,3:0:0:0:
448,192,36771,1,0,2:0:0:0:
256,192,36771,1,0,0:0:0:0:
320,192,36860,1,0,2:0:0:0:
192,192,36949,1,0,2:0:0:0:
320,192,37039,1,0,2:0:0:0:
448,192,37039,1,4,3:0:0:0:
109,192,37039,1,0,0:0:0:0:
402,192,37128,1,2,2:0:0:0:
192,192,37128,1,6,3:0:0:0:
64,192,37128,1,4,3:0:0:0:
109,192,37306,1,4,3:0:0:0:
448,192,37306,1,0,2:0:0:0:
64,192,37396,1,4,3:0:0:0:
192,192,37396,1,0,2:0:0:0:
320,192,37485,1,2,2:0:0:0:
448,192,37485,1,4,3:0:0:0:
192,192,37574,1,0,2:0:0:0:
64,192,37664,1,0,2:0:0:0:
64,192,37842,1,6,3:0:0:0:
448,192,37842,1,4,3:0:0:0:
192,192,37842,1,0,2:0:0:0:
320,192,37931,1,0,2:0:0:0:
192,192,38021,1,2,2:0:0:0:
36,192,38110,1,0,0:0:0:0:
448,192,38199,1,6,3:0:0:0:
109,192,38199,1,0,2:0:0:0:
192,192,38289,1,0,2:0:0:0:
256,192,38378,1,2,2:0:0:0:
402,192,38378,1,0,0:0:0:0:
64,192,38556,1,0,2:0:0:0:
192,192,38556,1,6,3:0:0:0:
448,192,38646,1,0,2:0:0:0:
320,192,38735,1,0,2:0:0:0:
109,192,38735,1,0,0:0:0:0:
64,192,38914,1,4,3:0:0:0:
448,192,38914,1,0,2:0:0:0:
256,192,38914,1,0,0:0:0:0:
192,192,39003,1,0,2:0:0:0:
64,192,39092,1,0,2:0:0:0:
402,192,39092,1,0,0:0:0:0:
320,192,39181,1,0,2:0:0:0:
192,192,39181,1,4,3:0:0:0:
448,192,39271,1,6,3:0:0:0:
64,192,39271,1,0,2:0:0:0:
256,192,39271,1,4,3:0:0:0:
448,192,39449,1,4,3:0:0:0:
64,192,39449,1,0,2:0:0:0:
320,192,39539,1,4,3:0:0:0:
192,192,39539,1,0,2:0:0:0:
64,192,39628,1,0,3:0:0:0:
320,192,39628,1,4,2:0:0:0:
192,192,39628,1,4,2:0:0:0:
448,192,39628,1,0,3:0:0:0:
448,192,39717,1,0,0:0:0:0:
320,192,39806,1,0,0:0:0:0:
320,192,39896,1,0,0:0:0:0:
192,192,39985,1,0,0:0:0:0:
448,192,39985,1,14,3:0:0:0:
192,192,40074,1,0,0:0:0:0:
402,192,40164,1,0,0:0:0:0:
402,192,40253,1,0,0:0:0:0:
64,192,40342,1,14,3:0:0:0:
448,192,40342,1,0,0:0:0:0:
64,192,40431,1,0,0:0:0:0:
192,192,40521,1,0,0:0:0:0:
192,192,40610,1,0,0:0:0:0:
320,192,40699,1,0,0:0:0:0:
64,192,40699,1,14,3:0:0:0:
320,192,40789,1,0,0:0:0:0:
36,192,40789,1,0,0:0:0:0:
448,192,40878,1,0,0:0:0:0:
448,192,40967,1,0,0:0:0:0:
320,192,41056,5,14,3:0:0:0:
64,192,41056,1,0,0:0:0:0:
64,192,41146,1,0,0:0:0:0:
329,192,41146,1,0,0:0:0:0:
448,192,41235,1,0,0:0:0:0:
109,192,41235,1,0,0:0:0:0:
448,192,41324,1,0,0:0:0:0:
109,192,41324,1,0,0:0:0:0:
192,192,41414,5,14,3:0:0:0:
402,192,41414,1,0,0:0:0:0:
402,192,41503,5,14,3:0:0:0:
192,192,41503,1,0,0:0:0:0:
320,192,41592,5,14,3:0:0:0:
109,192,41592,1,0,0:0:0:0:
320,192,41681,1,0,0:0:0:0:
109,192,41681,1,0,0:0:0:0:
64,192,41771,5,14,3:0:0:0:
448,192,41771,1,0,0:0:0:0:
64,192,41860,1,0,0:0:0:0:
475,192,41860,1,0,0:0:0:0:
192,192,41949,1,0,0:0:0:0:
192,192,42039,1,0,0:0:0:0:
448,192,42128,1,14,3:0:0:0:
64,192,42128,1,0,0:0:0:0:
448,192,42217,1,0,0:0:0:0:
36,192,42217,1,0,0:0:0:0:
320,192,42306,1,0,0:0:0:0:
109,192,42306,1,0,0:0:0:0:
320,192,42396,1,0,0:0:0:0:
109,192,42396,1,14,3:0:0:0:
64,192,42485,1,0,0:0:0:0:
64,192,42574,1,0,0:0:0:0:
320,192,42664,1,0,0:0:0:0:
320,192,42753,1,0,0:0:0:0:
448,192,42842,1,14,3:0:0:0:
192,192,42842,1,0,0:0:0:0:
448,192,42931,1,0,0:0:0:0:
182,192,42931,1,0,0:0:0:0:
320,192,43021,1,0,0:0:0:0:
320,192,43110,1,0,0:0:0:0:
192,192,43199,1,14,3:0:0:0:
64,192,43199,1,0,0:0:0:0:
192,192,43289,1,0,0:0:0:0:
36,192,43289,1,0,0:0:0:0:
448,192,43378,1,0,0:0:0:0:
109,192,43378,1,0,0:0:0:0:
448,192,43467,1,14,3:0:0:0:
109,192,43467,1,0,0:0:0:0:
192,192,43556,1,0,0:0:0:0:
320,192,43556,1,14,3:0:0:0:
192,192,43646,1,0,0:0:0:0:
329,192,43646,1,0,0:0:0:0:
64,192,43735,1,14,3:0:0:0:
448,192,43735,1,0,0:0:0:0:
256,192,43735,1,0,0:0:0:0:
64,192,43824,1,0,0:0:0:0:
256,192,43824,1,14,3:0:0:0:
320,192,43914,1,14,3:0:0:0:
448,192,43914,1,0,0:0:0:0:
320,192,44003,1,0,0:0:0:0:
475,192,44003,1,0,0:0:0:0:
192,192,44092,1,0,0:0:0:0:
192,192,44181,1,0,0:0:0:0:
320,192,44271,1,0,0:0:0:0:
64,192,44271,1,14,3:0:0:0:
320,192,44360,1,0,0:0:0:0:
36,192,44360,1,0,0:0:0:0:
109,192,44449,1,0,0:0:0:0:
109,192,44539,1,0,0:0:0:0:
320,192,44628,1,0,0:0:0:0:
192,192,44628,1,14,3:0:0:0:
320,192,44717,1,0,0:0:0:0:
182,192,44717,1,0,0:0:0:0:
256,192,44806,1,0,0:0:0:0:
448,192,44806,1,0,0:0:0:0:
448,192,44896,1,0,0:0:0:0:
256,192,44896,1,0,0:0:0:0:
320,192,44985,1,0,0:0:0:0:
109,192,44985,1,14,3:0:0:0:
320,192,45074,1,0,0:0:0:0:
109,192,45074,1,0,0:0:0:0:
64,192,45164,1,0,0:0:0:0:
64,192,45253,1,0,0:0:0:0:
192,192,45342,1,0,0:0:0:0:
448,192,45342,1,14,3:0:0:0:
192,192,45431,1,0,0:0:0:0:
475,192,45431,1,0,0:0:0:0:
402,192,45521,1,0,0:0:0:0:
256,192,45521,1,0,0:0:0:0:
402,192,45610,1,14,3:0:0:0:
256,192,45610,1,0,0:0:0:0:
192,192,45699,1,0,0:0:0:0:
329,192,45699,1,14,3:0:0:0:
192,192,45789,1,0,0:0:0:0:
329,192,45789,1,0,0:0:0:0:
448,192,45878,1,14,3:0:0:0:
64,192,45878,1,0,0:0:0:0:
256,192,45878,1,0,0:0:0:0:
448,192,45967,1,0,0:0:0:0:
256,192,45967,1,14,3:0:0:0:
36,192,45967,1,0,0:0:0:0:
192,192,46056,1,14,3:0:0:0:
402,192,46056,1,0,0:0:0:0:
192,192,46146,1,0,0:0:0:0:
402,192,46146,1,0,0:0:0:0:
320,192,46235,1,0,0:0:0:0:
320,192,46324,1,0,0:0:0:0:
64,192,46414,1,0,0:0:0:0:
448,192,46414,1,14,3:0:0:0:
64,192,46503,1,0,0:0:0:0:
475,192,46503,1,0,0:0:0:0:
192,192,46592,1,0,0:0:0:0:
192,192,46681,1,0,0:0:0:0:
320,192,46771,1,14,3:0:0:0:
64,192,46771,1,0,0:0:0:0:
320,192,46860,1,0,0:0:0:0:
36,192,46860,1,0,0:0:0:0:
448,192,46949,1,0,0:0:0:0:
256,192,46949,1,0,0:0:0:0:
448,192,47039,1,0,0:0:0:0:
256,192,47039,1,0,0:0:0:0:
192,192,47128,1,0,0:0:0:0:
320,192,47128,1,14,3:0:0:0:
192,192,47217,1,0,0:0:0:0:
329,192,47217,1,0,0:0:0:0:
64,192,47306,1,0,0:0:0:0:
64,192,47396,1,0,0:0:0:0:
192,192,47485,1,14,3:0:0:0:
448,192,47485,1,0,0:0:0:0:
192,192,47574,1,0,0:0:0:0:
475,192,47574,1,0,0:0:0:0:
320,192,47664,1,0,0:0:0:0:
36,192,47664,1,0,0:0:0:0:
320,192,47753,1,14,3:0:0:0:
64,192,47753,1,0,0:0:0:0:
448,192,47842,1,14,3:0:0:0:
256,192,47842,1,0,0:0:0:0:
448,192,47931,1,0,0:0:0:0:
256,192,47931,1,0,0:0:0:0:
64,192,48021,1,0,0:0:0:0:
192,192,48021,1,14,3:0:0:0:
109,192,48021,1,0,0:0:0:0:
320,192,48110,1,14,3:0:0:0:
448,192,48110,1,0,0:0:0:0:
402,192,48110,1,0,0:0:0:0:
192,192,48199,1,0,0:0:0:0:
64,192,48199,1,0,0:0:0:0:
320,192,48199,1,4,2:0:0:0:
448,192,48199,1,4,2:0:0:0:
402,192,48199,1,0,0:0:0:0:
109,192,48199,1,0,0:0:0:0:
256,192,48289,1,0,0:0:0:0:
64,192,48378,1,0,0:0:0:0:
64,192,48467,1,0,0:0:0:0:
192,192,48556,1,14,3:0:0:0:
448,192,48556,1,0,0:0:0:0:
192,192,48646,1,0,0:0:0:0:
475,192,48646,1,0,0:0:0:0:
320,192,48735,1,0,0:0:0:0:
320,192,48824,1,0,0:0:0:0:
192,192,48914,1,0,0:0:0:0:
448,192,48914,1,14,3:0:0:0:
192,192,49003,1,0,0:0:0:0:
475,192,49003,1,0,0:0:0:0:
64,192,49092,1,0,0:0:0:0:
402,192,49092,1,0,0:0:0:0:
64,192,49181,1,0,0:0:0:0:
402,192,49226,1,0,0:0:0:0:
448,192,49271,1,0,0:0:0:0:
192,192,49271,1,14,3:0:0:0:
448,192,49360,1,0,0:0:0:0:
182,192,49360,1,0,0:0:0:0:
320,192,49449,1,0,0:0:0:0:
320,192,49539,1,0,0:0:0:0:
192,192,49628,1,0,0:0:0:0:
64,192,49628,1,14,3:0:0:0:
192,192,49717,1,0,0:0:0:0:
36,192,49717,1,0,0:0:0:0:
256,192,49806,1,0,0:0:0:0:
448,192,49806,1,0,0:0:0:0:
448,192,49896,1,14,3:0:0:0:
256,192,49896,1,0,0:0:0:0:
64,192,49985,1,0,0:0:0:0:
320,192,49985,1,14,3:0:0:0:
64,192,50074,1,0,0:0:0:0:
329,192,50074,1,0,0:0:0:0:
256,192,50164,1,14,3:0:0:0:
448,192,50164,1,0,0:0:0:0:
109,192,50164,1,0,0:0:0:0:
256,192,50253,1,0,0:0:0:0:
109,192,50253,1,14,3:0:0:0:
320,192,50342,1,14,3:0:0:0:
448,192,50342,1,0,0:0:0:0:
320,192,50431,1,0,0:0:0:0:
475,192,50431,1,0,0:0:0:0:
64,192,50521,1,0,0:0:0:0:
64,192,50610,1,0,0:0:0:0:
448,192,50699,1,0,0:0:0:0:
109,192,50699,1,14,3:0:0:0:
109,192,50789,1,0,0:0:0:0:
448,192,50789,1,0,0:0:0:0:
320,192,50878,1,0,0:0:0:0:
320,192,50967,1,0,0:0:0:0:
192,192,51056,1,14,3:0:0:0:
448,192,51056,1,0,0:0:0:0:
192,192,51146,1,0,0:0:0:0:
64,192,51235,1,0,0:0:0:0:
64,192,51324,1,0,0:0:0:0:
320,192,51414,1,0,0:0:0:0:
448,192,51414,1,14,3:0:0:0:
320,192,51503,1,0,0:0:0:0:
475,192,51503,1,0,0:0:0:0:
192,192,51592,1,0,0:0:0:0:
192,192,51681,1,0,0:0:0:0:
64,192,51771,1,0,0:0:0:0:
256,192,51771,1,14,3:0:0:0:
64,192,51860,1,0,0:0:0:0:
256,192,51860,1,0,0:0:0:0:
192,192,51949,1,0,0:0:0:0:
192,192,52039,1,14,3:0:0:0:
448,192,52039,1,0,0:0:0:0:
320,192,52128,1,14,3:0:0:0:
109,192,52128,1,0,0:0:0:0:
320,192,52217,1,0,0:0:0:0:
109,192,52217,1,0,0:0:0:0:
448,192,52306,1,14,3:0:0:0:
192,192,52306,1,0,0:0:0:0:
448,192,52396,1,0,0:0:0:0:
182,192,52396,1,0,0:0:0:0:
256,192,52485,1,14,3:0:0:0:
64,192,52485,1,0,0:0:0:0:
36,192,52574,1,14,3:0:0:0:
256,192,52574,1,0,0:0:0:0:
320,192,52664,1,0,0:0:0:0:
320,192,52753,1,0,0:0:0:0:
64,192,52842,1,0,0:0:0:0:
402,192,52842,1,14,3:0:0:0:
64,192,52931,1,0,0:0:0:0:
402,192,52931,1,0,0:0:0:0:
192,192,53021,1,0,0:0:0:0:
192,192,53110,1,0,0:0:0:0:
320,192,53199,1,14,3:0:0:0:
64,192,53199,1,0,0:0:0:0:
320,192,53289,1,0,0:0:0:0:
36,192,53289,1,0,0:0:0:0:
448,192,53378,1,0,0:0:0:0:
448,192,53467,1,0,0:0:0:0:
192,192,53556,1,14,3:0:0:0:
64,192,53556,1,0,0:0:0:0:
192,192,53646,1,0,0:0:0:0:
36,192,53646,1,0,0:0:0:0:
320,192,53735,1,0,0:0:0:0:
320,192,53824,1,0,0:0:0:0:
448,192,53914,1,14,3:0:0:0:
109,192,53914,1,0,0:0:0:0:
448,192,54003,1,0,0:0:0:0:
109,192,54003,1,0,0:0:0:0:
64,192,54092,1,0,0:0:0:0:
256,192,54092,1,0,0:0:0:0:
64,192,54181,1,0,0:0:0:0:
256,192,54181,1,14,3:0:0:0:
109,192,54271,1,0,0:0:0:0:
448,192,54271,1,0,0:0:0:0:
448,192,54360,1,0,0:0:0:0:
109,192,54360,1,0,0:0:0:0:
402,192,54449,1,14,3:0:0:0:
192,192,54449,1,14,3:0:0:0:
402,192,54539,1,0,0:0:0:0:
192,192,54539,1,0,0:0:0:0:
320,192,54628,1,14,3:0:0:0:
109,192,54628,1,0,0:0:0:0:
109,192,54717,1,14,3:0:0:0:
320,192,54717,1,0,0:0:0:0:
64,192,54806,1,0,0:0:0:0:
64,192,54896,1,0,0:0:0:0:
448,192,54985,1,0,0:0:0:0:
256,192,54985,1,14,3:0:0:0:
448,192,55074,1,0,0:0:0:0:
256,192,55074,1,0,0:0:0:0:
192,192,55164,1,0,0:0:0:0:
192,192,55253,1,0,0:0:0:0:
320,192,55342,1,14,3:0:0:0:
109,192,55342,1,0,0:0:0:0:
320,192,55431,1,0,0:0:0:0:
109,192,55431,1,14,3:0:0:0:
256,192,55610,1,0,0:0:0:0:
192,192,55610,1,14,3:0:0:0:
402,192,55610,1,0,0:0:0:0:
109,192,55610,1,0,0:0:0:0:
475,192,55610,1,14,3:0:0:0:
329,192,55699,1,12,3:0:0:0:
448,192,55789,1,0,0:0:0:0:
256,192,55789,1,0,0:0:0:0:
402,192,55878,1,0,0:0:0:0:
192,192,55878,1,0,0:0:0:0:
109,192,55967,1,0,0:0:0:0:
320,192,55967,1,12,3:0:0:0:
448,192,56056,1,12,3:0:0:0:
256,192,56056,1,0,0:0:0:0:
64,192,56056,1,0,0:0:0:0:
182,192,56146,1,0,0:0:0:0:
402,192,56146,1,0,0:0:0:0:
329,192,56235,1,0,0:0:0:0:
109,192,56235,1,14,3:0:0:0:
256,192,56324,1,0,0:0:0:0:
64,192,56324,1,0,0:0:0:0:
320,192,56414,1,14,3:0:0:0:
448,192,56414,1,0,0:0:0:0:
402,192,56414,1,0,0:0:0:0:
192,192,56503,1,14,3:0:0:0:
64,192,56503,1,0,0:0:0:0:
109,192,56503,1,0,0:0:0:0:
320,192,56592,1,14,3:0:0:0:
448,192,56592,1,0,0:0:0:0:
402,192,56592,1,0,0:0:0:0:
64,192,56681,1,0,0:0:0:0:
192,192,56681,1,14,3:0:0:0:
109,192,56681,1,0,0:0:0:0:
448,192,56771,1,0,0:0:0:0:
320,192,56771,1,4,2:0:0:0:
402,192,56771,1,0,0:0:0:0:
192,192,56949,1,4,2:0:0:0:
64,192,56949,1,4,0:3:0:0:
448,192,56949,1,0,2:0:0:0:
109,192,56949,1,0,0:0:0:0:
192,192,57306,1,4,2:0:0:0:
64,192,57306,1,4,0:3:0:0:
448,192,57306,1,0,2:0:0:0:
109,192,57306,1,0,0:0:0:0:
192,192,57485,1,4,2:0:0:0:
64,192,57485,1,4,0:3:0:0:
448,192,57485,1,0,2:0:0:0:
109,192,57485,1,0,0:0:0:0:
192,192,57842,1,4,2:0:0:0:
64,192,57842,1,4,0:3:0:0:
448,192,57842,1,0,2:0:0:0:
256,192,57842,1,0,0:0:0:0:
329,192,57842,1,0,0:0:0:0:
402,192,57842,1,0,0:0:0:0:
192,192,58021,1,4,2:0:0:0:
64,192,58021,1,4,0:3:0:0:
448,192,58021,1,0,2:0:0:0:
402,192,58021,1,0,0:0:0:0:
329,192,58021,1,0,0:0:0:0:
256,192,58021,1,0,0:0:0:0:
64,192,58378,1,4,0:3:0:0:
192,192,58378,1,4,2:0:0:0:
448,192,58378,1,0,2:0:0:0:
109,192,58378,1,0,0:0:0:0:
256,192,58378,1,0,0:0:0:0:
329,192,58378,1,0,0:0:0:0:
64,192,58735,1,4,0:3:0:0:
109,192,58735,1,4,2:0:0:0:
448,192,58735,1,0,2:0:0:0:
256,192,58735,1,0,0:0:0:0:
182,192,58735,1,0,0:0:0:0:
329,192,58735,1,0,0:0:0:0:
192,192,58914,1,4,2:0:0:0:
448,192,58914,1,4,3:0:0:0:
320,192,58914,1,0,2:0:0:0:
256,192,58914,1,0,0:0:0:0:
109,192,58914,1,0,0:0:0:0:
402,192,58914,1,0,0:0:0:0:
109,192,59092,1,0,0:0:0:0:
192,192,59092,1,4,2:0:0:0:
448,192,59092,1,4,3:0:0:0:
320,192,59092,1,0,2:0:0:0:
256,192,59092,1,0,0:0:0:0:
402,192,59092,1,0,0:0:0:0:
192,192,59449,1,4,2:0:0:0:
448,192,59449,1,4,3:0:0:0:
320,192,59449,1,0,2:0:0:0:
36,192,59449,1,0,0:0:0:0:
256,192,59449,1,0,0:0:0:0:
109,192,59449,1,0,0:0:0:0:
192,192,59628,1,4,2:0:0:0:
448,192,59628,1,4,3:0:0:0:
320,192,59628,1,0,2:0:0:0:
36,192,59628,1,0,0:0:0:0:
109,192,59628,1,0,0:0:0:0:
256,192,59628,1,0,0:0:0:0:
192,192,59985,1,4,2:0:0:0:
448,192,59985,1,4,3:0:0:0:
320,192,59985,1,0,2:0:0:0:
36,192,59985,1,0,0:0:0:0:
402,192,59985,1,0,0:0:0:0:
256,192,59985,1,0,0:0:0:0:
192,192,60164,1,4,2:0:0:0:
448,192,60164,1,4,3:0:0:0:
320,192,60164,1,0,2:0:0:0:
36,192,60164,1,0,0:0:0:0:
256,192,60164,1,0,0:0:0:0:
402,192,60164,1,0,0:0:0:0:
192,192,60521,1,4,2:0:0:0:
448,192,60521,1,4,3:0:0:0:
320,192,60521,1,0,2:0:0:0:
36,192,60521,1,0,0:0:0:0:
109,192,60521,1,0,0:0:0:0:
256,192,60521,1,0,0:0:0:0:
192,192,60878,1,4,2:0:0:0:
448,192,60878,1,4,3:0:0:0:
320,192,60878,1,0,2:0:0:0:
256,192,60878,1,0,0:0:0:0:
109,192,60878,1,0,0:0:0:0:
36,192,60878,1,0,0:0:0:0:
320,192,61056,1,0,2:0:0:0:
64,192,61056,1,4,3:0:0:0:
192,192,61056,1,4,2:0:0:0:
256,192,61056,1,0,0:0:0:0:
475,192,61056,1,0,0:0:0:0:
402,192,61056,1,0,0:0:0:0:
320,192,61235,1,0,2:0:0:0:
64,192,61235,1,4,3:0:0:0:
192,192,61235,1,4,2:0:0:0:
256,192,61235,1,0,0:0:0:0:
402,192,61235,1,0,0:0:0:0:
475,192,61235,1,0,0:0:0:0:
320,192,61592,1,0,2:0:0:0:
64,192,61592,1,4,3:0:0:0:
192,192,61592,1,4,2:0:0:0:
475,192,61592,1,0,0:0:0:0:
256,192,61592,1,0,0:0:0:0:
109,192,61592,1,0,0:0:0:0:
320,192,61771,1,0,2:0:0:0:
64,192,61771,1,4,3:0:0:0:
192,192,61771,1,4,2:0:0:0:
475,192,61771,1,0,0:0:0:0:
256,192,61771,1,0,0:0:0:0:
109,192,61771,1,0,0:0:0:0:
320,192,62128,1,0,2:0:0:0:
64,192,62128,1,4,3:0:0:0:
192,192,62128,1,4,2:0:0:0:
256,192,62128,1,0,0:0:0:0:
402,192,62128,1,0,0:0:0:0:
475,192,62128,1,0,0:0:0:0:
320,192,62306,1,0,2:0:0:0:
64,192,62306,1,4,3:0:0:0:
192,192,62306,1,4,2:0:0:0:
256,192,62306,1,0,0:0:0:0:
402,192,62306,1,0,0:0:0:0:
475,192,62306,1,0,0:0:0:0:
320,192,62664,1,0,2:0:0:0:
64,192,62664,1,4,3:0:0:0:
192,192,62664,1,4,2:0:0:0:
109,192,62664,1,0,0:0:0:0:
402,192,62664,1,0,0:0:0:0:
475,192,62664,1,0,0:0:0:0:
320,192,63021,1,0,2:0:0:0:
64,192,63021,1,4,3:0:0:0:
192,192,63021,1,4,2:0:0:0:
109,192,63021,1,0,0:0:0:0:
256,192,63021,1,0,0:0:0:0:
448,192,63199,1,0,2:0:0:0:
192,192,63199,1,4,2:0:0:0:
64,192,63199,1,4,3:0:0:0:
402,192,63199,1,0,0:0:0:0:
329,192,63199,1,0,0:0:0:0:
256,192,63199,1,0,0:0:0:0:
448,192,63378,1,0,2:0:0:0:
192,192,63378,1,4,2:0:0:0:
64,192,63378,1,4,3:0:0:0:
256,192,63378,1,0,0:0:0:0:
329,192,63378,1,0,0:0:0:0:
402,192,63378,1,0,0:0:0:0:
448,192,63735,1,0,2:0:0:0:
192,192,63735,1,4,2:0:0:0:
64,192,63735,1,4,3:0:0:0:
109,192,63735,1,0,0:0:0:0:
329,192,63735,1,0,0:0:0:0:
256,192,63735,1,0,0:0:0:0:
448,192,63914,1,0,2:0:0:0:
192,192,63914,1,4,2:0:0:0:
64,192,63914,1,4,3:0:0:0:
109,192,63914,1,0,0:0:0:0:
256,192,63914,1,0,0:0:0:0:
329,192,63914,1,0,0:0:0:0:
448,192,64271,1,0,2:0:0:0:
192,192,64271,1,4,2:0:0:0:
64,192,64271,1,4,3:0:0:0:
256,192,64271,1,0,0:0:0:0:
402,192,64271,1,0,0:0:0:0:
329,192,64271,1,0,0:0:0:0:
448,192,64449,1,0,2:0:0:0:
192,192,64449,1,4,2:0:0:0:
64,192,64449,1,4,3:0:0:0:
256,192,64449,1,0,0:0:0:0:
329,192,64449,1,0,0:0:0:0:
402,192,64449,1,0,0:0:0:0:
448,192,64806,1,0,2:0:0:0:
192,192,64806,1,4,2:0:0:0:
64,192,64806,1,4,3:0:0:0:
256,192,64806,1,0,0:0:0:0:
329,192,64806,1,0,0:0:0:0:
402,192,64806,1,0,0:0:0:0:
448,192,65164,1,0,2:0:0:0:
192,192,65164,1,4,2:0:0:0:
64,192,65164,1,4,3:0:0:0:
109,192,65164,1,0,0:0:0:0:
256,192,65164,1,0,0:0:0:0:
64,192,65342,1,4,3:2:0:0:
192,192,65342,1,4,3:0:0:0:
448,192,65342,1,0,1:0:0:0:
320,192,65342,1,4,3:0:0:0:
109,192,65342,1,0,0:0:0:0:
402,192,65342,1,0,0:0:0:0:
320,192,65431,1,4,3:0:0:0:
448,192,65431,1,4,3:0:0:0:
402,192,65431,1,0,0:0:0:0:
64,192,65521,1,4,3:2:0:0:
192,192,65521,1,4,3:0:0:0:
320,192,65521,1,4,3:0:0:0:
448,192,65521,1,0,1:0:0:0:
402,192,65521,1,0,0:0:0:0:
109,192,65521,1,0,0:0:0:0:
192,192,65610,1,4,3:0:0:0:
64,192,65610,1,4,3:0:0:0:
109,192,65610,1,0,0:0:0:0:
320,192,65699,1,4,3:0:0:0:
448,192,65699,1,4,3:0:0:0:
402,192,65699,1,0,0:0:0:0:
64,192,65878,1,4,3:2:0:0:
192,192,65878,1,4,3:0:0:0:
448,192,65878,1,0,1:0:0:0:
320,192,65878,1,4,3:0:0:0:
402,192,65878,1,0,0:0:0:0:
109,192,65878,1,0,0:0:0:0:
64,192,65967,1,4,3:0:0:0:
192,192,65967,1,4,3:0:0:0:
109,192,65967,1,0,0:0:0:0:
192,192,66056,1,4,3:0:0:0:
64,192,66056,1,4,3:2:0:0:
320,192,66056,1,4,3:0:0:0:
448,192,66056,1,0,1:0:0:0:
109,192,66056,1,0,0:0:0:0:
402,192,66056,1,0,0:0:0:0:
448,192,66146,1,4,3:0:0:0:
320,192,66146,1,4,3:0:0:0:
402,192,66146,1,0,0:0:0:0:
64,192,66235,1,4,3:0:0:0:
192,192,66235,1,4,3:0:0:0:
109,192,66235,1,0,0:0:0:0:
64,192,66414,1,4,3:2:0:0:
192,192,66414,1,4,3:0:0:0:
448,192,66414,1,0,1:0:0:0:
320,192,66414,1,4,3:0:0:0:
109,192,66414,1,0,0:0:0:0:
402,192,66414,1,0,0:0:0:0:
320,192,66503,1,4,3:0:0:0:
448,192,66503,1,4,3:0:0:0:
402,192,66503,1,0,0:0:0:0:
192,192,66592,1,4,3:0:0:0:
64,192,66592,1,4,2:0:0:0:
320,192,66592,1,4,3:0:0:0:
448,192,66592,1,0,1:0:0:0:
402,192,66592,1,0,0:0:0:0:
109,192,66592,1,0,0:0:0:0:
192,192,66681,1,4,3:0:0:0:
64,192,66681,1,4,3:0:0:0:
109,192,66681,1,0,0:0:0:0:
320,192,66771,1,4,3:0:0:0:
448,192,66771,1,4,3:0:0:0:
402,192,66771,1,0,0:0:0:0:
192,192,66860,1,4,3:0:0:0:
64,192,66860,1,4,3:0:0:0:
109,192,66860,1,0,0:0:0:0:
320,192,66949,1,4,3:0:0:0:
448,192,66949,1,0,1:0:0:0:
192,192,66949,1,4,3:0:0:0:
64,192,66949,1,4,2:0:0:0:
109,192,66949,1,0,0:0:0:0:
402,192,66949,1,0,0:0:0:0:
320,192,67039,1,4,3:0:0:0:
448,192,67039,1,4,3:0:0:0:
402,192,67039,1,0,0:0:0:0:
192,192,67128,1,4,3:0:0:0:
64,192,67128,1,4,3:0:0:0:
109,192,67128,1,0,0:0:0:0:
448,192,67217,1,4,3:0:0:0:
320,192,67217,1,4,3:0:0:0:
402,192,67217,1,0,0:0:0:0:
320,192,67306,1,4,3:0:0:0:
448,192,67306,1,0,1:0:0:0:
64,192,67306,1,4,2:0:0:0:
192,192,67306,1,4,3:0:0:0:
402,192,67306,1,0,0:0:0:0:
109,192,67306,1,0,0:0:0:0:
192,192,67396,1,4,3:0:0:0:
64,192,67396,1,4,3:0:0:0:
109,192,67396,1,0,0:0:0:0:
192,192,67485,1,4,3:0:0:0:
448,192,67485,1,0,1:0:0:0:
320,192,67485,1,4,3:0:0:0:
64,192,67485,1,4,2:0:0:0:
109,192,67485,1,0,0:0:0:0:
402,192,67485,1,0,0:0:0:0:
320,192,67574,1,4,3:0:0:0:
448,192,67574,1,4,3:0:0:0:
402,192,67574,1,0,0:0:0:0:
192,192,67664,1,4,3:0:0:0:
448,192,67664,1,0,1:0:0:0:
64,192,67664,1,4,2:0:0:0:
320,192,67664,1,4,3:0:0:0:
402,192,67664,1,0,0:0:0:0:
109,192,67664,1,0,0:0:0:0:
192,192,67753,1,4,3:0:0:0:
64,192,67753,1,4,3:0:0:0:
109,192,67753,1,0,0:0:0:0:
320,192,67842,1,4,3:0:0:0:
448,192,67842,1,4,3:0:0:0:
402,192,67842,1,0,0:0:0:0:
192,192,68021,1,4,3:0:0:0:
448,192,68021,1,0,1:0:0:0:
320,192,68021,1,4,3:0:0:0:
64,192,68021,1,4,2:0:0:0:
402,192,68021,1,0,0:0:0:0:
109,192,68021,1,0,0:0:0:0:
64,192,68110,1,4,3:0:0:0:
192,192,68110,1,4,3:0:0:0:
109,192,68110,1,0,0:0:0:0:
448,192,68199,1,0,1:0:0:0:
64,192,68199,1,4,2:0:0:0:
192,192,68199,1,4,3:0:0:0:
320,192,68199,1,4,3:0:0:0:
109,192,68199,1,0,0:0:0:0:
402,192,68199,1,0,0:0:0:0:
448,192,68289,1,4,3:0:0:0:
320,192,68289,1,4,3:0:0:0:
402,192,68289,1,0,0:0:0:0:
64,192,68378,1,4,3:0:0:0:
192,192,68378,1,4,3:0:0:0:
109,192,68378,1,0,0:0:0:0:
192,192,68556,1,4,3:0:0:0:
448,192,68556,1,0,1:0:0:0:
320,192,68556,1,4,3:0:0:0:
64,192,68556,1,4,2:0:0:0:
109,192,68556,1,0,0:0:0:0:
402,192,68556,1,0,0:0:0:0:
448,192,68646,1,4,3:0:0:0:
320,192,68646,1,4,3:0:0:0:
402,192,68646,1,0,0:0:0:0:
192,192,68735,1,4,3:0:0:0:
448,192,68735,1,0,1:0:0:0:
64,192,68735,1,4,2:0:0:0:
320,192,68735,1,4,3:0:0:0:
402,192,68735,1,0,0:0:0:0:
109,192,68735,1,0,0:0:0:0:
64,192,68824,1,4,3:0:0:0:
192,192,68824,1,4,3:0:0:0:
109,192,68824,1,0,0:0:0:0:
320,192,68914,1,4,3:0:0:0:
448,192,68914,1,4,3:0:0:0:
402,192,68914,1,0,0:0:0:0:
64,192,69003,1,4,3:0:0:0:
192,192,69003,1,4,3:0:0:0:
109,192,69003,1,0,0:0:0:0:
448,192,69092,1,0,1:0:0:0:
192,192,69092,1,4,3:0:0:0:
320,192,69092,1,4,3:0:0:0:
64,192,69092,1,4,2:0:0:0:
109,192,69092,1,0,0:0:0:0:
402,192,69092,1,0,0:0:0:0:
320,192,69181,1,4,3:0:0:0:
448,192,69181,1,4,3:0:0:0:
402,192,69181,1,0,0:0:0:0:
64,192,69271,1,4,3:0:0:0:
192,192,69271,1,4,3:0:0:0:
109,192,69271,1,0,0:0:0:0:
320,192,69360,1,4,3:0:0:0:
448,192,69360,1,4,3:0:0:0:
402,192,69360,1,0,0:0:0:0:
192,192,69449,1,4,3:0:0:0:
448,192,69449,1,0,1:0:0:0:
64,192,69449,1,4,2:0:0:0:
320,192,69449,1,4,3:0:0:0:
402,192,69449,1,0,0:0:0:0:
109,192,69449,1,0,0:0:0:0:
64,192,69539,1,4,3:0:0:0:
192,192,69539,1,4,3:0:0:0:
109,192,69539,1,0,0:0:0:0:
64,192,69628,1,4,2:0:0:0:
448,192,69628,1,0,1:0:0:0:
192,192,69628,1,4,3:0:0:0:
320,192,69628,1,4,3:0:0:0:
109,192,69628,1,0,0:0:0:0:
402,192,69628,1,0,0:0:0:0:
320,192,69717,1,4,3:0:0:0:
448,192,69717,1,4,3:0:0:0:
402,192,69717,1,0,0:0:0:0:
64,192,69806,1,4,2:0:0:0:
448,192,69806,1,0,1:0:0:0:
320,192,69806,1,4,3:0:0:0:
192,192,69806,1,4,3:0:0:0:
402,192,69806,1,0,0:0:0:0:
109,192,69806,1,0,0:0:0:0:
64,192,69896,1,4,3:0:0:0:
192,192,69896,1,4,3:0:0:0:
109,192,69896,1,0,0:0:0:0:
320,192,69985,1,4,3:0:0:0:
448,192,69985,1,4,3:0:0:0:
402,192,69985,1,0,0:0:0:0:
64,192,70164,1,4,2:0:0:0:
448,192,70164,1,0,1:0:0:0:
192,192,70164,1,4,3:0:0:0:
320,192,70164,1,4,3:0:0:0:
402,192,70164,1,0,0:0:0:0:
109,192,70164,1,0,0:0:0:0:
192,192,70253,1,4,3:0:0:0:
64,192,70253,1,4,3:0:0:0:
109,192,70253,1,0,0:0:0:0:
64,192,70342,1,4,2:0:0:0:
448,192,70342,1,0,1:0:0:0:
320,192,70342,1,4,3:0:0:0:
192,192,70342,1,4,3:0:0:0:
109,192,70342,1,0,0:0:0:0:
402,192,70342,1,0,0:0:0:0:
448,192,70431,1,4,3:0:0:0:
320,192,70431,1,4,3:0:0:0:
402,192,70431,1,0,0:0:0:0:
192,192,70521,1,4,3:0:0:0:
64,192,70521,1,4,3:0:0:0:
109,192,70521,1,0,0:0:0:0:
64,192,70699,1,4,2:0:0:0:
448,192,70699,1,0,1:0:0:0:
192,192,70699,1,4,3:0:0:0:
320,192,70699,1,4,3:0:0:0:
109,192,70699,1,0,0:0:0:0:
402,192,70699,1,0,0:0:0:0:
320,192,70789,1,4,3:0:0:0:
448,192,70789,1,4,3:0:0:0:
402,192,70789,1,0,0:0:0:0:
64,192,70878,1,4,2:0:0:0:
448,192,70878,1,0,1:0:0:0:
320,192,70878,1,4,3:0:0:0:
192,192,70878,1,4,3:0:0:0:
402,192,70878,1,0,0:0:0:0:
109,192,70878,1,0,0:0:0:0:
64,192,70967,1,4,3:0:0:0:
192,192,70967,1,4,3:0:0:0:
109,192,70967,1,0,0:0:0:0:
320,192,71056,1,4,3:0:0:0:
448,192,71056,1,4,3:0:0:0:
402,192,71056,1,0,0:0:0:0:
64,192,71146,1,4,3:0:0:0:
192,192,71146,1,4,3:0:0:0:
109,192,71146,1,0,0:0:0:0:
64,192,71235,1,4,2:0:0:0:
448,192,71235,1,0,1:0:0:0:
320,192,71235,1,4,3:0:0:0:
192,192,71235,1,4,3:0:0:0:
402,192,71235,1,0,0:0:0:0:
109,192,71235,1,0,0:0:0:0:
320,192,71324,1,4,3:0:0:0:
448,192,71324,1,4,3:0:0:0:
402,192,71324,1,0,0:0:0:0:
64,192,71414,1,4,3:0:0:0:
192,192,71414,1,4,3:0:0:0:
109,192,71414,1,0,0:0:0:0:
448,192,71503,1,4,3:0:0:0:
320,192,71503,1,4,3:0:0:0:
402,192,71503,1,0,0:0:0:0:
64,192,71592,1,4,2:0:0:0:
448,192,71592,1,0,1:0:0:0:
320,192,71592,1,4,3:0:0:0:
192,192,71592,1,4,3:0:0:0:
402,192,71592,1,0,0:0:0:0:
109,192,71592,1,0,0:0:0:0:
192,192,71681,1,4,3:0:0:0:
64,192,71681,1,4,3:0:0:0:
109,192,71681,1,0,0:0:0:0:
320,192,71771,1,4,3:0:0:0:
448,192,71771,1,0,1:0:0:0:
64,192,71771,1,4,2:0:0:0:
192,192,71771,1,4,3:0:0:0:
109,192,71771,1,0,0:0:0:0:
402,192,71771,1,0,0:0:0:0:
320,192,71860,1,4,3:0:0:0:
448,192,71860,1,4,3:0:0:0:
402,192,71860,1,0,0:0:0:0:
320,192,71949,1,4,3:0:0:0:
448,192,71949,1,0,1:0:0:0:
64,192,71949,1,4,2:0:0:0:
192,192,71949,1,4,3:0:0:0:
402,192,71949,1,0,0:0:0:0:
109,192,71949,1,0,0:0:0:0:
64,192,72039,1,4,3:0:0:0:
192,192,72039,1,4,3:0:0:0:
109,192,72039,1,0,0:0:0:0:
448,192,72128,1,4,3:0:0:0:
320,192,72128,1,4,3:0:0:0:
402,192,72128,1,0,0:0:0:0:
320,192,72306,1,4,3:0:0:0:
448,192,72306,1,0,1:0:0:0:
64,192,72306,1,4,2:0:0:0:
192,192,72306,1,4,3:0:0:0:
109,192,72306,1,0,0:0:0:0:
402,192,72306,1,0,0:0:0:0:
192,192,72396,1,4,3:0:0:0:
64,192,72396,1,4,3:0:0:0:
109,192,72396,1,0,0:0:0:0:
320,192,72485,1,4,3:0:0:0:
448,192,72485,1,0,1:0:0:0:
192,192,72485,1,4,3:0:0:0:
64,192,72485,1,4,2:0:0:0:
109,192,72485,1,0,0:0:0:0:
402,192,72485,1,0,0:0:0:0:
448,192,72574,1,4,3:0:0:0:
320,192,72574,1,4,3:0:0:0:
402,192,72574,1,4,3:0:0:0:
192,192,72664,1,4,3:0:0:0:
256,192,72664,1,0,0:0:0:0:
329,192,72664,1,0,0:0:0:0:
320,192,72842,1,4,3:0:0:0:
448,192,72842,1,0,1:0:0:0:
64,192,72842,1,4,2:0:0:0:
192,192,72842,1,4,3:0:0:0:
256,192,72842,1,0,0:0:0:0:
320,192,72931,1,4,3:0:0:0:
448,192,72931,1,4,3:0:0:0:
402,192,72931,1,0,0:0:0:0:
320,192,73021,1,4,3:0:0:0:
448,192,73021,1,0,1:0:0:0:
192,192,73021,1,4,3:0:0:0:
64,192,73021,1,4,2:0:0:0:
402,192,73021,1,0,0:0:0:0:
109,192,73021,1,0,0:0:0:0:
64,192,73110,1,4,3:0:0:0:
192,192,73110,1,4,3:0:0:0:
109,192,73110,1,0,0:0:0:0:
448,192,73199,1,4,3:0:0:0:
320,192,73199,1,4,3:0:0:0:
402,192,73199,1,0,0:0:0:0:
64,192,73289,1,4,3:0:0:0:
192,192,73289,1,4,3:0:0:0:
109,192,73289,1,0,0:0:0:0:
109,192,73378,1,0,0:0:0:0:
448,192,73378,1,0,1:0:0:0:
320,192,73378,1,4,3:0:0:0:
64,192,73378,1,4,2:0:0:0:
192,192,73378,1,4,3:0:0:0:
402,192,73378,1,0,0:0:0:0:
320,192,73467,1,4,3:0:0:0:
448,192,73467,1,4,3:0:0:0:
402,192,73467,1,0,0:0:0:0:
64,192,73556,1,4,3:0:0:0:
109,192,73601,1,0,0:0:0:0:
192,192,73646,1,4,3:0:0:0:
256,192,73690,1,0,0:0:0:0:
320,192,73735,1,4,3:0:0:0:
64,192,73735,1,4,2:0:0:0:
402,192,73780,1,0,1:0:0:0:
475,192,73824,1,4,3:0:0:0:
182,192,73869,1,4,3:0:0:0:
320,192,73914,1,4,2:0:0:0:
448,192,73914,1,4,1:0:0:0:
109,192,73958,1,2,2:0:0:0:
402,192,74003,1,4,2:0:0:0:
256,192,74003,1,14,3:0:0:0:
36,192,74048,1,4,1:0:0:0:
192,192,74092,1,2,2:0:0:0:
256,192,74181,1,2,2:0:0:0:
192,192,74271,1,2,2:0:0:0:
320,192,74360,1,2,2:0:0:0:
109,192,74360,1,0,0:0:0:0:
402,192,74405,1,0,0:0:0:0:
448,192,74449,1,2,2:0:0:0:
320,192,74539,1,2,2:0:0:0:
256,192,74583,1,0,0:0:0:0:
192,192,74628,1,2,2:0:0:0:
109,192,74673,1,0,0:0:0:0:
64,192,74717,1,2,2:0:0:0:
320,192,74806,1,2,2:0:0:0:
256,192,74851,1,0,0:0:0:0:
192,192,74896,1,2,2:0:0:0:
320,192,74985,1,2,2:0:0:0:
402,192,75030,1,0,0:0:0:0:
448,192,75074,1,2,2:0:0:0:
320,192,75164,1,2,2:0:0:0:
256,192,75208,1,0,0:0:0:0:
192,192,75253,1,2,2:0:0:0:
109,192,75298,1,0,0:0:0:0:
64,192,75342,1,2,2:0:0:0:
448,192,75431,1,2,2:0:0:0:
402,192,75476,1,0,0:0:0:0:
320,192,75521,1,2,2:0:0:0:
256,192,75565,1,0,0:0:0:0:
192,192,75610,1,2,2:0:0:0:
109,192,75655,1,0,0:0:0:0:
64,192,75699,1,2,2:0:0:0:
448,192,75789,1,2,2:0:0:0:
402,192,75833,1,0,0:0:0:0:
320,192,75878,1,2,2:0:0:0:
256,192,75923,1,0,0:0:0:0:
192,192,75967,1,2,2:0:0:0:
320,192,76056,1,2,2:0:0:0:
448,192,76056,1,2,2:0:0:0:
402,192,76056,1,0,0:0:0:0:
256,192,76101,1,0,0:0:0:0:
192,192,76146,1,2,2:0:0:0:
109,192,76190,1,0,0:0:0:0:
64,192,76235,1,2,0:0:0:0:
320,192,76324,1,2,0:0:0:0:
256,192,76369,1,0,0:0:0:0:
192,192,76414,1,2,0:0:0:0:
109,192,76458,1,0,0:0:0:0:
64,192,76503,1,2,0:0:0:0:
448,192,76592,1,2,0:0:0:0:
402,192,76637,1,0,0:0:0:0:
320,192,76681,1,2,0:0:0:0:
256,192,76726,1,0,0:0:0:0:
192,192,76771,1,2,0:0:0:0:
109,192,76815,1,0,0:0:0:0:
64,192,76860,1,2,0:0:0:0:
448,192,76949,1,2,0:0:0:0:
402,192,76994,1,0,0:0:0:0:
320,192,77039,1,2,0:0:0:0:
256,192,77083,1,0,0:0:0:0:
192,192,77128,1,2,0:0:0:0:
109,192,77173,1,0,0:0:0:0:
64,192,77217,1,2,0:0:0:0:
109,192,77262,1,0,0:0:0:0:
192,192,77306,1,2,0:0:0:0:
256,192,77351,1,0,0:0:0:0:
320,192,77396,1,2,0:0:0:0:
402,192,77440,1,0,0:0:0:0:
448,192,77485,1,2,0:0:0:0:
402,192,77530,1,0,0:0:0:0:
320,192,77574,1,2,0:0:0:0:
256,192,77619,1,0,0:0:0:0:
192,192,77664,1,2,0:0:0:0:
109,192,77708,1,0,0:0:0:0:
64,192,77753,1,2,0:0:0:0:
109,192,77798,1,0,0:0:0:0:
192,192,77842,1,2,0:0:0:0:
256,192,77887,1,0,0:0:0:0:
320,192,77931,1,2,0:0:0:0:
402,192,77976,1,0,0:0:0:0:
448,192,78021,1,2,0:0:0:0:
402,192,78065,1,0,0:0:0:0:
320,192,78110,1,2,0:0:0:0:
256,192,78155,1,0,0:0:0:0:
192,192,78199,1,2,0:0:0:0:
448,192,78199,1,2,0:0:0:0:
109,192,78244,1,0,0:0:0:0:
64,192,78289,1,2,0:0:0:0:
109,192,78333,1,0,0:0:0:0:
192,192,78378,1,2,0:0:0:0:
256,192,78423,1,0,0:0:0:0:
320,192,78467,1,2,0:0:0:0:
402,192,78512,1,0,0:0:0:0:
448,192,78556,1,2,0:0:0:0:
402,192,78601,1,0,0:0:0:0:
320,192,78646,1,2,0:0:0:0:
256,192,78690,1,0,0:0:0:0:
192,192,78735,1,2,0:0:0:0:
109,192,78780,1,0,0:0:0:0:
64,192,78824,1,2,0:0:0:0:
448,192,78914,1,2,0:0:0:0:
402,192,78958,1,0,0:0:0:0:
320,192,79003,1,2,0:0:0:0:
256,192,79048,1,0,0:0:0:0:
192,192,79092,1,2,0:0:0:0:
109,192,79137,1,0,0:0:0:0:
64,192,79181,1,2,0:0:0:0:
109,192,79226,1,0,0:0:0:0:
192,192,79271,1,2,0:0:0:0:
256,192,79315,1,0,0:0:0:0:
320,192,79360,1,2,0:0:0:0:
402,192,79405,1,0,0:0:0:0:
448,192,79449,1,2,0:0:0:0:
64,192,79539,1,2,0:0:0:0:
109,192,79583,1,0,0:0:0:0:
192,192,79628,1,2,0:0:0:0:
256,192,79673,1,0,0:0:0:0:
320,192,79717,1,2,0:0:0:0:
402,192,79762,1,0,0:0:0:0:
448,192,79806,1,2,0:0:0:0:
402,192,79851,1,0,0:0:0:0:
320,192,79896,1,2,0:0:0:0:
256,192,79940,1,0,0:0:0:0:
192,192,79985,1,2,0:0:0:0:
256,192,80030,1,0,0:0:0:0:
320,192,80074,1,2,0:0:0:0:
402,192,80119,1,0,0:0:0:0:
448,192,80164,1,2,0:0:0:0:
192,192,80253,1,2,0:0:0:0:
109,192,80298,1,0,0:0:0:0:
64,192,80342,1,2,0:0:0:0:
320,192,80342,1,2,0:0:0:0:
402,192,80387,1,0,0:0:0:0:
448,192,80431,1,2,0:0:0:0:
402,192,80476,1,0,0:0:0:0:
320,192,80521,1,2,0:0:0:0:
256,192,80565,1,0,0:0:0:0:
192,192,80610,1,2,0:0:0:0:
109,192,80655,1,0,0:0:0:0:
64,192,80699,1,2,0:0:0:0:
448,192,80789,1,2,0:0:0:0:
402,192,80833,1,0,0:0:0:0:
320,192,80878,1,2,0:0:0:0:
256,192,80923,1,0,0:0:0:0:
192,192,80967,1,2,0:0:0:0:
320,192,81056,1,2,0:0:0:0:
256,192,81101,1,0,0:0:0:0:
192,192,81146,1,2,0:0:0:0:
109,192,81190,1,0,0:0:0:0:
64,192,81235,1,2,0:0:0:0:
320,192,81324,1,2,0:0:0:0:
256,192,81369,1,0,0:0:0:0:
192,192,81414,1,2,0:0:0:0:
448,192,81414,1,2,0:0:0:0:
402,192,81458,1,0,0:0:0:0:
320,192,81503,1,2,0:0:0:0:
256,192,81548,1,0,0:0:0:0:
192,192,81592,1,2,0:0:0:0:
109,192,81637,1,0,0:0:0:0:
64,192,81681,1,2,0:0:0:0:
109,192,81726,1,0,0:0:0:0:
448,192,81771,1,2,0:0:0:0:
192,192,81771,1,2,0:0:0:0:
256,192,81815,1,0,0:0:0:0:
402,192,81815,1,0,0:0:0:0:
320,192,81860,1,2,0:0:0:0:
192,192,81949,1,2,0:0:0:0:
109,192,81994,1,0,0:0:0:0:
64,192,82039,1,2,0:0:0:0:
320,192,82128,1,2,0:0:0:0:
448,192,82128,1,2,0:0:0:0:
402,192,82128,1,0,0:0:0:0:
192,192,82217,1,2,0:0:0:0:
109,192,82262,1,0,0:0:0:0:
448,192,82306,1,2,0:0:0:0:
64,192,82306,1,2,0:0:0:0:
256,192,82306,1,0,0:0:0:0:
192,192,82396,1,2,0:0:0:0:
64,192,82485,1,4,2:0:0:0:
192,192,82485,1,4,3:0:0:0:
448,192,82485,1,0,1:0:0:0:
320,192,82485,1,4,3:0:0:0:
402,192,82485,1,0,0:0:0:0:
402,192,82530,1,0,0:0:0:0:
320,192,82574,1,4,3:0:0:0:
448,192,82574,1,4,3:0:0:0:
192,192,82664,1,4,3:0:0:0:
64,192,82664,1,4,2:0:0:0:
320,192,82664,1,4,3:0:0:0:
448,192,82664,1,0,1:0:0:0:
402,192,82664,1,0,0:0:0:0:
109,192,82664,1,0,0:0:0:0:
192,192,82753,1,4,3:0:0:0:
64,192,82753,1,4,3:0:0:0:
109,192,82753,1,0,0:0:0:0:
320,192,82842,1,4,3:0:0:0:
448,192,82842,1,4,3:0:0:0:
402,192,82842,1,0,0:0:0:0:
64,192,83021,1,4,2:0:0:0:
192,192,83021,1,4,3:0:0:0:
320,192,83021,1,4,3:0:0:0:
448,192,83021,1,0,1:0:0:0:
402,192,83021,1,0,0:0:0:0:
109,192,83021,1,0,0:0:0:0:
64,192,83110,1,4,3:0:0:0:
192,192,83110,1,4,3:0:0:0:
109,192,83110,1,0,0:0:0:0:
192,192,83199,1,4,3:0:0:0:
64,192,83199,1,4,2:0:0:0:
320,192,83199,1,4,3:0:0:0:
448,192,83199,1,0,1:0:0:0:
109,192,83199,1,0,0:0:0:0:
402,192,83199,1,0,0:0:0:0:
402,192,83289,1,0,0:0:0:0:
448,192,83289,1,4,3:0:0:0:
320,192,83289,1,4,3:0:0:0:
64,192,83378,1,4,3:0:0:0:
192,192,83378,1,4,3:0:0:0:
109,192,83378,1,0,0:0:0:0:
64,192,83556,1,4,2:0:0:0:
192,192,83556,1,4,3:0:0:0:
320,192,83556,1,4,3:0:0:0:
448,192,83556,1,0,1:0:0:0:
109,192,83556,1,0,0:0:0:0:
402,192,83556,1,0,0:0:0:0:
320,192,83646,1,4,3:0:0:0:
448,192,83646,1,4,3:0:0:0:
402,192,83646,1,0,0:0:0:0:
192,192,83735,1,4,3:0:0:0:
64,192,83735,1,4,2:0:0:0:
320,192,83735,1,4,3:0:0:0:
448,192,83735,1,0,1:0:0:0:
402,192,83735,1,0,0:0:0:0:
109,192,83735,1,0,0:0:0:0:
192,192,83824,1,4,3:0:0:0:
64,192,83824,1,4,3:0:0:0:
109,192,83824,1,0,0:0:0:0:
320,192,83914,1,4,3:0:0:0:
448,192,83914,1,4,3:0:0:0:
402,192,83914,1,0,0:0:0:0:
192,192,84003,1,4,3:0:0:0:
64,192,84003,1,4,3:0:0:0:
109,192,84003,1,0,0:0:0:0:
320,192,84092,1,4,3:0:0:0:
448,192,84092,1,0,1:0:0:0:
192,192,84092,1,4,3:0:0:0:
64,192,84092,1,4,2:0:0:0:
109,192,84092,1,0,0:0:0:0:
402,192,84092,1,0,0:0:0:0:
448,192,84181,1,4,3:0:0:0:
320,192,84181,1,4,3:0:0:0:
402,192,84181,1,0,0:0:0:0:
64,192,84271,1,4,3:0:0:0:
192,192,84271,1,4,3:0:0:0:
109,192,84271,1,0,0:0:0:0:
448,192,84360,1,4,3:0:0:0:
320,192,84360,1,4,3:0:0:0:
402,192,84360,1,0,0:0:0:0:
192,192,84449,1,4,3:0:0:0:
64,192,84449,1,4,2:0:0:0:
320,192,84449,1,4,3:0:0:0:
448,192,84449,1,0,1:0:0:0:
402,192,84449,1,0,0:0:0:0:
109,192,84449,1,0,0:0:0:0:
192,192,84539,1,4,3:0:0:0:
64,192,84539,1,4,3:0:0:0:
109,192,84539,1,0,0:0:0:0:
192,192,84628,1,4,3:0:0:0:
448,192,84628,1,0,1:0:0:0:
64,192,84628,1,4,2:0:0:0:
320,192,84628,1,4,3:0:0:0:
109,192,84628,1,0,0:0:0:0:
402,192,84628,1,0,0:0:0:0:
320,192,84717,1,4,3:0:0:0:
448,192,84717,1,4,3:0:0:0:
402,192,84717,1,0,0:0:0:0:
192,192,84806,1,4,3:0:0:0:
448,192,84806,1,0,1:0:0:0:
320,192,84806,1,4,3:0:0:0:
64,192,84806,1,4,2:0:0:0:
402,192,84806,1,0,0:0:0:0:
109,192,84806,1,0,0:0:0:0:
192,192,84896,1,4,3:0:0:0:
64,192,84896,1,4,3:0:0:0:
109,192,84896,1,0,0:0:0:0:
320,192,84985,1,4,3:0:0:0:
448,192,84985,1,4,3:0:0:0:
402,192,84985,1,0,0:0:0:0:
256,192,84985,1,0,0:0:0:0:
192,192,85164,1,4,3:0:0:0:
448,192,85164,1,0,1:0:0:0:
320,192,85164,1,4,3:0:0:0:
64,192,85164,1,4,2:0:0:0:
109,192,85164,1,0,0:0:0:0:
402,192,85164,1,0,0:0:0:0:
64,192,85253,1,4,3:0:0:0:
192,192,85253,1,4,3:0:0:0:
109,192,85253,1,0,0:0:0:0:
192,192,85342,1,4,3:0:0:0:
448,192,85342,1,0,1:0:0:0:
320,192,85342,1,4,3:0:0:0:
64,192,85342,1,4,2:0:0:0:
109,192,85342,1,0,0:0:0:0:
402,192,85342,1,0,0:0:0:0:
448,192,85431,1,4,3:0:0:0:
320,192,85431,1,4,3:0:0:0:
402,192,85431,1,0,0:0:0:0:
64,192,85521,1,4,3:0:0:0:
192,192,85521,1,4,3:0:0:0:
109,192,85521,1,0,0:0:0:0:
256,192,85521,1,0,0:0:0:0:
192,192,85699,1,4,3:0:0:0:
448,192,85699,1,0,1:0:0:0:
320,192,85699,1,4,3:0:0:0:
64,192,85699,1,4,2:0:0:0:
109,192,85699,1,0,0:0:0:0:
402,192,85699,1,0,0:0:0:0:
320,192,85789,1,4,3:0:0:0:
448,192,85789,1,4,3:0:0:0:
402,192,85789,1,0,0:0:0:0:
192,192,85878,1,4,3:0:0:0:
448,192,85878,1,0,1:0:0:0:
64,192,85878,1,4,2:0:0:0:
320,192,85878,1,4,3:0:0:0:
402,192,85878,1,0,0:0:0:0:
109,192,85878,1,0,0:0:0:0:
64,192,85967,1,4,3:0:0:0:
192,192,85967,1,4,3:0:0:0:
109,192,85967,1,0,0:0:0:0:
320,192,86056,1,4,3:0:0:0:
448,192,86056,1,4,3:0:0:0:
256,192,86056,1,0,0:0:0:0:
402,192,86056,1,0,0:0:0:0:
64,192,86146,1,4,3:0:0:0:
192,192,86146,1,4,3:0:0:0:
109,192,86146,1,0,0:0:0:0:
64,192,86235,1,4,2:0:0:0:
192,192,86235,1,4,3:0:0:0:
320,192,86235,1,4,3:0:0:0:
448,192,86235,1,0,1:0:0:0:
109,192,86235,1,0,0:0:0:0:
402,192,86235,1,0,0:0:0:0:
448,192,86324,1,4,3:0:0:0:
320,192,86324,1,4,3:0:0:0:
402,192,86324,1,0,0:0:0:0:
64,192,86414,1,4,3:0:0:0:
192,192,86414,1,4,3:0:0:0:
109,192,86414,1,0,0:0:0:0:
256,192,86414,1,0,0:0:0:0:
448,192,86503,1,4,3:0:0:0:
320,192,86503,1,4,3:0:0:0:
402,192,86503,1,0,0:0:0:0:
192,192,86592,1,4,3:0:0:0:
448,192,86592,1,0,1:0:0:0:
64,192,86592,1,4,2:0:0:0:
320,192,86592,1,4,3:0:0:0:
402,192,86592,1,0,0:0:0:0:
109,192,86592,1,0,0:0:0:0:
192,192,86681,1,4,3:0:0:0:
64,192,86681,1,4,3:0:0:0:
109,192,86681,1,0,0:0:0:0:
64,192,86771,1,4,2:0:0:0:
448,192,86771,1,0,1:0:0:0:
192,192,86771,1,4,3:0:0:0:
320,192,86771,1,4,3:0:0:0:
109,192,86771,1,0,0:0:0:0:
402,192,86771,1,0,0:0:0:0:
448,192,86860,1,4,3:0:0:0:
320,192,86860,1,4,3:0:0:0:
402,192,86860,1,0,0:0:0:0:
448,192,86949,1,0,1:0:0:0:
320,192,86949,1,4,3:0:0:0:
192,192,86949,1,4,3:0:0:0:
64,192,86949,1,4,2:0:0:0:
402,192,86949,1,0,0:0:0:0:
109,192,86949,1,0,0:0:0:0:
192,192,87039,1,4,3:0:0:0:
64,192,87039,1,4,3:0:0:0:
109,192,87039,1,0,0:0:0:0:
448,192,87128,1,4,3:0:0:0:
320,192,87128,1,4,3:0:0:0:
402,192,87128,1,0,0:0:0:0:
256,192,87128,1,0,0:0:0:0:
64,192,87306,1,4,2:0:0:0:
448,192,87306,1,0,1:0:0:0:
192,192,87306,1,4,3:0:0:0:
320,192,87306,1,4,3:0:0:0:
402,192,87306,1,0,0:0:0:0:
109,192,87306,1,0,0:0:0:0:
192,192,87396,1,4,3:0:0:0:
64,192,87396,1,4,3:0:0:0:
109,192,87396,1,0,0:0:0:0:
64,192,87485,1,4,2:0:0:0:
448,192,87485,1,0,1:0:0:0:
192,192,87485,1,4,3:0:0:0:
320,192,87485,1,4,3:0:0:0:
109,192,87485,1,0,0:0:0:0:
402,192,87485,1,0,0:0:0:0:
448,192,87574,1,4,3:0:0:0:
320,192,87574,1,4,3:0:0:0:
402,192,87574,1,0,0:0:0:0:
256,192,87574,1,0,0:0:0:0:
192,192,87664,1,4,3:0:0:0:
64,192,87664,1,4,3:0:0:0:
109,192,87664,1,0,0:0:0:0:
64,192,87842,1,4,2:0:0:0:
448,192,87842,1,0,1:0:0:0:
192,192,87842,1,4,3:0:0:0:
320,192,87842,1,4,3:0:0:0:
109,192,87842,1,0,0:0:0:0:
402,192,87842,1,0,0:0:0:0:
320,192,87931,1,4,3:0:0:0:
448,192,87931,1,4,3:0:0:0:
402,192,87931,1,0,0:0:0:0:
64,192,88021,1,4,2:0:0:0:
448,192,88021,1,0,1:0:0:0:
192,192,88021,1,4,3:0:0:0:
320,192,88021,1,4,3:0:0:0:
402,192,88021,1,0,0:0:0:0:
109,192,88021,1,0,0:0:0:0:
64,192,88110,1,4,3:0:0:0:
192,192,88110,1,4,3:0:0:0:
109,192,88110,1,0,0:0:0:0:
448,192,88199,1,4,3:0:0:0:
320,192,88199,1,4,3:0:0:0:
402,192,88199,1,0,0:0:0:0:
256,192,88199,1,0,0:0:0:0:
64,192,88289,1,4,3:0:0:0:
192,192,88289,1,4,3:0:0:0:
109,192,88289,1,0,0:0:0:0:
448,192,88378,1,0,1:0:0:0:
64,192,88378,1,4,2:0:0:0:
192,192,88378,1,4,3:0:0:0:
320,192,88378,1,4,3:0:0:0:
109,192,88378,1,0,0:0:0:0:
402,192,88378,1,0,0:0:0:0:
448,192,88467,1,4,3:0:0:0:
320,192,88467,1,4,3:0:0:0:
402,192,88467,1,0,0:0:0:0:
64,192,88556,1,4,3:0:0:0:
192,192,88556,1,4,3:0:0:0:
109,192,88556,1,0,0:0:0:0:
256,192,88556,1,0,0:0:0:0:
448,192,88646,1,4,3:0:0:0:
320,192,88646,1,4,3:0:0:0:
402,192,88646,1,0,0:0:0:0:
64,192,88735,1,4,2:0:0:0:
320,192,88735,1,4,3:0:0:0:
192,192,88735,1,4,3:0:0:0:
448,192,88735,1,0,1:0:0:0:
402,192,88735,1,0,0:0:0:0:
109,192,88735,1,0,0:0:0:0:
192,192,88824,1,4,3:0:0:0:
64,192,88824,1,4,3:0:0:0:
109,192,88824,1,0,0:0:0:0:
320,192,88914,1,4,3:0:0:0:
448,192,88914,1,0,1:0:0:0:
192,192,88914,1,4,3:0:0:0:
64,192,88914,1,4,2:0:0:0:
109,192,88914,1,0,0:0:0:0:
402,192,88914,1,0,0:0:0:0:
448,192,89003,1,4,3:0:0:0:
320,192,89003,1,4,3:0:0:0:
402,192,89003,1,0,0:0:0:0:
320,192,89092,1,4,3:0:0:0:
448,192,89092,1,0,1:0:0:0:
192,192,89092,1,4,3:0:0:0:
64,192,89092,1,4,2:0:0:0:
402,192,89092,1,0,0:0:0:0:
109,192,89092,1,0,0:0:0:0:
64,192,89181,1,4,3:0:0:0:
192,192,89181,1,4,3:0:0:0:
109,192,89181,1,0,0:0:0:0:
448,192,89271,1,4,3:0:0:0:
320,192,89271,1,4,3:0:0:0:
402,192,89271,1,0,0:0:0:0:
256,192,89271,1,0,0:0:0:0:
320,192,89449,1,4,3:0:0:0:
448,192,89449,1,0,1:0:0:0:
192,192,89449,1,4,3:0:0:0:
64,192,89449,1,4,2:0:0:0:
109,192,89449,1,0,0:0:0:0:
402,192,89449,1,0,0:0:0:0:
192,192,89539,1,4,3:0:0:0:
64,192,89539,1,4,3:0:0:0:
109,192,89539,1,0,0:0:0:0:
320,192,89628,1,4,3:0:0:0:
448,192,89628,1,0,1:0:0:0:
192,192,89628,1,4,3:0:0:0:
64,192,89628,1,4,2:0:0:0:
109,192,89628,1,0,0:0:0:0:
402,192,89628,1,0,0:0:0:0:
320,192,89717,1,4,3:0:0:0:
448,192,89717,1,4,3:0:0:0:
402,192,89717,1,0,0:0:0:0:
192,192,89806,1,4,3:0:0:0:
64,192,89806,1,4,3:0:0:0:
109,192,89806,1,0,0:0:0:0:
256,192,89806,1,0,0:0:0:0:
402,192,89985,1,0,0:0:0:0:
320,192,89985,1,4,3:0:0:0:
448,192,89985,1,0,1:0:0:0:
192,192,89985,1,4,3:0:0:0:
64,192,89985,1,4,2:0:0:0:
109,192,89985,1,0,0:0:0:0:
192,192,90074,1,4,3:0:0:0:
64,192,90074,1,4,3:0:0:0:
109,192,90074,1,0,0:0:0:0:
320,192,90164,1,4,3:0:0:0:
448,192,90164,1,0,1:0:0:0:
192,192,90164,1,4,3:0:0:0:
64,192,90164,1,4,2:0:0:0:
109,192,90164,1,0,0:0:0:0:
402,192,90164,1,0,0:0:0:0:
320,192,90253,1,4,3:0:0:0:
448,192,90253,1,4,3:0:0:0:
402,192,90253,1,0,0:0:0:0:
64,192,90342,1,4,3:0:0:0:
192,192,90342,1,4,3:0:0:0:
109,192,90342,1,0,0:0:0:0:
320,192,90431,1,4,3:0:0:0:
448,192,90431,1,4,3:0:0:0:
402,192,90431,1,0,0:0:0:0:
320,192,90521,1,4,3:0:0:0:
64,192,90521,1,4,2:0:0:0:
192,192,90521,1,4,3:0:0:0:
448,192,90521,1,0,1:0:0:0:
402,192,90521,1,0,0:0:0:0:
109,192,90521,1,0,0:0:0:0:
192,192,90610,1,4,3:0:0:0:
64,192,90610,1,4,3:0:0:0:
109,192,90610,1,0,0:0:0:0:
320,192,90699,1,4,3:0:0:0:
448,192,90699,1,4,3:0:0:0:
402,192,90699,1,0,0:0:0:0:
192,192,90759,1,4,3:0:0:0:
109,192,90789,1,0,0:0:0:0:
64,192,90833,1,4,3:0:0:0:
448,192,90833,1,0,1:0:0:0:
256,192,90833,1,0,0:0:0:0:
192,192,90878,1,4,2:0:0:0:
402,192,90878,1,0,0:0:0:0:
320,192,90923,1,14,3:0:0:0:
109,192,90923,1,0,0:0:0:0:
64,192,90967,1,4,3:0:0:0:
192,192,90967,1,4,3:0:0:0:
109,192,91012,1,4,2:0:0:0:
448,192,91056,1,4,1:0:0:0:
320,192,91056,1,4,1:0:0:0:
64,192,91056,1,4,2:0:0:0:
320,192,91146,1,2,2:0:0:0:
64,192,91235,1,2,2:0:0:0:
109,192,91280,1,0,0:0:0:0:
192,192,91324,1,2,2:0:0:0:
256,192,91369,1,0,0:0:0:0:
320,192,91414,1,2,2:0:0:0:
448,192,91414,1,12,3:0:0:0:
64,192,91414,1,4,3:0:0:0:
109,192,91458,1,0,0:0:0:0:
192,192,91503,1,2,2:0:0:0:
256,192,91548,1,0,0:0:0:0:
320,192,91592,1,2,2:0:0:0:
402,192,91637,1,0,0:0:0:0:
448,192,91681,1,2,2:0:0:0:
320,192,91771,1,2,2:0:0:0:
64,192,91771,1,4,3:0:0:0:
109,192,91771,1,0,0:0:0:0:
192,192,91949,1,2,2:0:0:0:
448,192,92128,1,2,2:0:0:0:
64,192,92128,1,4,3:0:0:0:
256,192,92128,1,0,0:0:0:0:
320,192,92306,1,2,2:0:0:0:
109,192,92306,1,0,0:0:0:0:
320,192,92485,1,2,2:0:0:0:
448,192,92485,1,4,3:0:0:0:
402,192,92485,1,0,0:0:0:0:
192,192,92664,1,2,2:0:0:0:
256,192,92664,1,0,0:0:0:0:
64,192,92842,1,2,2:0:0:0:
320,192,92842,1,12,3:0:0:0:
448,192,92842,1,4,3:0:0:0:
109,192,92842,1,0,0:0:0:0:
192,192,93021,1,2,2:0:0:0:
256,192,93021,1,0,0:0:0:0:
320,192,93199,5,2,2:0:0:0:
448,192,93199,1,4,3:0:0:0:
402,192,93199,1,0,0:0:0:0:
192,192,93378,1,2,2:0:0:0:
109,192,93423,1,0,0:0:0:0:
64,192,93467,1,2,2:0:0:0:
320,192,93556,1,12,3:0:0:0:
448,192,93556,1,4,3:0:0:0:
192,192,93556,1,2,2:0:0:0:
256,192,93556,1,0,0:0:0:0:
64,192,93646,1,2,2:0:0:0:
109,192,93690,1,0,0:0:0:0:
192,192,93735,1,2,2:0:0:0:
320,192,93824,1,2,2:0:0:0:
402,192,93869,1,0,0:0:0:0:
448,192,93914,1,2,2:0:0:0:
64,192,93914,1,4,3:0:0:0:
256,192,93914,1,0,0:0:0:0:
320,192,94092,1,2,2:0:0:0:
256,192,94181,1,0,0:0:0:0:
448,192,94271,1,2,2:0:0:0:
192,192,94271,1,4,3:0:0:0:
320,192,94449,1,2,2:0:0:0:
109,192,94449,1,0,0:0:0:0:
320,192,94628,1,2,2:0:0:0:
448,192,94628,1,4,3:0:0:0:
256,192,94628,1,0,0:0:0:0:
192,192,94806,1,2,2:0:0:0:
36,192,94806,1,0,0:0:0:0:
192,192,94985,1,2,2:0:0:0:
320,192,94985,1,4,3:0:0:0:
448,192,94985,1,12,3:0:0:0:
256,192,94985,1,0,0:0:0:0:
64,192,95164,1,2,2:0:0:0:
109,192,95164,1,0,0:0:0:0:
182,192,95164,1,0,0:0:0:0:
448,192,95342,5,2,2:0:0:0:
64,192,95342,1,0,1:0:0:0:
320,192,95342,1,4,2:0:0:0:
192,192,95342,1,4,2:0:0:0:
109,192,95342,1,0,0:0:0:0:
402,192,95342,1,0,0:0:0:0:
448,192,95431,1,2,2:0:0:0:
64,192,95521,1,4,3:0:0:0:
192,192,95521,1,2,2:0:0:0:
109,192,95521,1,0,0:0:0:0:
64,192,95610,1,2,2:0:0:0:
192,192,95610,1,4,3:0:0:0:
109,192,95610,1,0,0:0:0:0:
64,192,95699,1,4,3:0:0:0:
192,192,95699,1,2,2:0:0:0:
109,192,95699,1,0,0:0:0:0:
448,192,95789,1,2,2:0:0:0:
448,192,95878,1,4,2:0:0:0:
192,192,95878,1,2,2:0:0:0:
64,192,95878,1,0,1:0:0:0:
320,192,95878,1,4,2:0:0:0:
256,192,95878,1,0,0:0:0:0:
64,192,95967,1,2,2:0:0:0:
448,192,96056,1,4,3:0:0:0:
320,192,96056,1,2,2:0:0:0:
402,192,96056,1,0,0:0:0:0:
448,192,96146,1,2,2:0:0:0:
320,192,96146,1,4,3:0:0:0:
402,192,96146,1,0,0:0:0:0:
448,192,96235,1,4,3:0:0:0:
320,192,96235,1,2,2:0:0:0:
402,192,96235,1,0,0:0:0:0:
64,192,96324,1,2,2:0:0:0:
192,192,96414,1,4,2:0:0:0:
64,192,96414,1,0,1:0:0:0:
320,192,96414,1,2,2:0:0:0:
448,192,96414,1,4,2:0:0:0:
256,192,96414,1,0,0:0:0:0:
448,192,96503,1,2,2:0:0:0:
192,192,96592,1,2,2:0:0:0:
64,192,96592,1,4,3:0:0:0:
109,192,96592,1,0,0:0:0:0:
64,192,96681,1,2,2:0:0:0:
192,192,96681,1,4,3:0:0:0:
109,192,96681,1,0,0:0:0:0:
192,192,96771,1,2,2:0:0:0:
64,192,96771,1,4,3:0:0:0:
109,192,96771,1,0,0:0:0:0:
448,192,96860,1,2,2:0:0:0:
320,192,96949,1,2,2:0:0:0:
192,192,96949,1,4,2:0:0:0:
448,192,96949,1,4,2:0:0:0:
64,192,96949,1,0,1:0:0:0:
256,192,96949,1,0,0:0:0:0:
64,192,97039,1,2,2:0:0:0:
320,192,97128,1,2,2:0:0:0:
448,192,97128,1,4,3:0:0:0:
402,192,97128,1,0,0:0:0:0:
320,192,97217,1,4,3:0:0:0:
448,192,97217,1,2,2:0:0:0:
402,192,97217,1,0,0:0:0:0:
320,192,97306,1,2,2:0:0:0:
448,192,97306,1,4,3:0:0:0:
402,192,97306,1,0,0:0:0:0:
448,192,97396,1,2,2:0:0:0:
320,192,97396,1,4,3:0:0:0:
402,192,97396,1,0,0:0:0:0:
448,192,97485,1,4,2:0:0:0:
64,192,97485,1,0,1:0:0:0:
320,192,97485,1,4,2:0:0:0:
192,192,97485,1,2,2:0:0:0:
402,192,97485,1,0,0:0:0:0:
256,192,97485,1,0,0:0:0:0:
320,192,97574,1,2,2:0:0:0:
64,192,97664,1,4,3:0:0:0:
192,192,97664,1,2,2:0:0:0:
109,192,97664,1,0,0:0:0:0:
64,192,97753,1,2,2:0:0:0:
192,192,97753,1,4,3:0:0:0:
109,192,97753,1,0,0:0:0:0:
64,192,97842,1,4,3:0:0:0:
192,192,97842,1,2,2:0:0:0:
109,192,97842,1,0,0:0:0:0:
64,192,98021,1,2,2:0:0:0:
448,192,98021,1,0,1:0:0:0:
192,192,98021,1,4,2:0:0:0:
320,192,98021,1,4,2:0:0:0:
256,192,98021,1,0,0:0:0:0:
192,192,98110,1,2,2:0:0:0:
448,192,98199,1,2,2:0:0:0:
320,192,98199,1,4,3:0:0:0:
402,192,98199,1,0,0:0:0:0:
448,192,98289,1,4,3:0:0:0:
320,192,98289,1,2,2:0:0:0:
402,192,98289,1,0,0:0:0:0:
448,192,98378,1,2,2:0:0:0:
320,192,98378,1,4,3:0:0:0:
402,192,98378,1,0,0:0:0:0:
192,192,98556,1,4,2:0:0:0:
448,192,98556,1,0,1:0:0:0:
64,192,98556,1,4,2:0:0:0:
320,192,98556,1,4,3:0:0:0:
256,192,98556,1,0,0:0:0:0:
64,192,98646,1,2,2:0:0:0:
192,192,98735,1,2,2:0:0:0:
320,192,98824,1,6,2:0:0:0:
448,192,98824,1,4,2:0:0:0:
402,192,98824,1,0,0:0:0:0:
192,192,98914,1,4,2:0:0:0:
320,192,98914,1,2,2:0:0:0:
448,192,98914,1,0,1:0:0:0:
64,192,98914,1,4,2:0:0:0:
256,192,98914,1,0,0:0:0:0:
192,192,99003,1,2,2:0:0:0:
448,192,99092,1,0,0:0:0:0:
320,192,99092,1,2,2:0:0:0:
402,192,99092,1,0,0:0:0:0:
192,192,99181,1,2,2:0:0:0:
64,192,99181,1,0,0:0:0:0:
109,192,99181,1,0,0:0:0:0:
320,192,99271,1,0,1:0:0:0:
192,192,99271,1,4,2:0:0:0:
64,192,99271,1,4,2:0:0:0:
448,192,99271,1,2,2:0:0:0:
109,192,99271,1,0,0:0:0:0:
402,192,99271,1,0,0:0:0:0:
320,192,99360,1,2,2:0:0:0:
448,192,99360,1,0,0:0:0:0:
402,192,99360,1,0,0:0:0:0:
64,192,99449,1,2,2:0:0:0:
192,192,99449,1,4,3:0:0:0:
109,192,99449,1,0,0:0:0:0:
320,192,99539,1,2,2:0:0:0:
448,192,99539,1,4,3:0:0:0:
402,192,99539,1,0,0:0:0:0:
320,192,99628,1,2,2:0:0:0:
192,192,99628,1,4,2:0:0:0:
64,192,99628,1,4,2:0:0:0:
448,192,99628,1,4,1:0:0:0:
256,192,99628,1,0,0:0:0:0:
320,192,99717,1,2,2:0:0:0:
256,192,99762,1,0,0:0:0:0:
192,192,99806,1,2,2:0:0:0:
109,192,99851,1,0,0:0:0:0:
64,192,99896,1,2,2:0:0:0:
192,192,99985,1,2,2:0:0:0:
320,192,99985,1,4,3:0:0:0:
448,192,99985,1,12,3:0:0:0:
402,192,99985,1,0,0:0:0:0:
64,192,100074,1,2,2:0:0:0:
109,192,100119,1,0,0:0:0:0:
192,192,100164,1,2,2:0:0:0:
256,192,100208,1,0,0:0:0:0:
320,192,100253,1,2,2:0:0:0:
402,192,100298,1,0,0:0:0:0:
448,192,100342,1,2,2:0:0:0:
64,192,100342,1,4,3:0:0:0:
182,192,100342,1,0,0:0:0:0:
448,192,100699,1,2,2:0:0:0:
192,192,100699,1,4,3:0:0:0:
109,192,100699,1,0,0:0:0:0:
320,192,100789,1,2,2:0:0:0:
256,192,100833,1,0,0:0:0:0:
192,192,100878,1,2,2:0:0:0:
109,192,100923,1,0,0:0:0:0:
64,192,100967,1,2,2:0:0:0:
192,192,101056,1,2,2:0:0:0:
320,192,101056,1,4,3:0:0:0:
256,192,101056,1,0,0:0:0:0:
448,192,101146,1,2,2:0:0:0:
64,192,101235,1,2,2:0:0:0:
109,192,101280,1,0,0:0:0:0:
192,192,101324,1,2,2:0:0:0:
256,192,101369,1,0,0:0:0:0:
448,192,101414,1,2,2:0:0:0:
320,192,101414,1,4,3:0:0:0:
64,192,101414,1,12,3:0:0:0:
402,192,101414,1,0,0:0:0:0:
448,192,101771,1,2,2:0:0:0:
192,192,101771,1,4,3:0:0:0:
402,192,101815,1,0,0:0:0:0:
320,192,101860,1,2,2:0:0:0:
256,192,101905,1,0,0:0:0:0:
192,192,101949,1,2,2:0:0:0:
320,192,102039,1,2,2:0:0:0:
448,192,102128,1,2,2:0:0:0:
64,192,102128,1,4,3:0:0:0:
192,192,102128,1,12,3:0:0:0:
109,192,102128,1,0,0:0:0:0:
320,192,102217,1,2,2:0:0:0:
256,192,102262,1,0,0:0:0:0:
192,192,102306,1,2,2:0:0:0:
109,192,102351,1,0,0:0:0:0:
64,192,102396,1,2,2:0:0:0:
448,192,102485,1,4,3:0:0:0:
320,192,102485,1,2,2:0:0:0:
402,192,102485,1,0,0:0:0:0:
256,192,102530,1,0,0:0:0:0:
192,192,102574,1,2,2:0:0:0:
109,192,102619,1,0,0:0:0:0:
64,192,102664,1,2,2:0:0:0:
448,192,102753,1,2,2:0:0:0:
256,192,102753,1,0,0:0:0:0:
192,192,102842,1,2,2:0:0:0:
320,192,102842,1,4,3:0:0:0:
64,192,102931,1,2,2:0:0:0:
402,192,102931,1,0,0:0:0:0:
192,192,103021,1,2,2:0:0:0:
320,192,103110,1,2,2:0:0:0:
109,192,103110,1,0,0:0:0:0:
64,192,103199,1,2,2:0:0:0:
448,192,103199,1,2,2:0:0:0:
256,192,103199,1,0,0:0:0:0:
192,192,103289,1,2,2:0:0:0:
320,192,103378,1,2,2:0:0:0:
109,192,103378,1,0,0:0:0:0:
192,192,103467,1,2,2:0:0:0:
320,192,103556,1,4,3:0:0:0:
64,192,103556,1,2,2:0:0:0:
448,192,103556,1,12,3:0:0:0:
256,192,103556,1,0,0:0:0:0:
192,192,103646,1,2,2:0:0:0:
320,192,103735,1,2,2:0:0:0:
448,192,103735,1,4,3:0:0:0:
402,192,103735,1,0,0:0:0:0:
320,192,103824,1,4,3:0:0:0:
448,192,103824,1,2,2:0:0:0:
402,192,103824,1,0,0:0:0:0:
448,192,103914,5,4,1:0:0:0:
64,192,103914,1,4,2:0:0:0:
320,192,103914,128,4,104271:3:0:0:0:
192,192,103914,1,6,2:0:0:0:
109,192,103914,1,0,0:0:0:0:
448,192,104003,1,2,2:0:0:0:
64,192,104092,1,2,2:0:0:0:
192,192,104092,1,4,3:0:0:0:
109,192,104092,1,0,0:0:0:0:
64,192,104181,1,4,3:0:0:0:
192,192,104181,1,2,2:0:0:0:
109,192,104181,1,0,0:0:0:0:
64,192,104271,1,2,2:0:0:0:
192,192,104271,1,4,3:0:0:0:
109,192,104271,1,0,0:0:0:0:
448,192,104360,1,2,2:0:0:0:
64,192,104449,1,0,1:0:0:0:
320,192,104449,1,6,2:0:0:0:
192,192,104449,128,4,104806:3:0:0:0:
256,192,104449,1,0,0:0:0:0:
64,192,104539,1,2,2:0:0:0:
448,192,104628,1,4,3:0:0:0:
320,192,104628,1,2,2:0:0:0:
402,192,104628,1,0,0:0:0:0:
448,192,104717,1,4,3:0:0:0:
320,192,104717,1,4,3:0:0:0:
402,192,104717,1,0,0:0:0:0:
448,192,104806,1,4,3:0:0:0:
320,192,104806,1,4,3:0:0:0:
402,192,104806,1,0,0:0:0:0:
64,192,104985,1,4,2:0:0:0:
256,192,104985,128,4,105342:3:0:0:0:
448,192,104985,1,4,1:0:0:0:
192,192,104985,1,4,1:0:0:0:
402,192,104985,1,0,0:0:0:0:
329,192,104985,1,0,0:0:0:0:
448,192,105074,1,2,2:0:0:0:
64,192,105164,1,2,2:0:0:0:
192,192,105164,1,4,3:0:0:0:
109,192,105164,1,0,0:0:0:0:
192,192,105253,1,2,2:0:0:0:
64,192,105253,1,4,3:0:0:0:
109,192,105253,1,0,0:0:0:0:
64,192,105342,1,2,2:0:0:0:
192,192,105342,1,4,3:0:0:0:
109,192,105342,1,0,0:0:0:0:
320,192,105431,1,2,2:0:0:0:
448,192,105521,128,4,105878:3:0:0:0:
64,192,105521,1,6,2:0:0:0:
192,192,105521,1,0,1:0:0:0:
109,192,105521,1,0,0:0:0:0:
320,192,105610,1,2,2:0:0:0:
64,192,105699,1,4,3:0:0:0:
192,192,105699,1,2,2:0:0:0:
109,192,105699,1,0,0:0:0:0:
64,192,105789,1,4,3:0:0:0:
192,192,105789,1,4,3:0:0:0:
109,192,105789,1,0,0:0:0:0:
64,192,105878,1,4,3:0:0:0:
192,192,105878,1,4,3:0:0:0:
109,192,105878,1,0,0:0:0:0:
64,192,105967,1,4,3:0:0:0:
192,192,105967,1,4,3:0:0:0:
109,192,105967,1,0,0:0:0:0:
64,192,106056,1,4,1:0:0:0:
320,192,106056,1,4,2:0:0:0:
448,192,106056,1,6,2:0:0:0:
109,192,106056,1,0,0:0:0:0:
182,192,106056,1,2,2:0:0:0:
256,192,106056,128,4,106414:3:0:0:0:
448,192,106235,1,4,3:0:0:0:
320,192,106235,1,2,2:0:0:0:
402,192,106235,1,0,0:0:0:0:
448,192,106324,1,2,2:0:0:0:
320,192,106324,1,4,3:0:0:0:
402,192,106324,1,0,0:0:0:0:
448,192,106414,1,4,3:0:0:0:
320,192,106414,1,2,2:0:0:0:
402,192,106414,1,0,0:0:0:0:
64,192,106503,1,2,2:0:0:0:
320,192,106592,128,4,106949:3:0:0:0:
192,192,106592,1,6,2:0:0:0:
448,192,106592,1,4,1:0:0:0:
64,192,106592,1,4,2:0:0:0:
109,192,106592,1,0,0:0:0:0:
448,192,106681,1,2,2:0:0:0:
192,192,106771,1,2,2:0:0:0:
64,192,106771,1,4,3:0:0:0:
109,192,106771,1,0,0:0:0:0:
192,192,106860,1,4,3:0:0:0:
64,192,106860,1,2,2:0:0:0:
109,192,106860,1,0,0:0:0:0:
192,192,106949,1,2,2:0:0:0:
64,192,106949,1,4,3:0:0:0:
109,192,106949,1,0,0:0:0:0:
320,192,107039,1,2,2:0:0:0:
320,192,107128,1,4,1:0:0:0:
192,192,107128,128,4,107664:3:0:0:0:
64,192,107128,1,6,2:0:0:0:
448,192,107128,1,4,2:0:0:0:
402,192,107128,1,0,0:0:0:0:
448,192,107217,1,2,2:0:0:0:
402,192,107262,1,0,0:0:0:0:
320,192,107306,1,2,2:0:0:0:
448,192,107396,1,2,2:0:0:0:
402,192,107440,1,0,0:0:0:0:
320,192,107485,1,2,2:0:0:0:
448,192,107574,1,2,2:0:0:0:
402,192,107619,1,0,0:0:0:0:
320,192,107664,1,2,2:0:0:0:
448,192,107753,1,2,2:0:0:0:
402,192,107798,1,0,0:0:0:0:
320,192,107842,1,2,2:0:0:0:
448,192,107887,1,2,2:0:0:0:
402,192,107931,1,0,0:0:0:0:
320,192,107961,1,2,2:0:0:0:
448,192,107976,1,2,2:0:0:0:
402,192,108021,1,0,0:0:0:0:
320,192,108065,1,2,2:0:0:0:
64,192,108199,5,4,3:0:0:0:
192,192,108199,1,4,3:0:0:0:
320,192,108199,128,0,108289:1:0:0:0:
448,192,108199,128,6,108289:2:0:0:0:
109,192,108199,1,0,0:0:0:0:
402,192,108199,128,0,108289:0:0:0:0:
192,192,108289,1,4,3:0:0:0:
64,192,108289,1,4,3:0:0:0:
109,192,108289,1,0,0:0:0:0:
320,192,108378,1,4,3:0:0:0:
448,192,108378,1,4,3:0:0:0:
192,192,108378,128,0,108467:1:0:0:0:
64,192,108378,128,6,108467:2:0:0:0:
402,192,108378,1,0,0:0:0:0:
109,192,108378,128,0,108467:0:0:0:0:
320,192,108467,1,4,3:0:0:0:
448,192,108467,1,4,3:0:0:0:
402,192,108467,1,0,0:0:0:0:
64,192,108556,1,4,3:0:0:0:
192,192,108556,1,4,3:0:0:0:
256,192,108556,1,0,0:0:0:0:
329,192,108556,1,0,0:0:0:0:
475,192,108556,1,0,0:0:0:0:
320,192,108735,1,4,3:0:0:0:
448,192,108735,1,4,3:0:0:0:
64,192,108735,128,6,108824:2:0:0:0:
192,192,108735,128,0,108824:1:0:0:0:
402,192,108735,1,0,0:0:0:0:
109,192,108735,128,0,108824:0:0:0:0:
320,192,108824,1,4,3:0:0:0:
448,192,108824,1,4,3:0:0:0:
402,192,108824,1,0,0:0:0:0:
192,192,108914,1,4,3:0:0:0:
64,192,108914,1,4,3:0:0:0:
320,192,108914,128,0,109003:1:0:0:0:
448,192,108914,128,6,109003:2:0:0:0:
109,192,108914,1,0,0:0:0:0:
402,192,108914,128,0,109003:0:0:0:0:
64,192,109003,1,4,3:0:0:0:
192,192,109003,1,4,3:0:0:0:
109,192,109003,1,0,0:0:0:0:
448,192,109092,1,4,3:0:0:0:
320,192,109092,1,4,3:0:0:0:
36,192,109092,1,0,0:0:0:0:
256,192,109092,1,0,0:0:0:0:
182,192,109092,1,0,0:0:0:0:
320,192,109271,1,6,2:0:0:0:
448,192,109271,1,0,1:0:0:0:
64,192,109271,1,4,3:0:0:0:
192,192,109271,1,4,3:0:0:0:
402,192,109271,1,0,0:0:0:0:
109,192,109271,1,0,0:0:0:0:
192,192,109360,1,2,2:0:0:0:
64,192,109360,1,4,3:0:0:0:
109,192,109360,1,0,0:0:0:0:
320,192,109449,1,6,2:0:0:0:
448,192,109449,1,0,1:0:0:0:
64,192,109449,1,4,3:0:0:0:
192,192,109449,1,4,3:0:0:0:
109,192,109449,1,0,0:0:0:0:
402,192,109449,1,0,0:0:0:0:
320,192,109539,1,2,2:0:0:0:
448,192,109539,1,4,3:0:0:0:
402,192,109539,1,0,0:0:0:0:
192,192,109628,1,2,2:0:0:0:
64,192,109628,1,4,3:0:0:0:
109,192,109628,1,0,0:0:0:0:
320,192,109717,1,2,2:0:0:0:
448,192,109717,1,4,3:0:0:0:
402,192,109717,1,0,0:0:0:0:
192,192,109806,1,4,3:0:0:0:
64,192,109806,1,4,3:0:0:0:
320,192,109806,1,6,2:0:0:0:
448,192,109806,1,0,1:0:0:0:
109,192,109806,1,0,0:0:0:0:
402,192,109806,1,0,0:0:0:0:
192,192,109896,1,2,2:0:0:0:
64,192,109896,1,4,3:0:0:0:
109,192,109896,1,0,0:0:0:0:
320,192,109985,1,2,2:0:0:0:
448,192,109985,1,4,3:0:0:0:
402,192,109985,1,0,0:0:0:0:
192,192,110074,1,2,2:0:0:0:
64,192,110074,1,4,3:0:0:0:
109,192,110074,1,0,0:0:0:0:
448,192,110164,1,0,1:0:0:0:
320,192,110164,1,6,2:0:0:0:
192,192,110164,1,4,3:0:0:0:
64,192,110164,1,4,3:0:0:0:
109,192,110164,1,0,0:0:0:0:
402,192,110164,1,0,0:0:0:0:
320,192,110253,1,2,2:0:0:0:
448,192,110253,1,4,3:0:0:0:
402,192,110253,1,0,0:0:0:0:
64,192,110342,1,4,3:0:0:0:
192,192,110342,1,4,3:0:0:0:
320,192,110342,128,6,110431:2:0:0:0:
448,192,110342,128,0,110431:1:0:0:0:
109,192,110342,1,0,0:0:0:0:
402,192,110342,128,0,110431:0:0:0:0:
192,192,110431,1,4,3:0:0:0:
64,192,110431,1,4,3:0:0:0:
109,192,110431,1,0,0:0:0:0:
320,192,110521,1,4,3:0:0:0:
448,192,110521,1,4,3:0:0:0:
192,192,110521,128,0,110610:1:0:0:0:
64,192,110521,128,6,110610:2:0:0:0:
402,192,110521,1,0,0:0:0:0:
109,192,110521,128,0,110610:0:0:0:0:
320,192,110610,1,4,3:0:0:0:
448,192,110610,1,4,3:0:0:0:
402,192,110610,1,0,0:0:0:0:
192,192,110699,1,4,3:0:0:0:
64,192,110699,1,4,3:0:0:0:
109,192,110699,1,0,0:0:0:0:
320,192,110878,1,4,3:0:0:0:
448,192,110878,1,4,3:0:0:0:
64,192,110878,128,6,110967:2:0:0:0:
192,192,110878,128,0,110967:1:0:0:0:
402,192,110878,1,0,0:0:0:0:
109,192,110878,128,0,110967:0:0:0:0:
448,192,110967,1,4,3:0:0:0:
320,192,110967,1,4,3:0:0:0:
402,192,110967,1,0,0:0:0:0:
64,192,111056,1,4,3:0:0:0:
192,192,111056,1,4,3:0:0:0:
320,192,111056,128,0,111146:1:0:0:0:
448,192,111056,128,6,111146:2:0:0:0:
109,192,111056,1,0,0:0:0:0:
402,192,111056,128,0,111146:0:0:0:0:
64,192,111146,1,4,3:0:0:0:
192,192,111146,1,4,3:0:0:0:
109,192,111146,1,0,0:0:0:0:
448,192,111235,1,4,3:0:0:0:
320,192,111235,1,4,3:0:0:0:
402,192,111235,1,0,0:0:0:0:
64,192,111414,1,4,3:0:0:0:
320,192,111414,1,6,2:0:0:0:
192,192,111414,1,4,3:0:0:0:
448,192,111414,1,0,1:0:0:0:
109,192,111414,1,0,0:0:0:0:
402,192,111414,1,0,0:0:0:0:
192,192,111503,1,2,2:0:0:0:
64,192,111503,1,4,3:0:0:0:
109,192,111503,1,0,0:0:0:0:
64,192,111592,1,4,3:0:0:0:
320,192,111592,1,6,2:0:0:0:
192,192,111592,1,4,3:0:0:0:
448,192,111592,1,0,1:0:0:0:
109,192,111592,1,0,0:0:0:0:
402,192,111592,1,0,0:0:0:0:
320,192,111681,1,2,2:0:0:0:
448,192,111681,1,4,3:0:0:0:
402,192,111681,1,0,0:0:0:0:
64,192,111771,1,4,3:0:0:0:
192,192,111771,1,2,2:0:0:0:
109,192,111771,1,0,0:0:0:0:
448,192,111860,1,4,3:0:0:0:
320,192,111860,1,2,2:0:0:0:
402,192,111860,1,0,0:0:0:0:
64,192,111949,1,4,3:0:0:0:
320,192,111949,1,6,2:0:0:0:
192,192,111949,1,4,3:0:0:0:
448,192,111949,1,0,1:0:0:0:
109,192,111949,1,0,0:0:0:0:
402,192,111949,1,0,0:0:0:0:
64,192,112039,1,4,3:0:0:0:
192,192,112039,1,2,2:0:0:0:
109,192,112039,1,0,0:0:0:0:
448,192,112128,1,4,3:0:0:0:
320,192,112128,1,2,2:0:0:0:
402,192,112128,1,0,0:0:0:0:
64,192,112217,1,4,3:0:0:0:
192,192,112217,1,2,2:0:0:0:
109,192,112217,1,0,0:0:0:0:
64,192,112306,1,4,3:0:0:0:
448,192,112306,1,0,1:0:0:0:
320,192,112306,1,6,2:0:0:0:
192,192,112306,1,4,3:0:0:0:
109,192,112306,1,0,0:0:0:0:
402,192,112306,1,0,0:0:0:0:
320,192,112396,1,2,2:0:0:0:
448,192,112396,1,4,3:0:0:0:
402,192,112396,1,0,0:0:0:0:
64,192,112485,1,4,3:0:0:0:
192,192,112485,1,4,3:0:0:0:
320,192,112485,128,6,112574:2:0:0:0:
448,192,112485,128,0,112574:1:0:0:0:
109,192,112485,1,0,0:0:0:0:
402,192,112485,128,0,112574:0:0:0:0:
64,192,112574,1,4,3:0:0:0:
192,192,112574,1,4,3:0:0:0:
109,192,112574,1,0,0:0:0:0:
448,192,112664,1,4,3:0:0:0:
320,192,112664,1,4,3:0:0:0:
192,192,112664,128,6,112753:2:0:0:0:
64,192,112664,128,0,112753:1:0:0:0:
402,192,112664,1,0,0:0:0:0:
109,192,112664,128,0,112753:0:0:0:0:
320,192,112753,1,4,3:0:0:0:
448,192,112753,1,4,3:0:0:0:
402,192,112753,1,0,0:0:0:0:
256,192,112842,1,4,3:0:0:0:
192,192,112842,1,4,3:0:0:0:
329,192,112842,1,0,0:0:0:0:
448,192,113021,1,4,3:0:0:0:
320,192,113021,1,4,3:0:0:0:
64,192,113021,128,6,113110:2:0:0:0:
192,192,113021,128,0,113110:1:0:0:0:
402,192,113021,1,0,0:0:0:0:
109,192,113021,128,0,113110:0:0:0:0:
320,192,113110,1,4,3:0:0:0:
448,192,113110,1,4,3:0:0:0:
402,192,113110,1,0,0:0:0:0:
64,192,113199,1,4,3:0:0:0:
192,192,113199,1,4,3:0:0:0:
320,192,113199,128,6,113289:2:0:0:0:
448,192,113199,128,0,113289:1:0:0:0:
109,192,113199,1,0,0:0:0:0:
402,192,113199,128,0,113289:0:0:0:0:
64,192,113289,1,4,3:0:0:0:
192,192,113289,1,4,3:0:0:0:
109,192,113289,1,0,0:0:0:0:
320,192,113378,1,4,3:0:0:0:
256,192,113378,1,0,0:0:0:0:
182,192,113378,1,4,3:0:0:0:
64,192,113556,1,4,3:0:0:0:
448,192,113556,1,0,1:0:0:0:
192,192,113556,1,4,3:0:0:0:
320,192,113556,1,6,2:0:0:0:
109,192,113556,1,0,0:0:0:0:
402,192,113556,1,0,0:0:0:0:
192,192,113646,1,2,2:0:0:0:
64,192,113646,1,4,3:0:0:0:
109,192,113646,1,0,0:0:0:0:
64,192,113735,1,4,3:0:0:0:
192,192,113735,1,4,3:0:0:0:
448,192,113735,1,0,1:0:0:0:
320,192,113735,1,6,2:0:0:0:
109,192,113735,1,0,0:0:0:0:
402,192,113735,1,0,0:0:0:0:
448,192,113824,1,4,3:0:0:0:
320,192,113824,1,2,2:0:0:0:
402,192,113824,1,0,0:0:0:0:
192,192,113914,1,2,2:0:0:0:
64,192,113914,1,4,3:0:0:0:
109,192,113914,1,0,0:0:0:0:
448,192,114003,1,4,3:0:0:0:
320,192,114003,1,2,2:0:0:0:
402,192,114003,1,0,0:0:0:0:
64,192,114092,1,4,3:0:0:0:
448,192,114092,1,0,1:0:0:0:
192,192,114092,1,4,3:0:0:0:
320,192,114092,1,6,2:0:0:0:
402,192,114092,1,0,0:0:0:0:
109,192,114092,1,0,0:0:0:0:
192,192,114181,1,2,2:0:0:0:
64,192,114181,1,4,3:0:0:0:
109,192,114181,1,0,0:0:0:0:
320,192,114271,1,2,2:0:0:0:
448,192,114271,1,4,3:0:0:0:
402,192,114271,1,0,0:0:0:0:
64,192,114360,1,4,3:0:0:0:
192,192,114360,1,2,2:0:0:0:
109,192,114360,1,0,0:0:0:0:
192,192,114449,1,4,3:0:0:0:
448,192,114449,1,0,1:0:0:0:
64,192,114449,1,4,3:0:0:0:
320,192,114449,1,6,2:0:0:0:
109,192,114449,1,0,0:0:0:0:
402,192,114449,1,0,0:0:0:0:
320,192,114539,1,2,2:0:0:0:
448,192,114539,1,4,3:0:0:0:
402,192,114539,1,0,0:0:0:0:
64,192,114628,1,4,3:0:0:0:
192,192,114628,1,4,3:0:0:0:
320,192,114628,1,6,2:0:0:0:
448,192,114628,1,0,1:0:0:0:
402,192,114628,1,0,0:0:0:0:
109,192,114628,1,0,0:0:0:0:
192,192,114717,1,2,2:0:0:0:
64,192,114717,1,4,3:0:0:0:
109,192,114717,1,0,0:0:0:0:
64,192,114806,1,4,3:0:0:0:
192,192,114806,1,4,3:0:0:0:
320,192,114806,1,6,2:0:0:0:
448,192,114806,1,0,1:0:0:0:
109,192,114806,1,0,0:0:0:0:
402,192,114806,1,0,0:0:0:0:
320,192,114896,1,2,2:0:0:0:
448,192,114896,1,4,3:0:0:0:
402,192,114896,1,0,0:0:0:0:
192,192,114985,1,2,2:0:0:0:
64,192,114985,1,4,3:0:0:0:
109,192,114985,1,0,0:0:0:0:
256,192,115074,1,2,2:0:0:0:
64,192,115164,1,4,3:0:0:0:
192,192,115164,1,4,3:0:0:0:
320,192,115164,1,6,2:0:0:0:
448,192,115164,1,0,1:0:0:0:
109,192,115164,1,0,0:0:0:0:
402,192,115164,1,0,0:0:0:0:
320,192,115253,1,2,2:0:0:0:
448,192,115253,1,4,3:0:0:0:
402,192,115253,1,0,0:0:0:0:
192,192,115342,1,4,3:0:0:0:
64,192,115342,1,4,3:0:0:0:
320,192,115342,1,6,2:0:0:0:
448,192,115342,1,0,1:0:0:0:
109,192,115342,1,0,0:0:0:0:
402,192,115342,1,0,0:0:0:0:
192,192,115431,1,2,2:0:0:0:
64,192,115431,1,4,3:0:0:0:
109,192,115431,1,0,0:0:0:0:
320,192,115521,1,2,2:0:0:0:
448,192,115521,1,4,3:0:0:0:
402,192,115521,1,0,0:0:0:0:
256,192,115610,1,2,2:0:0:0:
64,192,115699,1,4,3:0:0:0:
192,192,115699,1,4,3:0:0:0:
320,192,115699,1,6,2:0:0:0:
448,192,115699,1,0,1:0:0:0:
109,192,115699,1,0,0:0:0:0:
402,192,115699,1,0,0:0:0:0:
64,192,115789,1,4,3:0:0:0:
192,192,115789,1,2,2:0:0:0:
109,192,115789,1,0,0:0:0:0:
192,192,115878,1,4,3:0:0:0:
64,192,115878,1,4,3:0:0:0:
320,192,115878,1,6,2:0:0:0:
448,192,115878,1,0,1:0:0:0:
109,192,115878,1,0,0:0:0:0:
402,192,115878,1,0,0:0:0:0:
320,192,115967,1,2,2:0:0:0:
448,192,115967,1,4,3:0:0:0:
402,192,115967,1,0,0:0:0:0:
64,192,116056,1,4,3:0:0:0:
192,192,116056,1,2,2:0:0:0:
109,192,116056,1,0,0:0:0:0:
448,192,116146,1,4,3:0:0:0:
320,192,116146,1,2,2:0:0:0:
402,192,116146,1,0,0:0:0:0:
192,192,116235,1,4,3:0:0:0:
64,192,116235,1,4,3:0:0:0:
320,192,116235,1,6,2:0:0:0:
448,192,116235,1,0,1:0:0:0:
402,192,116235,1,0,0:0:0:0:
109,192,116235,1,0,0:0:0:0:
64,192,116324,1,4,3:0:0:0:
192,192,116324,1,2,2:0:0:0:
109,192,116324,1,0,0:0:0:0:
320,192,116414,1,2,2:0:0:0:
448,192,116414,1,4,3:0:0:0:
402,192,116414,1,0,0:0:0:0:
64,192,116503,1,4,3:0:0:0:
192,192,116503,1,2,2:0:0:0:
109,192,116503,1,0,0:0:0:0:
192,192,116592,1,4,3:0:0:0:
64,192,116592,1,4,3:0:0:0:
320,192,116592,1,6,2:0:0:0:
448,192,116592,1,0,1:0:0:0:
109,192,116592,1,0,0:0:0:0:
402,192,116592,1,0,0:0:0:0:
320,192,116681,1,2,2:0:0:0:
448,192,116681,1,4,3:0:0:0:
402,192,116681,1,0,0:0:0:0:
192,192,116771,1,4,3:0:0:0:
448,192,116771,1,0,1:0:0:0:
64,192,116771,1,4,3:0:0:0:
320,192,116771,1,6,2:0:0:0:
402,192,116771,1,0,0:0:0:0:
109,192,116771,1,0,0:0:0:0:
64,192,116860,1,4,3:0:0:0:
192,192,116860,1,2,3:2:0:0:
109,192,116860,1,0,0:0:0:0:
192,192,116949,1,4,3:0:0:0:
448,192,116949,1,0,1:0:0:0:
64,192,116949,1,4,3:0:0:0:
320,192,116949,1,6,2:2:0:0:
109,192,116949,1,0,0:0:0:0:
402,192,116949,1,0,0:0:0:0:
448,192,117039,1,4,3:0:0:0:
320,192,117039,1,2,3:2:0:0:
402,192,117039,1,0,0:0:0:0:
64,192,117128,1,4,3:0:0:0:
192,192,117128,1,2,3:2:0:0:
109,192,117128,1,0,0:0:0:0:
256,192,117217,1,2,3:2:0:0:
192,192,117306,1,4,3:0:0:0:
448,192,117306,1,0,1:0:0:0:
320,192,117306,1,6,2:2:0:0:
64,192,117306,1,4,3:0:0:0:
109,192,117306,1,0,0:0:0:0:
402,192,117306,1,0,0:0:0:0:
320,192,117396,1,2,3:2:0:0:
448,192,117396,1,4,3:0:0:0:
402,192,117396,1,0,0:0:0:0:
192,192,117485,1,4,3:0:0:0:
448,192,117485,1,0,1:0:0:0:
64,192,117485,1,4,3:0:0:0:
320,192,117485,1,6,2:2:0:0:
402,192,117485,1,0,0:0:0:0:
109,192,117485,1,0,0:0:0:0:
192,192,117574,1,2,3:2:0:0:
64,192,117574,1,4,3:0:0:0:
109,192,117574,1,0,0:0:0:0:
320,192,117664,1,2,3:2:0:0:
448,192,117664,1,4,3:0:0:0:
402,192,117664,1,0,0:0:0:0:
256,192,117753,1,2,3:2:0:0:
192,192,117842,1,4,3:0:0:0:
448,192,117842,1,0,1:0:0:0:
320,192,117842,1,6,2:2:0:0:
64,192,117842,1,4,3:0:0:0:
109,192,117842,1,0,0:0:0:0:
402,192,117842,1,0,0:0:0:0:
64,192,117931,1,4,3:0:0:0:
192,192,117931,1,2,2:0:0:0:
109,192,117931,1,0,0:0:0:0:
192,192,118021,1,4,3:0:0:0:
448,192,118021,1,0,1:0:0:0:
64,192,118021,1,4,3:0:0:0:
320,192,118021,1,6,2:0:0:0:
402,192,118021,1,0,0:0:0:0:
109,192,118021,1,0,0:0:0:0:
320,192,118110,1,2,2:0:0:0:
448,192,118110,1,4,3:0:0:0:
402,192,118110,1,0,0:0:0:0:
192,192,118199,1,2,2:0:0:0:
64,192,118199,1,4,3:0:0:0:
109,192,118199,1,0,0:0:0:0:
320,192,118289,1,2,2:0:0:0:
448,192,118289,1,4,3:0:0:0:
402,192,118289,1,0,0:0:0:0:
192,192,118378,1,4,3:0:0:0:
448,192,118378,1,0,1:0:0:0:
64,192,118378,1,4,3:0:0:0:
320,192,118378,1,6,2:0:0:0:
402,192,118378,1,0,0:0:0:0:
109,192,118378,1,0,0:0:0:0:
64,192,118467,1,4,3:0:0:0:
192,192,118467,1,2,2:0:0:0:
109,192,118467,1,0,0:0:0:0:
448,192,118556,1,4,3:0:0:0:
320,192,118556,1,2,2:0:0:0:
402,192,118556,1,0,0:0:0:0:
64,192,118646,1,4,3:0:0:0:
192,192,118646,1,2,2:0:0:0:
109,192,118646,1,0,0:0:0:0:
192,192,118735,1,4,3:0:0:0:
448,192,118735,1,0,1:0:0:0:
64,192,118735,1,4,3:0:0:0:
320,192,118735,1,6,2:0:0:0:
109,192,118735,1,0,0:0:0:0:
402,192,118735,1,0,0:0:0:0:
320,192,118824,1,2,2:0:0:0:
448,192,118824,1,4,3:0:0:0:
402,192,118824,1,0,0:0:0:0:
64,192,118914,1,4,3:0:0:0:
448,192,118914,1,0,1:0:0:0:
192,192,118914,1,4,3:0:0:0:
320,192,118914,1,6,2:0:0:0:
402,192,118914,1,0,0:0:0:0:
109,192,118914,1,0,0:0:0:0:
64,192,119003,1,4,3:0:0:0:
192,192,119003,1,2,2:0:0:0:
109,192,119003,1,0,0:0:0:0:
448,192,119092,1,0,1:0:0:0:
320,192,119092,1,6,2:0:0:0:
192,192,119092,1,4,3:0:0:0:
64,192,119092,1,4,3:0:0:0:
109,192,119092,1,0,0:0:0:0:
402,192,119092,1,0,0:0:0:0:
320,192,119181,1,2,2:0:0:0:
448,192,119181,1,4,3:0:0:0:
402,192,119181,1,0,0:0:0:0:
64,192,119271,1,4,3:0:0:0:
192,192,119271,1,2,2:0:0:0:
109,192,119271,1,0,0:0:0:0:
256,192,119360,1,2,2:0:0:0:
64,192,119449,1,4,3:0:0:0:
448,192,119449,1,0,1:0:0:0:
192,192,119449,1,4,3:0:0:0:
320,192,119449,1,6,2:0:0:0:
109,192,119449,1,0,0:0:0:0:
402,192,119449,1,0,0:0:0:0:
320,192,119539,1,2,2:0:0:0:
448,192,119539,1,4,3:0:0:0:
402,192,119539,1,0,0:0:0:0:
64,192,119628,1,4,3:0:0:0:
448,192,119628,1,0,1:0:0:0:
192,192,119628,1,4,3:0:0:0:
320,192,119628,1,6,2:0:0:0:
402,192,119628,1,0,0:0:0:0:
109,192,119628,1,0,0:0:0:0:
64,192,119717,1,4,3:0:0:0:
192,192,119717,1,2,2:0:0:0:
109,192,119717,1,0,0:0:0:0:
320,192,119806,1,2,2:0:0:0:
448,192,119806,1,4,3:0:0:0:
402,192,119806,1,0,0:0:0:0:
256,192,119896,1,2,2:0:0:0:
64,192,119985,1,4,3:0:0:0:
448,192,119985,1,0,1:0:0:0:
192,192,119985,1,4,3:0:0:0:
320,192,119985,1,6,2:0:0:0:
109,192,119985,1,0,0:0:0:0:
402,192,119985,1,0,0:0:0:0:
192,192,120074,1,2,2:0:0:0:
64,192,120074,1,4,3:0:0:0:
109,192,120074,1,0,0:0:0:0:
64,192,120164,1,4,3:0:0:0:
448,192,120164,1,0,1:0:0:0:
192,192,120164,1,4,3:0:0:0:
320,192,120164,1,6,2:0:0:0:
109,192,120164,1,0,0:0:0:0:
402,192,120164,1,0,0:0:0:0:
448,192,120253,1,4,3:0:0:0:
320,192,120253,1,2,2:0:0:0:
402,192,120253,1,0,0:0:0:0:
64,192,120342,1,4,3:0:0:0:
192,192,120342,1,2,2:0:0:0:
109,192,120342,1,0,0:0:0:0:
320,192,120431,1,2,2:0:0:0:
448,192,120431,1,4,3:0:0:0:
402,192,120431,1,0,0:0:0:0:
64,192,120521,1,4,3:0:0:0:
192,192,120521,1,4,3:0:0:0:
320,192,120521,1,6,2:0:0:0:
448,192,120521,1,0,1:0:0:0:
402,192,120521,1,0,0:0:0:0:
109,192,120521,1,0,0:0:0:0:
192,192,120610,1,2,2:0:0:0:
64,192,120610,1,4,3:0:0:0:
109,192,120610,1,0,0:0:0:0:
448,192,120699,1,4,3:0:0:0:
320,192,120699,1,2,2:0:0:0:
402,192,120699,1,0,0:0:0:0:
192,192,120789,1,4,3:0:0:0:
64,192,120789,1,4,3:0:0:0:
109,192,120789,1,0,0:0:0:0:
64,192,120878,1,4,3:0:0:0:
448,192,120878,1,0,1:0:0:0:
192,192,120878,1,4,3:0:0:0:
320,192,120878,1,4,2:0:0:0:
109,192,120878,1,0,0:0:0:0:
402,192,120878,1,0,0:0:0:0:
320,192,120967,1,4,3:0:0:0:
448,192,120967,1,4,3:0:0:0:
402,192,120967,1,0,0:0:0:0:
320,192,121056,1,4,2:0:0:0:
448,192,121056,1,0,1:0:0:0:
64,192,121056,1,4,3:0:0:0:
192,192,121056,1,4,3:0:0:0:
402,192,121056,1,0,0:0:0:0:
109,192,121056,1,0,0:0:0:0:
320,192,121235,1,4,3:0:0:0:
448,192,121235,1,4,2:0:0:0:
64,192,121235,1,0,1:0:0:0:
192,192,121235,1,4,3:0:0:0:
109,192,121235,1,0,0:0:0:0:
402,192,121235,1,0,0:0:0:0:
192,192,121414,1,4,3:0:0:0:
320,192,121414,1,4,3:0:0:0:
64,192,121414,1,4,3:0:0:0:
256,192,121414,1,0,0:0:0:0:
320,192,121592,1,4,3:0:0:0:
192,192,121592,1,4,3:0:0:0:
448,192,121592,1,4,2:0:0:0:
64,192,121592,1,0,1:0:0:0:
402,192,121592,1,0,0:0:0:0:
192,192,121771,1,4,3:0:0:0:
64,192,121771,1,0,1:0:0:0:
448,192,121771,1,4,2:0:0:0:
320,192,121771,1,4,3:0:0:0:
256,192,121771,1,0,0:0:0:0:
64,192,121949,1,4,3:0:0:0:
192,192,121949,1,4,3:0:0:0:
448,192,121949,1,4,3:0:0:0:
109,192,121949,1,0,0:0:0:0:
320,192,122128,1,4,3:0:0:0:
192,192,122128,1,4,3:0:0:0:
64,192,122128,1,0,1:0:0:0:
448,192,122128,1,4,2:0:0:0:
256,192,122128,1,0,0:0:0:0:
320,192,122306,1,4,3:0:0:0:
192,192,122306,1,4,3:0:0:0:
64,192,122306,1,0,1:0:0:0:
448,192,122306,1,4,2:0:0:0:
402,192,122306,1,0,0:0:0:0:
320,192,122485,1,4,3:0:0:0:
448,192,122485,1,4,3:0:0:0:
64,192,122485,1,4,3:0:0:0:
256,192,122485,1,0,0:0:0:0:
320,192,122664,1,4,3:0:0:0:
448,192,122664,1,4,2:0:0:0:
64,192,122664,1,0,1:0:0:0:
192,192,122664,1,4,3:0:0:0:
109,192,122664,1,0,0:0:0:0:
320,192,122842,1,4,3:0:0:0:
192,192,122842,1,4,3:0:0:0:
448,192,122842,1,4,3:0:0:0:
256,192,122842,1,0,0:0:0:0:
320,192,123021,1,4,3:0:0:0:
192,192,123021,1,4,3:0:0:0:
448,192,123021,1,4,2:0:0:0:
64,192,123021,1,0,1:0:0:0:
402,192,123021,1,0,0:0:0:0:
448,192,123199,1,4,2:0:0:0:
320,192,123199,1,4,3:0:0:0:
192,192,123199,1,4,3:0:0:0:
64,192,123199,1,0,1:0:0:0:
109,192,123199,1,0,0:0:0:0:
402,192,123199,1,0,0:0:0:0:
64,192,123289,1,4,3:0:0:0:
192,192,123289,1,4,3:0:0:0:
109,192,123289,1,0,0:0:0:0:
448,192,123378,1,4,2:0:0:0:
320,192,123378,1,4,3:0:0:0:
192,192,123378,1,4,3:0:0:0:
64,192,123378,1,0,1:0:0:0:
109,192,123378,1,0,0:0:0:0:
402,192,123378,1,0,0:0:0:0:
320,192,123467,1,4,3:0:0:0:
448,192,123467,1,4,3:0:0:0:
402,192,123467,1,0,0:0:0:0:
64,192,123556,1,4,3:0:0:0:
192,192,123556,1,4,3:0:0:0:
109,192,123556,1,0,0:0:0:0:
320,192,123646,1,4,3:0:0:0:
448,192,123646,1,4,3:0:0:0:
402,192,123646,1,0,0:0:0:0:
448,192,123735,1,4,2:0:0:0:
320,192,123735,1,4,3:0:0:0:
192,192,123735,1,4,3:0:0:0:
64,192,123735,1,0,1:0:0:0:
402,192,123735,1,0,0:0:0:0:
109,192,123735,1,0,0:0:0:0:
64,192,123824,1,4,3:0:0:0:
192,192,123824,1,4,3:0:0:0:
109,192,123824,1,0,0:0:0:0:
448,192,123914,1,4,2:0:0:0:
320,192,123914,1,4,3:0:0:0:
64,192,123914,1,0,1:0:0:0:
192,192,123914,1,4,3:0:0:0:
109,192,123914,1,0,0:0:0:0:
402,192,123914,1,0,0:0:0:0:
320,192,124003,1,4,3:0:0:0:
448,192,124003,1,4,3:0:0:0:
402,192,124003,1,0,0:0:0:0:
192,192,124092,1,4,3:0:0:0:
64,192,124092,1,4,3:0:0:0:
109,192,124092,1,0,0:0:0:0:
320,192,124181,1,4,3:0:0:0:
448,192,124181,1,4,3:0:0:0:
402,192,124181,1,0,0:0:0:0:
448,192,124271,1,4,2:0:0:0:
320,192,124271,1,4,3:0:0:0:
402,192,124271,1,0,0:0:0:0:
448,192,124405,1,4,2:0:0:0:
402,192,124449,1,0,0:0:0:0:
329,192,124494,1,0,0:0:0:0:
448,192,124539,1,4,3:0:0:0:
256,192,124539,1,0,0:0:0:0:
402,192,124583,1,4,3:0:0:0:
182,192,124583,1,4,3:0:0:0:
329,192,124628,1,4,3:0:0:0:
109,192,124628,1,4,3:0:0:0:
256,192,124673,1,4,3:0:0:0:
475,192,124673,1,0,0:0:0:0:
64,192,124673,1,4,3:0:0:0:
182,192,124717,1,4,3:0:0:0:
402,192,124717,1,4,3:0:0:0:
109,192,124762,1,4,3:0:0:0:
329,192,124762,1,4,3:0:0:0:
64,192,124806,1,4,3:0:0:0:
256,192,124806,1,4,3:0:0:0:
448,192,124806,1,4,2:0:0:0:
192,192,124851,1,4,3:0:0:0:
402,192,124851,1,0,0:0:0:0:
109,192,124896,1,4,3:0:0:0:
329,192,124896,1,0,0:0:0:0:
64,192,124940,1,4,3:0:0:0:
448,192,124940,1,4,3:0:0:0:
256,192,124940,1,0,0:0:0:0:
402,192,124985,1,4,3:0:0:0:
182,192,124985,1,0,0:0:0:0:
109,192,125030,1,4,3:0:0:0:
329,192,125030,1,0,0:0:0:0:
64,192,125074,1,4,3:0:0:0:
256,192,125074,1,0,0:0:0:0:
475,192,125074,1,0,0:0:0:0:
192,192,125119,1,4,3:0:0:0:
402,192,125119,1,0,0:0:0:0:
329,192,125164,1,4,2:0:0:0:
109,192,125164,1,0,0:0:0:0:
256,192,125208,1,4,3:0:0:0:
64,192,125208,1,4,3:0:0:0:
475,192,125208,1,0,0:0:0:0:
192,192,125253,1,4,3:0:0:0:
402,192,125253,1,0,0:0:0:0:
109,192,125298,1,0,0:0:0:0:
329,192,125298,1,4,3:0:0:0:
36,192,125342,1,0,0:0:0:0:
256,192,125342,1,0,0:0:0:0:
182,192,125387,1,0,0:0:0:0:
109,192,125431,1,4,3:0:0:0:
36,192,125476,1,0,0:0:0:0:
64,192,126414,128,4,131637:2:0:0:0:
192,192,126458,128,4,131815:2:0:0:0:
256,192,126503,128,0,132039:0:0:0:0:
320,192,126548,128,4,132262:2:0:0:0:
448,192,126592,128,4,132485:2:0:0:0:
