osu file format v13

[General]
AudioFilename: majesticphoneix.mp3
AudioLeadIn: 0
PreviewTime: 45670
Countdown: 0
SampleSet: Normal
StackLeniency: 0.7
Mode: 0
LetterboxInBreaks: 1
WidescreenStoryboard: 1

[Editor]
Bookmarks: 10003,18003,21337,26003,34003,37670,42003,49337,61003,62503,64003,66003,90003,98003,99003,100003,101003,102003,103003,104003,105003,106003,109170
DistanceSpacing: 0.8
BeatDivisor: 4
GridSize: 4
TimelineZoom: 2.2

[Metadata]
Title:Majestic Phoenix
TitleUnicode:百鳥朝凰
Artist:Ice
ArtistUnicode:Ice
Creator:[ - 5Ms - ]
Version:Bird
Source:Cytus OST
Tags:cytus ice
BeatmapID:452142
BeatmapSetID:189550

[Difficulty]
HPDrainRate:5
CircleSize:4
OverallDifficulty:6
ApproachRate:8.5
SliderMultiplier:1.79999990463257
SliderTickRate:2

[Events]
//Background and Video events
0,0,"Majestic Phoenix.jpg",0,0
//Break Periods
2,12203,17328
//Storyboard Layer 0 (Background)
//Storyboard Layer 1 (Fail)
//Storyboard Layer 2 (Pass)
//Storyboard Layer 3 (Foreground)
//Storyboard Sound Samples
//Background Colour Transformations
3,100,163,162,255

[TimingPoints]
2004,333.333333333333,4,2,0,40,1,0
3003,-133.333333333333,4,1,0,40,0,0
3170,-100,4,1,0,40,0,0
6003,-100,4,2,0,50,0,0
6253,-100,4,1,0,50,0,0
6503,-166.666666666667,4,1,0,40,0,0
7003,-100,4,1,0,50,0,0
7170,-100,4,1,0,50,0,0
7670,-83.3333333333333,4,1,0,50,0,0
8003,-71.4285714285714,4,1,0,50,0,0
10003,-100,4,1,0,40,0,0
10837,-100,4,1,0,50,0,1
11003,-71.4285714285714,4,1,0,50,0,0
11337,-100,4,1,0,60,0,0
11503,-133.333333333333,4,1,0,50,0,0
11837,-100,4,1,0,50,0,0
18003,-100,4,1,0,60,0,0
18837,-76.9230769230769,4,1,0,60,0,0
19003,-100,4,1,0,60,0,0
21337,-83.3333333333333,4,1,0,60,0,0
23087,-83.3333333333333,4,2,0,60,0,0
23337,-71.4285714285714,4,1,0,60,0,0
24837,-71.4285714285714,4,2,0,60,0,0
26003,-71.4285714285714,4,1,0,60,0,0
26003,-200,4,1,0,40,0,0
27503,-100,4,1,0,60,0,0
29337,-133.333333333333,4,1,0,60,0,0
34003,-200,4,1,0,60,0,0
37670,-133.333333333333,4,1,0,60,0,0
40003,-200,4,1,0,40,0,0
45670,-200,4,1,0,40,0,0
47670,-133.333333333333,4,1,0,40,0,0
66003,-133.333333333333,4,1,0,40,0,1
76253,-100,4,1,0,40,0,1
82837,-100,4,1,0,40,0,1
90170,-100,4,1,0,40,0,1
98003,-100,4,1,0,40,0,0
99003,-200,4,1,0,40,0,0
99170,-200,4,1,0,5,0,0
99337,-200,4,1,0,40,0,0
99503,-200,4,1,0,5,0,0
100003,-200,4,1,0,40,0,0
100170,-133.333333333333,4,1,0,5,0,0
100337,-133.333333333333,4,1,0,40,0,0
100503,-200,4,1,0,5,0,0
101003,-200,4,1,0,40,0,0
101170,-133.333333333333,4,1,0,5,0,0
101337,-133.333333333333,4,1,0,40,0,0
101503,-133.333333333333,4,1,0,5,0,0
107837,-200,4,1,0,40,0,0
108003,-200,4,1,0,50,0,0
108253,-133.333333333333,4,1,0,60,0,0
108587,-133.333333333333,4,1,0,70,0,0
109003,-133.333333333333,4,1,0,80,0,0

[Colours]
Combo1 : 255,255,255
Combo2 : 128,64,64
Combo3 : 255,128,64
Combo4 : 128,128,64

[HitObjects]
88,148,2003,6,0,L|184:148,1,89.9999952316285
178,148,2253,1,0,0:0:0:0:
178,148,2337,1,0,0:0:0:0:
136,48,2503,5,0,0:0:0:0:
272,44,2669,1,0,0:0:0:0:
368,140,2836,1,0,0:0:0:0:
368,140,3003,6,0,L|296:140,1,67.499998998642
178,148,3503,1,0,0:0:0:0:
184,308,3670,1,0,0:0:0:0:
248,280,3837,1,0,0:0:0:0:
192,236,4003,1,0,0:0:0:0:
212,76,6003,6,0,L|152:144,1,89.9999952316285
256,192,6337,1,0,0:0:0:0:
256,192,6503,2,0,L|256:248,2,53.999995491028,0|0|0,0:0|0:0|0:0,0:0:0:0:
352,244,7003,2,0,L|400:320,1,89.9999952316285
212,274,7337,1,0,0:0:0:0:
172,147,7503,1,0,0:0:0:0:
300,108,7670,1,0,0:0:0:0:
338,235,7837,1,0,0:0:0:0:
256,196,8003,1,0,0:0:0:0:
108,100,10003,6,0,L|200:100,2,89.9999952316285,0|0|0,0:0|0:0|0:0,0:0:0:0:
156,176,10503,1,0,0:0:0:0:
60,224,10670,2,0,L|136:280,1,89.9999952316285
416,104,11003,6,0,B|412:172|412:172|372:216,1,125.999989479065
373,214,11253,1,0,0:0:0:0:
373,214,11337,1,0,0:0:0:0:
256,192,11503,1,0,0:0:0:0:
120,300,11670,6,0,L|188:292,1,67.499998998642
340,300,12003,1,0,0:0:0:0:
192,120,18003,6,0,B|192:72|192:72|228:44,1,89.9999952316285
324,248,18337,2,0,B|324:292|324:292|288:320,1,89.9999952316285
192,120,18670,1,0,0:0:0:0:
324,248,18837,1,0,0:0:0:0:
336,120,19003,6,0,L|412:72,1,89.9999952316285
412,71,19253,1,0,0:0:0:0:
412,71,19337,1,0,0:0:0:0:
252,188,19503,5,0,0:0:0:0:
240,196,19587,1,0,0:0:0:0:
232,204,19670,1,0,0:0:0:0:
220,212,19753,1,0,0:0:0:0:
208,220,19837,1,0,0:0:0:0:
196,228,19920,1,0,0:0:0:0:
188,236,20003,1,0,0:0:0:0:
156,64,21337,6,0,L|76:140,1,107.999990982056
205,146,21670,1,0,0:0:0:0:
284,72,21837,1,0,0:0:0:0:
380,108,22003,6,0,B|408:152|448:120|464:172,1,107.999990982056
405,202,22337,2,0,B|400:254|451:253|432:304,1,107.999990982056
370,288,22670,2,0,B|336:327|378:356|332:386,1,107.999990982056
328,244,23003,2,0,L|212:244,1,107.999990982056
164,144,23337,2,0,L|292:144,1,125.999989479065
290,144,23587,1,0,0:0:0:0:
290,144,23670,1,0,0:0:0:0:
216,240,23837,2,0,L|216:368,1,125.999989479065
144,80,26003,5,0,0:0:0:0:
144,80,26087,1,0,0:0:0:0:
140,112,26170,1,0,0:0:0:0:
140,144,26253,1,0,0:0:0:0:
152,172,26337,1,0,0:0:0:0:
256,192,26503,1,0,0:0:0:0:
360,160,26670,1,0,0:0:0:0:
288,292,26837,1,0,0:0:0:0:
152,172,27003,5,0,0:0:0:0:
140,144,27087,1,0,0:0:0:0:
140,112,27170,1,0,0:0:0:0:
144,80,27253,1,0,0:0:0:0:
260,44,27337,1,0,0:0:0:0:
364,80,27503,2,0,B|400:96|400:96|416:144,1,89.9999952316285
304,164,27837,2,0,B|272:196|272:196|272:240,1,89.9999952316285
128,228,29337,6,0,L|100:164,1,67.499998998642
252,172,29670,2,0,L|224:240,1,67.499998998642
312,80,30003,6,0,L|380:80,1,67.499998998642
396,192,30337,2,0,L|336:224,1,67.499998998642
252,296,30670,2,0,L|280:360,1,67.499998998642
172,296,31003,2,0,L|204:360,1,67.499998998642,0|0,0:0|0:0,0:0:0:0:
172,296,31337,1,0,0:0:0:0:
172,196,31503,2,0,L|136:196,2,33.749999499321,0|0|0,0:0|0:0|0:0,0:0:0:0:
128,112,31837,1,0,0:0:0:0:
164,112,31920,1,0,0:0:0:0:
192,112,32003,1,0,0:0:0:0:
56,80,34003,5,0,0:0:0:0:
100,80,34337,1,0,0:0:0:0:
144,80,34670,1,0,0:0:0:0:
188,80,35003,1,0,0:0:0:0:
232,80,35337,1,0,0:0:0:0:
276,80,35670,1,0,0:0:0:0:
320,76,36003,1,0,0:0:0:0:
364,76,36337,1,0,0:0:0:0:
408,76,36670,1,0,0:0:0:0:
452,76,37003,1,0,0:0:0:0:
452,284,37670,5,0,0:0:0:0:
408,284,38003,1,0,0:0:0:0:
364,284,38336,1,0,0:0:0:0:
320,284,38670,1,0,0:0:0:0:
276,288,39003,1,0,0:0:0:0:
232,288,39336,1,0,0:0:0:0:
188,288,39670,1,0,0:0:0:0:
144,288,40003,1,0,0:0:0:0:
100,288,40336,1,0,0:0:0:0:
56,288,40670,1,0,0:0:0:0:
256,192,41003,5,0,0:0:0:0:
256,192,41337,1,0,0:0:0:0:
100,80,42003,5,0,0:0:0:0:
144,132,42337,1,0,0:0:0:0:
216,140,42670,5,0,0:0:0:0:
260,196,43004,1,0,0:0:0:0:
332,200,43337,5,0,0:0:0:0:
384,156,43671,1,0,0:0:0:0:
388,228,44003,5,0,0:0:0:0:
432,280,44337,1,0,0:0:0:0:
368,280,44670,5,0,0:0:0:0:
304,280,45004,1,0,0:0:0:0:
96,216,45670,6,0,P|104:128|136:148,1,179.999990463257
200,188,46670,1,0,0:0:0:0:
168,256,47003,6,0,P|177:330|239:288,1,179.999990463257
284,216,48003,1,0,0:0:0:0:
364,144,48337,2,0,P|412:100|468:128,2,134.999997997284,0|0|0,0:0|0:0|0:0,0:0:0:0:
