osu file format v14

[General]
AudioFilename: L Ascension Act2 by ICE.mp3
AudioLeadIn: 0
PreviewTime: 64162
Countdown: 0
SampleSet: Soft
StackLeniency: 0.9
Mode: 3
LetterboxInBreaks: 0
SpecialStyle: 0
WidescreenStoryboard: 1

[Editor]
Bookmarks: 1693,20032,39580,51774,64258,83999,91695,97598,103791,117001,117049,128130,142211,154791
DistanceSpacing: 0.8
BeatDivisor: 4
GridSize: 8
TimelineZoom: 1.3

[Metadata]
Title:L2 - Ascension : Act 2 (Liberation)
TitleUnicode:L青 - Liberation
Artist:Ice
ArtistUnicode:Ice
Creator:LordRaika
Version:Storyboard Hitsound
Source:Cytus
Tags:Iceloki Instrumental Piano Violin CoroQuetz Okoratu Fullerene- lZenxl CLSW Expew Kurokami DjNightmare
BeatmapID:509919
BeatmapSetID:123760

[Difficulty]
HPDrainRate:0
CircleSize:7
OverallDifficulty:0
ApproachRate:5
SliderMultiplier:2.99999990463257
SliderTickRate:4

[Events]
//Background and Video events
0,0,"L2.jpg",0,0
//Break Periods
2,1740,6162
2,9633,36951
2,39141,49583
2,51772,74846
2,77035,101688
2,103779,114320
2,116411,128234
//Storyboard Layer 0 (Background)
//Storyboard Layer 1 (Fail)
//Storyboard Layer 2 (Pass)
//Storyboard Layer 3 (Foreground)
Sprite,Foreground,Centre,"Resource\My Icon Easy.png",320,240 M,0,-38,,617,403 S,0,-38,,0.7678357 F,0,-38,179961,1 F,0,179961,187165,1,0
Sprite,Foreground,Centre,"Resource\lZenxl.png",320,240 F,0,179961,180355,0,1 M,0,180355,,567,258 S,0,180355,,0.7789087 F,0,180355,186671,1 F,0,186671,187165,1,0
Sprite,Foreground,Centre,"Resource\LordRaika.png",320,240 F,0,179961,180355,0,1 M,0,180355,,573,179 S,0,180355,,0.7789087 F,0,180355,186671,1 F,0,186671,187165,1,0
//Storyboard Sound Samples
Sample,1540,0,"C#5S_Db5S.wav",55
Sample,1540,0,"C#3S_Db3S.wav",50
Sample,1540,0,"C#4S_Db4S.wav",50
Sample,1934,0,"C5S.wav",55
Sample,2329,0,"C#5S_Db5S.wav",55
Sample,2724,0,"D#5S_Eb5S.wav",60
Sample,3118,0,"F5S.wav",60
Sample,3908,0,"G5S.wav",70
Sample,4303,0,"G#5S_Ab5S.wav",70
Sample,4697,0,"G5S.wav",70
Sample,4697,0,"D#3S_Eb3S.wav",50
Sample,4697,0,"D#4S_Eb4S.wav",50
Sample,5487,0,"C5S.wav",60
Sample,6276,0,"E4S.wav",33
Sample,6276,0,"C6S.wav",75
Sample,6276,0,"E3S.wav",50
Sample,6671,0,"A#5S_Bb5S.wav",70
Sample,7066,0,"G#5S_Ab5S.wav",70
Sample,7461,0,"G5S.wav",70
Sample,7855,0,"F3S.wav",50
Sample,7855,0,"G#5S_Ab5S.wav",70
Sample,7855,0,"F4S.wav",50
Sample,8645,0,"G4S.wav",40
Sample,8645,0,"G3S.wav",50
Sample,8908,0,"G5S.wav",70
Sample,9171,0,"F5S.wav",70
Sample,9434,0,"C5S.wav",75
Sample,9434,0,"G#3S_Ab3S.wav",50
Sample,9434,0,"G#4S_Ab4S.wav",40
Sample,11013,0,"A4S_s.wav",66
Sample,11211,0,"F4S_s.wav",66
Sample,11408,0,"C4S_s.wav",66
Sample,11605,0,"A3S_s.wav",66
Sample,11803,0,"F4S_s.wav",66
Sample,12000,0,"C4S_s.wav",66
Sample,12197,0,"A3S_s.wav",66
Sample,12395,0,"F3S_s.wav",66
Sample,12592,0,"F2S.wav",55
Sample,13382,0,"C5S.wav",70
Sample,13382,0,"C4S.wav",40
Sample,13382,0,"F3S.wav",40
Sample,13382,0,"D#4S_Eb4S.wav",40
Sample,13645,0,"C#5S_Db5S.wav",50
Sample,13908,0,"D#5S_Eb5S.wav",50
Sample,14171,0,"C#5S_Db5S.wav",75
Sample,14171,0,"A#3S_Bb3S.wav",50
Sample,14171,0,"C#4S_Db4S.wav",50
Sample,14566,0,"C6S.wav",75
Sample,14961,0,"A#5S_Bb5S.wav",70
Sample,15355,0,"G#5S_Ab5S.wav",70
Sample,15750,0,"G#5S_Ab5S.wav",77
Sample,15750,0,"C4S.wav",50
Sample,15750,0,"E4S.wav",40
Sample,16145,0,"G5S.wav",70
Sample,16803,0,"G5S.wav",70
Sample,17066,0,"G#5S_Ab5S.wav",70
Sample,17329,0,"C4S.wav",50
Sample,17329,0,"A#5S_Bb5S.wav",77
Sample,17329,0,"F3S.wav",50
Sample,17724,0,"C#6S_Db6S.wav",70
Sample,18118,0,"C6S.wav",70
Sample,18513,0,"G5S.wav",70
Sample,18908,0,"C4S.wav",50
Sample,18908,0,"F3S.wav",50
Sample,18908,0,"A#5S_Bb5S.wav",77
Sample,19303,0,"G#5S_Ab5S.wav",70
Sample,19895,0,"C5S.wav",50
Sample,19895,0,"C6S.wav",50
Sample,20092,0,"F6S.wav",50
Sample,20092,0,"F5S.wav",50
Sample,20289,0,"G6S.wav",50
Sample,20289,0,"G5S.wav",50
Sample,20487,0,"G#5S_Ab5S.wav",50
Sample,20487,0,"C#4S_Db4S.wav",40
Sample,20487,0,"G#6S_Ab6S.wav",50
Sample,20487,0,"G#4S_Ab4S.wav",40
Sample,20487,0,"F4S.wav",40
Sample,20882,0,"G6S.wav",50
Sample,20882,0,"G5S.wav",50
Sample,21079,0,"F6S.wav",50
Sample,21079,0,"F5S.wav",50
Sample,21276,0,"C6S.wav",50
Sample,21276,0,"C5S.wav",50
Sample,21671,0,"F6S.wav",50
Sample,21671,0,"F5S.wav",50
Sample,22066,0,"C#4S_Db4S.wav",40
Sample,22066,0,"G6S.wav",50
Sample,22066,0,"G5S.wav",50
Sample,22066,0,"A#3S_Bb3S.wav",40
Sample,22066,0,"F3S.wav",40
Sample,22461,0,"G#5S_Ab5S.wav",50
Sample,22461,0,"G#6S_Ab6S.wav",50
Sample,22855,0,"A#6S_Bb6S.wav",50
Sample,22855,0,"A#5S_Bb5S.wav",50
Sample,23250,0,"C#7S_Db7S.wav",50
Sample,23250,0,"C#6S_Db6S.wav",50
Sample,23645,0,"C4S.wav",33
Sample,23645,0,"C7S.wav",50
Sample,23645,0,"E4S.wav",33
Sample,23645,0,"G4S.wav",33
Sample,23645,0,"A#4S_Bb4S.wav",33
Sample,23645,0,"C6S.wav",50
Sample,25224,0,"C8S.wav",100
Sample,25289,0,"C#8S_Db8S.wav",100
Sample,25355,0,"C8S.wav",100
Sample,25421,0,"A#7S_Bb7S.wav",100
Sample,25520,0,"G7S.wav",100
Sample,25618,0,"E7S.wav",100
Sample,25717,0,"C7S_s.wav",100
Sample,25816,0,"C#7S_Db7S_s.wav",100
Sample,25882,0,"C7S.wav",70
Sample,25947,0,"A#6S_Bb6S_s.wav",100
Sample,26013,0,"G6S_s.wav",70
Sample,26079,0,"E6S_s.wav",70
Sample,26145,0,"G6S_s.wav",70
Sample,26260,0,"F6S_s.wav",70
Sample,26342,0,"E6S_s.wav",70
Sample,26408,0,"C6S_s.wav",70
Sample,26474,0,"A#5S_Bb5S_s.wav",70
Sample,26539,0,"G5S_s.wav",70
Sample,26605,0,"F5S_s.wav",55
Sample,26671,0,"E5S_s.wav",55
Sample,26737,0,"C5S_s.wav",55
Sample,26803,0,"F4S.wav",60
Sample,26803,0,"F5S.wav",60
Sample,39434,0,"C5S_s.wav",29
Sample,39434,0,"G#5S_Ab5S_s.wav",80
Sample,39533,0,"C5S_s.wav",29
Sample,39632,0,"C5S_s.wav",29
Sample,39730,0,"G5S_s.wav",80
Sample,39829,0,"C5S_s.wav",29
Sample,39928,0,"C5S_s.wav",29
Sample,40026,0,"G#5S_Ab5S_s.wav",80
Sample,40026,0,"C5S_s.wav",29
Sample,40224,0,"C5S_s.wav",29
Sample,40322,0,"C5S_s.wav",29
Sample,40322,0,"G5S_s.wav",80
Sample,40421,0,"C5S_s.wav",29
Sample,40618,0,"G#5S_Ab5S_s.wav",80
Sample,40618,0,"C5S_s.wav",29
Sample,40717,0,"C5S_s.wav",29
Sample,40816,0,"C5S_s.wav",29
Sample,40816,0,"A#5S_Bb5S_s.wav",80
Sample,41013,0,"C5S_s.wav",29
Sample,41013,0,"G#5S_Ab5S_s.wav",80
Sample,41112,0,"C5S_s.wav",29
Sample,41211,0,"C5S_s.wav",29
Sample,41309,0,"G5S_s.wav",80
Sample,41408,0,"C5S_s.wav",29
Sample,41507,0,"C5S_s.wav",29
Sample,41605,0,"C5S_s.wav",29
Sample,41605,0,"G#5S_Ab5S_s.wav",80
Sample,41803,0,"C5S_s.wav",29
Sample,41901,0,"G5S_s.wav",80
Sample,41901,0,"C5S_s.wav",29
Sample,42000,0,"C5S_s.wav",29
Sample,42197,0,"G#5S_Ab5S_s.wav",80
Sample,42197,0,"C5S_s.wav",29
Sample,42296,0,"C5S_s.wav",29
Sample,42395,0,"A#5S_Bb5S_s.wav",80
Sample,42395,0,"C5S_s.wav",29
Sample,42592,0,"G#5S_Ab5S_s.wav",80
Sample,42592,0,"C#5S_Db5S_s.wav",29
Sample,42691,0,"C#5S_Db5S_s.wav",29
Sample,42789,0,"C#5S_Db5S_s.wav",29
Sample,42888,0,"G5S_s.wav",80
Sample,42987,0,"C#5S_Db5S_s.wav",29
Sample,43086,0,"C#5S_Db5S_s.wav",29
Sample,43184,0,"C#5S_Db5S_s.wav",29
Sample,43184,0,"G#5S_Ab5S_s.wav",80
Sample,43382,0,"C#5S_Db5S_s.wav",29
Sample,43480,0,"C#5S_Db5S_s.wav",29
Sample,43480,0,"G5S_s.wav",80
Sample,43579,0,"C#5S_Db5S_s.wav",29
Sample,43776,0,"C#5S_Db5S_s.wav",29
Sample,43776,0,"G#5S_Ab5S_s.wav",80
Sample,43875,0,"C#5S_Db5S_s.wav",29
Sample,43974,0,"A#5S_Bb5S_s.wav",80
Sample,43974,0,"C#5S_Db5S_s.wav",29
Sample,44171,0,"C5S_s.wav",29
Sample,44171,0,"G5S_s.wav",80
Sample,44270,0,"C5S_s.wav",29
Sample,44368,0,"C5S_s.wav",29
Sample,44467,0,"F5S_s.wav",45
Sample,44566,0,"C5S_s.wav",29
Sample,44664,0,"C5S_s.wav",29
Sample,44763,0,"C5S_s.wav",29
Sample,44763,0,"G5S_s.wav",80
Sample,44961,0,"C5S_s.wav",29
Sample,45059,0,"F5S_s.wav",45
Sample,45059,0,"C5S_s.wav",29
Sample,45158,0,"C5S_s.wav",29
Sample,45355,0,"C5S_s.wav",29
Sample,45355,0,"C6S_s.wav",60
Sample,45454,0,"C5S_s.wav",29
Sample,45553,0,"C5S_s.wav",29
Sample,45553,0,"A#5S_Bb5S_s.wav",60
Sample,45750,0,"C5S_s.wav",29
Sample,45750,0,"G#5S_Ab5S_s.wav",80
Sample,45849,0,"C5S_s.wav",29
Sample,45947,0,"C5S_s.wav",29
Sample,46046,0,"G5S_s.wav",80
Sample,46145,0,"C5S_s.wav",29
Sample,46243,0,"C5S_s.wav",29
Sample,46342,0,"C5S_s.wav",29
Sample,46342,0,"G#5S_Ab5S_s.wav",80
Sample,46539,0,"C5S_s.wav",29
Sample,46638,0,"C5S_s.wav",29
Sample,46638,0,"G5S_s.wav",80
Sample,46737,0,"C5S_s.wav",29
Sample,46934,0,"C5S_s.wav",29
Sample,46934,0,"G#5S_Ab5S_s.wav",80
Sample,47033,0,"C5S_s.wav",29
Sample,47132,0,"A#5S_Bb5S_s.wav",80
Sample,47132,0,"C5S_s.wav",29
Sample,47329,0,"G#5S_Ab5S_s.wav",80
Sample,47329,0,"C5S_s.wav",29
Sample,47428,0,"C5S_s.wav",29
Sample,47526,0,"C5S_s.wav",29
Sample,47625,0,"G5S_s.wav",80
Sample,47724,0,"C5S_s.wav",29
Sample,47822,0,"C5S_s.wav",29
Sample,47921,0,"G#5S_Ab5S_s.wav",80
Sample,47921,0,"C5S_s.wav",29
Sample,48118,0,"C5S_s.wav",29
Sample,48217,0,"C5S_s.wav",29
Sample,48217,0,"G5S_s.wav",80
Sample,48316,0,"C5S_s.wav",29
Sample,48513,0,"C5S_s.wav",29
Sample,48513,0,"G#5S_Ab5S_s.wav",80
Sample,48612,0,"C5S_s.wav",29
Sample,48711,0,"C5S_s.wav",29
Sample,48711,0,"A#5S_Bb5S_s.wav",80
Sample,48908,0,"C#5S_Db5S_s.wav",29
Sample,48908,0,"G#5S_Ab5S_s.wav",80
Sample,49007,0,"C#5S_Db5S_s.wav",29
Sample,49105,0,"C#5S_Db5S_s.wav",29
Sample,49204,0,"G5S_s.wav",80
Sample,49303,0,"C#5S_Db5S_s.wav",29
Sample,49401,0,"C#5S_Db5S_s.wav",29
Sample,49500,0,"G#5S_Ab5S_s.wav",80
Sample,49500,0,"C#5S_Db5S_s.wav",29
Sample,49697,0,"C#5S_Db5S_s.wav",29
Sample,49796,0,"G5S_s.wav",80
Sample,49796,0,"C#5S_Db5S_s.wav",29
Sample,49895,0,"C#5S_Db5S_s.wav",29
Sample,50092,0,"C#5S_Db5S_s.wav",29
Sample,50092,0,"G#5S_Ab5S_s.wav",80
Sample,50191,0,"C#5S_Db5S_s.wav",29
Sample,50289,0,"C#5S_Db5S_s.wav",29
Sample,50289,0,"A#5S_Bb5S_s.wav",80
Sample,50487,0,"G5S_s.wav",80
Sample,50487,0,"C5S_s.wav",29
Sample,50586,0,"C5S_s.wav",29
Sample,50684,0,"C5S_s.wav",29
Sample,50783,0,"F5S_s.wav",45
Sample,50882,0,"C5S_s.wav",29
Sample,50980,0,"C5S_s.wav",29
Sample,51079,0,"G5S_s.wav",80
Sample,51079,0,"C5S_s.wav",29
Sample,51276,0,"C5S_s.wav",29
Sample,51375,0,"F5S_s.wav",45
Sample,51375,0,"C5S_s.wav",29
Sample,51474,0,"C6S.wav",50
Sample,51474,0,"C5S_s.wav",29
Sample,51671,0,"C6S_s.wav",60
Sample,51671,0,"F6S.wav",50
Sample,51868,0,"A#5S_Bb5S_s.wav",60
Sample,51868,0,"G6S.wav",50
Sample,52066,0,"G#5S_Ab5S_s.wav",80
Sample,52066,0,"G#6S_Ab6S.wav",50
Sample,52362,0,"G6S.wav",50
Sample,52362,0,"G5S_s.wav",80
Sample,52658,0,"G#6S_Ab6S.wav",50
Sample,52658,0,"G#5S_Ab5S_s.wav",80
Sample,52954,0,"C6S_s.wav",80
Sample,52954,0,"C6S.wav",50
Sample,53250,0,"C#6S_Db6S_s.wav",80
Sample,53250,0,"C#6S_Db6S.wav",50
Sample,53447,0,"A#6S_Bb6S.wav",50
Sample,53447,0,"A#5S_Bb5S_s.wav",80
Sample,53645,0,"G#6S_Ab6S.wav",50
Sample,53645,0,"G#5S_Ab5S_s.wav",80
Sample,53941,0,"G5S_s.wav",80
Sample,53941,0,"G6S.wav",50
Sample,54237,0,"C6S.wav",50
Sample,54237,0,"C6S_s.wav",80
Sample,54632,0,"C6S.wav",80
Sample,54829,0,"F6S.wav",50
Sample,54829,0,"F5S_s.wav",80
Sample,55026,0,"G6S.wav",50
Sample,55026,0,"G5S_s.wav",80
Sample,55224,0,"G#5S_Ab5S_s.wav",80
Sample,55224,0,"G#6S_Ab6S.wav",50
Sample,55520,0,"G6S.wav",50
Sample,55520,0,"G5S_s.wav",80
Sample,55816,0,"G#6S_Ab6S.wav",50
Sample,55816,0,"G#5S_Ab5S_s.wav",80
Sample,56112,0,"C6S.wav",50
Sample,56112,0,"C6S_s.wav",80
Sample,56408,0,"C#7S_Db7S.wav",50
Sample,56408,0,"C#6S_Db6S_s.wav",80
Sample,56605,0,"C6S_s.wav",80
Sample,56605,0,"C7S.wav",50
Sample,56803,0,"A#6S_Bb6S.wav",50
Sample,56803,0,"A#5S_Bb5S_s.wav",80
Sample,57099,0,"A#5S_Bb5S_s.wav",80
Sample,57099,0,"A#6S_Bb6S.wav",50
Sample,57395,0,"F6S.wav",50
Sample,57395,0,"F5S.wav",50
Sample,57987,0,"F6S_s.wav",80
Sample,58086,0,"E6S_s.wav",80
Sample,58184,0,"F6S_s.wav",80
Sample,58283,0,"G6S_s.wav",80
Sample,58382,0,"G#5S_Ab5S_s.wav",80
Sample,58382,0,"G#6S_Ab6S.wav",50
Sample,58678,0,"G5S_s.wav",80
Sample,58678,0,"G6S.wav",50
Sample,58974,0,"G#5S_Ab5S_s.wav",80
Sample,58974,0,"G#6S_Ab6S.wav",50
Sample,59270,0,"C6S.wav",50
Sample,59270,0,"C6S_s.wav",80
Sample,59566,0,"C#6S_Db6S.wav",50
Sample,59566,0,"C#6S_Db6S_s.wav",80
Sample,59763,0,"A#6S_Bb6S.wav",50
Sample,59763,0,"A#5S_Bb5S_s.wav",80
Sample,59961,0,"G#5S_Ab5S_s.wav",80
Sample,59961,0,"G#6S_Ab6S.wav",50
Sample,60257,0,"G6S.wav",50
Sample,60257,0,"G5S_s.wav",80
Sample,60553,0,"G#6S_Ab6S.wav",50
Sample,60553,0,"G#5S_Ab5S_s.wav",80
Sample,60849,0,"C6S_s.wav",80
Sample,60849,0,"C6S.wav",50
Sample,61145,0,"C7S.wav",50
Sample,61145,0,"C6S_s.wav",80
Sample,61342,0,"A#6S_Bb6S.wav",50
Sample,61342,0,"A#5S_Bb5S_s.wav",80
Sample,61539,0,"G#6S_Ab6S.wav",50
Sample,61539,0,"G#5S_Ab5S_s.wav",80
Sample,61836,0,"G5S_s.wav",80
Sample,61836,0,"G6S.wav",50
Sample,62132,0,"F6S.wav",50
Sample,62132,0,"F5S_s.wav",80
Sample,62428,0,"F6S.wav",50
Sample,62428,0,"F5S_s.wav",80
Sample,62724,0,"G6S.wav",50
Sample,62724,0,"G5S_s.wav",80
Sample,62921,0,"F5S_s.wav",80
Sample,62921,0,"F6S.wav",50
Sample,63118,0,"F5S_s.wav",80
Sample,63118,0,"F6S.wav",50
Sample,63414,0,"F5S_s.wav",80
Sample,63711,0,"E5S_s.wav",80
Sample,63711,0,"E6S.wav",50
Sample,63908,0,"E6S.wav",50
Sample,64105,0,"C6S_s.wav",72
Sample,64303,0,"F6S_s.wav",72
Sample,64500,0,"G6S_s.wav",72
Sample,64697,0,"G#6S_Ab6S_s.wav",72
Sample,64993,0,"G6S_s.wav",72
Sample,65289,0,"G#6S_Ab6S_s.wav",72
Sample,65586,0,"C6S_s.wav",72
Sample,65882,0,"C#6S_Db6S_s.wav",72
Sample,66079,0,"C#7S_Db7S_s.wav",72
Sample,66276,0,"C7S.wav",72
Sample,66572,0,"A#6S_Bb6S.wav",72
Sample,66868,0,"A#6S_Bb6S.wav",72
Sample,67164,0,"G6S_s.wav",72
Sample,67461,0,"G#6S_Ab6S_s.wav",72
Sample,67658,0,"A#6S_Bb6S_s.wav",72
Sample,67855,0,"C7S_s.wav",72
Sample,67954,0,"B6S_s.wav",72
Sample,68053,0,"C7S_s.wav",72
Sample,68151,0,"D#7S_Eb7S_s.wav",72
Sample,68250,0,"F7S_s.wav",72
Sample,68349,0,"G7S_s.wav",72
Sample,68447,0,"G#7S_Ab7S_s.wav",72
Sample,68546,0,"A#7S_Bb7S_s.wav",80
Sample,68645,0,"C8S.wav",80
Sample,68743,0,"G#7S_Ab7S_s.wav",80
Sample,68842,0,"D#7S_Eb7S_s.wav",72
Sample,68941,0,"C7S_s.wav",72
Sample,69039,0,"G#6S_Ab6S_s.wav",72
Sample,69138,0,"D#6S_Eb6S_s.wav",72
Sample,69237,0,"C6S_s.wav",72
Sample,69336,0,"G#5S_Ab5S_s.wav",72
Sample,69434,0,"D5S_s.wav",72
Sample,69533,0,"C#5S_Db5S_s.wav",72
Sample,69632,0,"D5S_s.wav",72
Sample,69730,0,"F5S_s.wav",72
Sample,69829,0,"C6S_s.wav",72
Sample,69928,0,"B5S_s.wav",72
Sample,70026,0,"A#5S_Bb5S_s.wav",72
Sample,70421,0,"F6S_s.wav",72
Sample,70520,0,"E6S_s.wav",72
Sample,70618,0,"F6S_s.wav",72
Sample,70717,0,"G6S_s.wav",72
Sample,70816,0,"G#6S_Ab6S_s.wav",72
Sample,70914,0,"A#6S_Bb6S_s.wav",72
Sample,71013,0,"C7S.wav",72
Sample,71309,0,"A#6S_Bb6S.wav",72
Sample,71605,0,"C#6S_Db6S.wav",72
Sample,71901,0,"C#6S_Db6S.wav",72
Sample,72197,0,"C7S_s.wav",72
Sample,72395,0,"A#6S_Bb6S.wav",72
Sample,72592,0,"A#6S_Bb6S.wav",72
Sample,72888,0,"G#6S_Ab6S.wav",72
Sample,73184,0,"C6S.wav",72
Sample,73480,0,"C6S.wav",72
Sample,73776,0,"A#6S_Bb6S.wav",72
Sample,73974,0,"G#6S_Ab6S_s.wav",72
Sample,74171,0,"G#6S_Ab6S.wav",72
Sample,74467,0,"G6S.wav",72
Sample,74763,0,"F6S.wav",72
Sample,75059,0,"F6S_s.wav",72
Sample,75355,0,"E6S_s.wav",80
Sample,75553,0,"F6S_s.wav",80
Sample,75750,0,"E6S_s.wav",80
Sample,75947,0,"E8S.wav",70
Sample,76046,0,"C8S.wav",70
Sample,76145,0,"C#8S_Db8S.wav",70
Sample,76243,0,"C8S.wav",70
Sample,76342,0,"A#7S_Bb7S.wav",70
Sample,76441,0,"G7S.wav",70
Sample,76539,0,"E7S.wav",70
Sample,76589,0,"F7S_s.wav",70
Sample,76638,0,"E7S.wav",70
Sample,76737,0,"C#7S_Db7S_s.wav",70
Sample,76836,0,"C7S_s.wav",70
Sample,76934,0,"A#6S_Bb6S_s.wav",70
Sample,77033,0,"G6S_s.wav",70
Sample,77132,0,"E6S_s.wav",70
Sample,77230,0,"C6S_s.wav",70
Sample,77329,0,"F6S.wav",70
Sample,77329,0,"C6S.wav",70
Sample,77526,0,"C5S.wav",30
Sample,77526,0,"F5S.wav",30
Sample,77526,0,"C4S.wav",24
Sample,77526,0,"F4S.wav",24
Sample,77921,0,"F4S.wav",24
Sample,77921,0,"F5S.wav",30
Sample,77921,0,"C4S.wav",24
Sample,77921,0,"C5S.wav",30
Sample,78118,0,"C#5S_Db5S.wav",30
Sample,78118,0,"F#5S_Gb5S.wav",30
Sample,78118,0,"F#4S_Gb4S.wav",24
Sample,78118,0,"C#5S_Db5S.wav",24
Sample,78316,0,"C#5S_Db5S.wav",30
Sample,78316,0,"F#5S_Gb5S.wav",30
Sample,78316,0,"C#5S_Db5S.wav",24
Sample,78316,0,"F#4S_Gb4S.wav",24
Sample,78513,0,"F#5S_Gb5S.wav",30
Sample,78513,0,"C#6S_Db6S.wav",30
Sample,78711,0,"C6S.wav",30
Sample,78711,0,"F#5S_Gb5S.wav",30
Sample,78711,0,"F#4S_Gb4S.wav",24
Sample,78711,0,"C#4S_Db4S.wav",24
Sample,78908,0,"F5S.wav",30
Sample,78908,0,"C4S.wav",24
Sample,78908,0,"F4S.wav",24
Sample,78908,0,"C6S.wav",30
Sample,79105,0,"C4S.wav",24
Sample,79105,0,"F4S.wav",24
Sample,79105,0,"C5S.wav",30
Sample,79105,0,"F5S.wav",30
Sample,79500,0,"C6S.wav",30
Sample,79500,0,"F5S.wav",30
Sample,79500,0,"F4S.wav",24
Sample,79500,0,"C4S.wav",24
Sample,79697,0,"C#6S_Db6S.wav",30
Sample,79697,0,"C#4S_Db4S.wav",24
Sample,79697,0,"F#5S_Gb5S.wav",30
Sample,79697,0,"F#4S_Gb4S.wav",24
Sample,79895,0,"F#6S_Gb6S.wav",30
Sample,79895,0,"C#6S_Db6S.wav",30
Sample,79895,0,"C#4S_Db4S.wav",24
Sample,79895,0,"F#4S_Gb4S.wav",24
Sample,80092,0,"F#6S_Gb6S.wav",30
Sample,80092,0,"C#7S_Db7S.wav",30
Sample,80289,0,"C#4S_Db4S.wav",24
Sample,80289,0,"C7S.wav",30
Sample,80289,0,"F#6S_Gb6S.wav",30
Sample,80289,0,"F#4S_Gb4S.wav",24
Sample,80487,0,"C6S.wav",30
Sample,80487,0,"F6S.wav",30
Sample,80684,0,"F5S.wav",30
Sample,80684,0,"C5S.wav",30
Sample,80684,0,"C4S.wav",24
Sample,80684,0,"F4S.wav",24
Sample,81079,0,"F4S.wav",24
Sample,81079,0,"C5S.wav",30
Sample,81079,0,"F5S.wav",30
Sample,81079,0,"C4S.wav",24
Sample,81276,0,"C#5S_Db5S.wav",30
Sample,81276,0,"F#4S_Gb4S.wav",24
Sample,81276,0,"F#5S_Gb5S.wav",30
Sample,81276,0,"C#4S_Db4S.wav",24
Sample,81474,0,"C#4S_Db4S.wav",24
Sample,81474,0,"F#5S_Gb5S.wav",30
Sample,81474,0,"F#4S_Gb4S.wav",24
Sample,81474,0,"C#5S_Db5S.wav",30
Sample,81671,0,"F#5S_Gb5S.wav",30
Sample,81671,0,"C#6S_Db6S.wav",30
Sample,81868,0,"F#4S_Gb4S.wav",24
Sample,81868,0,"C#4S_Db4S.wav",24
Sample,81868,0,"F#5S_Gb5S.wav",30
Sample,81868,0,"C6S.wav",30
Sample,82066,0,"C8S.wav",30
Sample,82066,0,"F7S.wav",30
Sample,82263,0,"C7S.wav",30
Sample,82263,0,"F4S.wav",24
Sample,82263,0,"F7S.wav",30
Sample,82263,0,"C4S.wav",24
Sample,82658,0,"F4S.wav",24
Sample,82658,0,"C4S.wav",24
Sample,82658,0,"C7S.wav",30
Sample,82658,0,"F6S.wav",30
Sample,82855,0,"F#4S_Gb4S.wav",24
Sample,82855,0,"F#6S_Gb6S.wav",30
Sample,82855,0,"C#6S_Db6S.wav",30
Sample,82855,0,"C#4S_Db4S.wav",24
Sample,83053,0,"F#4S_Gb4S.wav",24
Sample,83053,0,"C#6S_Db6S.wav",30
Sample,83053,0,"F#6S_Gb6S.wav",30
Sample,83053,0,"C#4S_Db4S.wav",24
Sample,83250,0,"C#7S_Db7S.wav",30
Sample,83250,0,"F#6S_Gb6S.wav",30
Sample,83447,0,"F#4S_Gb4S.wav",24
Sample,83447,0,"F#6S_Gb6S.wav",30
Sample,83447,0,"C7S.wav",30
Sample,83447,0,"C#4S_Db4S.wav",24
Sample,83645,0,"F4S.wav",30
Sample,83645,0,"F4S.wav",34
Sample,83645,0,"C6S.wav",30
Sample,83842,0,"C8S.wav",80
Sample,83941,0,"G#7S_Ab7S.wav",80
Sample,84039,0,"F4S.wav",40
Sample,84039,0,"F7S_s.wav",80
Sample,84138,0,"C#7S_Db7S_s.wav",80
Sample,84237,0,"C7S_s.wav",80
Sample,84336,0,"B6S_s.wav",80
Sample,84434,0,"A#6S_Bb6S.wav",80
Sample,84434,0,"E4S.wav",34
Sample,84632,0,"A#7S_Bb7S.wav",80
Sample,84730,0,"G7S_s.wav",80
Sample,84829,0,"E4S.wav",40
Sample,84829,0,"E7S.wav",80
Sample,84928,0,"C#7S_Db7S_s.wav",80
Sample,85026,0,"C7S_s.wav",80
Sample,85125,0,"A#6S_Bb6S_s.wav",80
Sample,85224,0,"G#6S_Ab6S.wav",80
Sample,85224,0,"D#4S_Eb4S.wav",34
Sample,85421,0,"D#8S_Eb8S.wav",80
Sample,85520,0,"C8S.wav",80
Sample,85618,0,"D#4S_Eb4S.wav",40
Sample,85618,0,"G#7S_Ab7S_s.wav",80
Sample,85717,0,"D#7S_Eb7S_s.wav",80
Sample,85816,0,"C7S_s.wav",80
Sample,85914,0,"G#6S_Ab6S_s.wav",80
Sample,86013,0,"D6S.wav",80
Sample,86013,0,"D4S.wav",34
Sample,86211,0,"A#7S_Bb7S.wav",80
Sample,86309,0,"F7S.wav",80
Sample,86408,0,"D4S.wav",40
Sample,86408,0,"C#7S_Db7S_s.wav",80
Sample,86507,0,"A#6S_Bb6S_s.wav",80
Sample,86605,0,"F6S_s.wav",80
Sample,86704,0,"C#6S_Db6S_s.wav",80
Sample,86803,0,"A#3S_Bb3S_s.wav",60
Sample,86803,0,"A#5S_Bb5S.wav",80
Sample,87000,0,"D#6S_Eb6S_s.wav",60
Sample,87099,0,"C6S_s.wav",60
Sample,87197,0,"A#5S_Bb5S_s.wav",60
Sample,87197,0,"A#3S_Bb3S_s.wav",70
Sample,87296,0,"G#5S_Ab5S_s.wav",60
Sample,87395,0,"G5S_s.wav",60
Sample,87493,0,"F5S_s.wav",60
Sample,87592,0,"E5S_s.wav",60
Sample,87592,0,"C4S.wav",60
Sample,87789,0,"C5S_s.wav",60
Sample,87888,0,"C#5S_Db5S_s.wav",60
Sample,87987,0,"C5S_s.wav",60
Sample,87987,0,"C4S.wav",70
Sample,88086,0,"A#4S_Bb4S_s.wav",60
Sample,88184,0,"C5S_s.wav",60
Sample,88283,0,"E5S_s.wav",40
Sample,88382,0,"G5S.wav",27
Sample,88382,0,"F3S.wav",27
Sample,88382,0,"G4S.wav",27
Sample,89171,0,"A#4S_Bb4S.wav",33
Sample,89171,0,"F#5S_Gb5S.wav",66
Sample,89961,0,"A4S.wav",33
Sample,89961,0,"F5S.wav",66
Sample,90750,0,"A5S.wav",33
Sample,90750,0,"C6S.wav",66
Sample,91145,0,"C6S.wav",40
Sample,91145,0,"D#6S_Eb6S.wav",50
Sample,91539,0,"D6S.wav",70
Sample,91539,0,"A#5S_Bb5S.wav",56
Sample,92132,0,"D6S_s.wav",72
Sample,92230,0,"D#6S_Eb6S_s.wav",72
Sample,92329,0,"F6S_s.wav",72
Sample,92526,0,"D#6S_Eb6S_s.wav",72
Sample,92724,0,"D6S_s.wav",72
Sample,92921,0,"A#6S_Bb6S_s.wav",72
Sample,93118,0,"D#6S_Eb6S.wav",50
Sample,93118,0,"G#6S_Ab6S.wav",60
Sample,93711,0,"G6S_s.wav",72
Sample,93908,0,"G6S_s.wav",72
Sample,94105,0,"A#6S_Bb6S_s.wav",72
Sample,94303,0,"D#7S_Eb7S_s.wav",72
Sample,94500,0,"C#7S_Db7S_s.wav",72
Sample,94697,0,"C7S.wav",60
Sample,94697,0,"G#6S_Ab6S.wav",50
Sample,95289,0,"C7S_s.wav",72
Sample,95388,0,"C#7S_Db7S_s.wav",72
Sample,95487,0,"C7S_s.wav",72
Sample,95684,0,"G#6S_Ab6S_s.wav",72
Sample,95882,0,"G#7S_Ab7S.wav",72
Sample,96079,0,"F#7S_Gb7S_s.wav",72
Sample,96276,0,"F#7S_Gb7S.wav",72
Sample,96276,0,"D#7S_Eb7S.wav",50
Sample,96868,0,"F7S.wav",60
Sample,96868,0,"C#7S_Db7S.wav",50
Sample,97066,0,"C#7S_Db7S.wav",50
Sample,97066,0,"F7S.wav",60
Sample,97066,0,"C#4S_Db4S.wav",68
Sample,97263,0,"C#5S_Db5S_s.wav",80
Sample,97362,0,"F5S_s.wav",80
Sample,97461,0,"C#4S_Db4S.wav",68
Sample,97461,0,"G#5S_Ab5S_s.wav",80
Sample,97559,0,"C#6S_Db6S_s.wav",80
Sample,97658,0,"F6S_s.wav",80
Sample,97757,0,"G#6S_Ab6S_s.wav",80
Sample,97855,0,"C#7S_Db7S.wav",80
Sample,97855,0,"F4S.wav",68
Sample,98053,0,"F6S_s.wav",80
Sample,98151,0,"E6S_s.wav",80
Sample,98250,0,"F4S.wav",68
Sample,98250,0,"F6S_s.wav",80
Sample,98349,0,"G#6S_Ab6S_s.wav",80
Sample,98447,0,"C#7S_Db7S_s.wav",80
Sample,98546,0,"B6S_s.wav",80
Sample,98645,0,"A#6S_Bb6S.wav",80
Sample,98645,0,"F#4S_Gb4S.wav",68
Sample,98842,0,"F#6S_Gb6S_s.wav",80
Sample,98941,0,"F6S_s.wav",80
Sample,99039,0,"F#6S_Gb6S_s.wav",80
Sample,99039,0,"F#4S_Gb4S.wav",68
Sample,99138,0,"A#6S_Bb6S_s.wav",80
Sample,99237,0,"D#7S_Eb7S_s.wav",80
Sample,99336,0,"C#7S_Db7S_s.wav",80
Sample,99434,0,"G#4S_Ab4S.wav",68
Sample,99434,0,"C7S.wav",80
Sample,99632,0,"C7S_s.wav",80
Sample,99730,0,"G#6S_Ab6S_s.wav",80
Sample,99829,0,"G#4S_Ab4S.wav",68
Sample,99829,0,"C7S_s.wav",80
Sample,99928,0,"D#7S_Eb7S_s.wav",80
Sample,100026,0,"G#7S_Ab7S.wav",80
Sample,100125,0,"F#7S_Gb7S.wav",80
Sample,100224,0,"A4S.wav",68
Sample,100224,0,"F7S.wav",80
Sample,100421,0,"F6S_s.wav",80
Sample,100520,0,"E6S_s.wav",80
Sample,100618,0,"F6S_s.wav",80
Sample,100618,0,"A4S.wav",68
Sample,100717,0,"A6S_s.wav",80
Sample,100816,0,"F7S.wav",80
Sample,100914,0,"D#7S_Eb7S.wav",80
Sample,101013,0,"C#7S_Db7S.wav",80
Sample,101013,0,"A#4S_Bb4S.wav",68
Sample,101211,0,"F6S.wav",80
Sample,101309,0,"E6S_s.wav",80
Sample,101408,0,"A#4S_Bb4S.wav",68
Sample,101408,0,"F6S.wav",80
Sample,101507,0,"A#6S_Bb6S_s.wav",80
Sample,101605,0,"D#7S_Eb7S.wav",80
Sample,101704,0,"C#7S_Db7S.wav",80
Sample,101803,0,"C7S.wav",80
Sample,101803,0,"G#4S_Ab4S.wav",68
Sample,102000,0,"F6S_s.wav",80
Sample,102099,0,"C6S_s.wav",80
Sample,102197,0,"G#4S_Ab4S.wav",68
Sample,102197,0,"F6S_s.wav",80
Sample,102296,0,"G6S_s.wav",80
Sample,102395,0,"G#6S_Ab6S_s.wav",80
Sample,102493,0,"C7S.wav",80
Sample,102592,0,"G4S.wav",68
Sample,102592,0,"A#6S_Bb6S.wav",80
Sample,102789,0,"A#5S_Bb5S_s.wav",80
Sample,102888,0,"A5S_s.wav",80
Sample,102987,0,"A#5S_Bb5S_s.wav",80
Sample,102987,0,"G4S.wav",68
Sample,103086,0,"F6S_s.wav",80
Sample,103184,0,"D6S_s.wav",80
Sample,103283,0,"G#6S_Ab6S_s.wav",80
Sample,103382,0,"C4S.wav",60
Sample,103382,0,"A#5S_Bb5S.wav",60
Sample,103382,0,"G#6S_Ab6S.wav",70
Sample,103776,0,"C4S.wav",60
Sample,103776,0,"C6S.wav",50
Sample,103776,0,"F6S.wav",50
Sample,103776,0,"G6S.wav",70
Sample,103974,0,"G6S.wav",70
Sample,104171,0,"F6S.wav",50
Sample,104171,0,"C6S.wav",50
Sample,104171,0,"G#6S_Ab6S.wav",100
Sample,104961,0,"G5S.wav",60
Sample,104961,0,"G6S.wav",100
Sample,104961,0,"A#5S_Bb5S.wav",60
Sample,105355,0,"G#5S_Ab5S.wav",60
Sample,105355,0,"F5S.wav",60
Sample,105355,0,"F6S.wav",100
Sample,105750,0,"F5S.wav",60
Sample,105750,0,"G#5S_Ab5S.wav",60
Sample,105750,0,"F6S.wav",100
Sample,106539,0,"E6S.wav",100
Sample,106539,0,"G5S.wav",60
Sample,106539,0,"E5S.wav",60
Sample,107329,0,"A#5S_Bb5S.wav",60
Sample,107329,0,"G6S.wav",100
Sample,107329,0,"G5S.wav",60
Sample,108118,0,"F5S.wav",60
Sample,108118,0,"F6S.wav",100
Sample,108513,0,"E5S.wav",60
Sample,108513,0,"E6S.wav",100
Sample,108908,0,"G#5S_Ab5S.wav",60
Sample,108908,0,"F5S.wav",60
Sample,108908,0,"F6S.wav",100
Sample,109697,0,"C6S.wav",100
Sample,109697,0,"G#5S_Ab5S.wav",60
Sample,109697,0,"F5S.wav",60
Sample,110487,0,"F5S.wav",60
Sample,110487,0,"A#4S_Bb4S.wav",60
Sample,110487,0,"C#6S_Db6S.wav",100
Sample,111276,0,"G5S.wav",80
Sample,111276,0,"D#6S_Eb6S.wav",80
Sample,111671,0,"F6S.wav",80
Sample,111671,0,"G#5S_Ab5S.wav",80
Sample,112066,0,"B5S.wav",60
Sample,112066,0,"F5S.wav",60
Sample,112066,0,"F6S.wav",100
Sample,112855,0,"G6S.wav",100
Sample,112855,0,"B5S.wav",80
Sample,113250,0,"G#6S_Ab6S.wav",100
Sample,113250,0,"C6S.wav",80
Sample,113645,0,"E5S.wav",52
Sample,113645,0,"G5S.wav",52
Sample,113645,0,"A#6S_Bb6S.wav",100
Sample,113645,0,"A#5S_Bb5S.wav",52
Sample,113645,0,"C#6S_Db6S.wav",52
Sample,115224,0,"E5S.wav",52
Sample,115224,0,"G5S.wav",52
Sample,115224,0,"C7S.wav",100
Sample,115224,0,"E6S.wav",52
Sample,115224,0,"C6S.wav",52
Sample,116803,0,"G#6S_Ab6S.wav",100
Sample,116803,0,"G#5S_Ab5S.wav",50
Sample,116803,0,"C6S.wav",50
Sample,117099,0,"G#5S_Ab5S.wav",75
Sample,117099,0,"C6S.wav",100
Sample,117395,0,"C#6S_Db6S.wav",100
Sample,117395,0,"G#5S_Ab5S.wav",75
Sample,117789,0,"C6S.wav",100
Sample,117987,0,"C6S.wav",75
Sample,117987,0,"A#6S_Bb6S.wav",100
Sample,118184,0,"G#6S_Ab6S.wav",100
Sample,118184,0,"C6S.wav",75
Sample,118382,0,"G#6S_Ab6S.wav",100
Sample,118382,0,"C6S.wav",75
Sample,118678,0,"G6S.wav",100
Sample,118678,0,"E6S.wav",75
Sample,118974,0,"G5S.wav",50
Sample,118974,0,"C5S.wav",100
Sample,118974,0,"E5S.wav",50
Sample,119961,0,"G5S.wav",50
Sample,119961,0,"D#6S_Eb6S.wav",50
Sample,119961,0,"G6S.wav",66
Sample,120257,0,"F#6S_Gb6S.wav",66
Sample,120553,0,"G6S.wav",100
Sample,120849,0,"G#6S_Ab6S.wav",100
Sample,121145,0,"A#6S_Bb6S.wav",100
Sample,121342,0,"C7S.wav",100
Sample,121539,0,"C7S.wav",100
Sample,121539,0,"F6S.wav",50
Sample,121539,0,"D6S.wav",50
Sample,121934,0,"A#5S_Bb5S.wav",50
Sample,121934,0,"D6S.wav",50
Sample,121934,0,"F6S.wav",100
Sample,123118,0,"C#6S_Db6S.wav",50
Sample,123118,0,"C7S.wav",100
Sample,123118,0,"F6S.wav",50
Sample,123414,0,"A#6S_Bb6S.wav",100
Sample,123711,0,"C#6S_Db6S.wav",66
Sample,124007,0,"C#6S_Db6S.wav",66
Sample,124303,0,"C7S.wav",100
Sample,124500,0,"A#6S_Bb6S.wav",100
Sample,124697,0,"A#5S_Bb5S.wav",50
Sample,124697,0,"C6S.wav",50
Sample,124697,0,"A#6S_Bb6S.wav",100
Sample,124993,0,"G#6S_Ab6S.wav",100
Sample,125289,0,"B5S.wav",100
Sample,125586,0,"C6S.wav",100
Sample,125882,0,"A#6S_Bb6S.wav",100
Sample,126079,0,"G#6S_Ab6S.wav",100
Sample,126276,0,"G#6S_Ab6S.wav",55
Sample,126474,0,"G#6S_Ab6S.wav",55
Sample,126671,0,"G6S.wav",55
Sample,126868,0,"F6S.wav",55
Sample,127066,0,"F6S.wav",55
Sample,127263,0,"F6S.wav",55
Sample,127461,0,"G6S.wav",55
Sample,127658,0,"F6S.wav",55
Sample,127855,0,"C6S.wav",50
Sample,127855,0,"E6S.wav",100
Sample,127855,0,"G5S.wav",50
Sample,127855,0,"E5S.wav",50

[TimingPoints]
1540,394.736842105263,4,2,0,5,1,0
1540,-125,4,2,77,5,0,0
19896,-111.111111111111,4,2,77,5,0,0
26754,-100,4,1,2,15,0,0
39434,-100,4,1,0,18,0,0
39485,-100,4,1,2,15,0,0
51474,-100,4,1,2,15,0,0
52066,-100,4,1,0,18,0,0
52164,-100,4,2,0,20,0,0
57987,-100,4,1,2,18,0,0
58480,-100,4,2,0,18,0,0
64698,-100,4,1,0,36,0,0
64748,-100,4,2,0,18,0,0
67855,-100,4,1,0,30,0,0
70322,-100,4,2,1,5,0,0
70618,-100,4,1,0,36,0,0
71014,-100,4,1,0,18,0,0
71063,-100,4,2,0,22,0,0
72197,-100,4,1,0,36,0,0
72593,-100,4,1,0,18,0,0
72642,-100,4,2,0,22,0,0
73776,-100,4,1,0,36,0,0
74172,-100,4,1,0,18,0,0
74221,-100,4,1,0,36,0,0
74961,-100,4,1,0,18,0,0
75011,-100,4,1,0,36,0,0
75751,-181.818181818182,4,1,0,18,0,0
75800,-100,4,2,1,5,0,0
77527,-100,4,1,2,20,0,1
78908,-113.636363636364,4,2,1,5,0,1
79007,-106.382978723404,4,2,1,5,0,1
79106,-100,4,1,2,20,0,1
80487,-113.636363636364,4,2,1,5,0,1
80586,-106.382978723404,4,2,1,5,0,1
80684,-100,4,1,2,20,0,1
82066,-113.636363636364,4,2,1,5,0,1
82165,-106.382978723404,4,2,1,5,0,1
82263,-100,4,1,2,20,0,1
83646,-113.636363636364,4,1,2,20,0,1
83744,-100,4,2,1,5,0,1
86804,-106.382978723404,4,1,0,18,0,1
86843,-100,4,3,0,40,0,1
87592,-106.382978723404,4,1,0,18,0,1
87632,-100,4,3,0,40,0,1
88382,-106.382978723404,4,1,0,22,0,0
88422,-100,4,2,1,5,0,0
88678,-117.647058823529,4,2,1,5,0,0
88975,-111.111111111111,4,2,1,5,0,0
89172,-105.263157894737,4,1,0,14,0,0
89961,-100,4,1,0,18,0,0
91540,-125,4,1,0,26,0,0
91615,-100,4,2,0,18,0,0
97263,-100,4,3,0,36,0,1
97856,-100,4,1,0,20,0,1
97906,-100,4,3,0,36,0,1
98646,-100,4,1,0,20,0,1
98695,-100,4,3,0,36,0,1
99435,-100,4,1,0,20,0,1
99485,-100,4,3,0,36,0,1
100225,-100,4,1,0,20,0,1
100274,-100,4,3,0,36,0,1
101014,-100,4,1,0,20,0,1
101064,-100,4,3,0,36,0,1
101804,-100,4,1,0,20,0,1
101853,-100,4,3,0,36,0,1
102593,-100,4,1,0,20,0,1
102642,-100,4,2,0,11,0,1
104172,-133.333333333333,4,1,0,36,0,1
104221,-100,4,2,0,5,0,1
110488,-133.333333333333,4,1,0,18,0,1
110537,-100,4,2,0,5,0,1
112067,-133.333333333333,4,1,0,18,0,1
112116,-100,4,2,0,5,0,1
113646,-133.333333333333,4,1,0,18,0,1
113695,-100,4,2,0,5,0,1
114435,-133.333333333333,4,1,0,36,0,1
114485,-100,4,2,0,5,0,1
115224,-100,4,1,0,18,0,1
116804,-100,4,1,0,18,0,1
116853,-100,4,2,0,5,0,1
122724,-100,4,1,0,30,0,1
123118,-100,4,1,0,18,0,1
123169,-100,4,1,2,18,0,1
124303,-100,4,1,0,30,0,1
124698,-100,4,1,0,18,0,1
124748,-100,4,1,2,30,0,1
126276,-100,4,1,0,12,0,1
127856,-100,4,1,0,18,0,1
127900,-100,4,2,1,5,0,1
129435,-117.647058823529,4,1,0,18,0,0
129533,-100,4,1,0,25,0,0
135751,-100,4,1,0,36,0,0
135800,-100,4,1,0,25,0,0
137330,-100,4,1,0,18,0,0
137379,-100,4,1,0,25,0,0
138909,-100,4,1,0,18,0,0
138958,-100,4,1,0,25,0,0
139700,-100,4,1,0,18,0,0
139748,-100,4,1,0,25,0,0
140487,-100,4,1,0,18,0,0
140536,-100,4,2,1,5,0,0
142066,-100,4,1,0,36,0,0
142116,-100,4,1,0,25,0,0
146803,-100,4,2,0,5,0,0
147987,-100,4,1,0,25,0,0
148383,-100,4,1,0,18,0,0
148432,-100,4,2,0,10,0,0
149961,-100,4,1,0,36,0,0
150011,-100,4,2,0,10,0,0
151539,-100,4,1,0,36,0,0
151639,-100,4,2,0,10,0,0
152330,-100,4,1,0,36,0,0
152373,-100,4,2,0,10,0,0
153119,-100,4,1,0,12,0,0
153520,-100,4,2,0,22,0,0
154698,-100,4,2,0,5,0,1
161013,-100,4,1,0,5,0,1
161211,-100,4,2,0,25,0,1
173646,-100,4,1,2,50,0,1
176803,-100,4,1,0,36,0,1
176901,-100,4,3,0,30,0,1
177592,-100,4,1,0,36,0,1
177691,-100,4,3,0,30,0,1
178382,-100,4,1,0,36,0,1
178480,-100,4,3,0,30,0,1
178724,-100,4,2,0,5,0,1
179961,-100,4,2,77,30,0,0

[Colours]
Combo1 : 3,111,241
Combo2 : 2,21,253

[HitObjects]
256,192,1540,5,0,0:0:0:99:soft-sliderslide77.wav
329,192,7362,5,0,0:0:0:8:soft-slidertick.wav
402,192,7362,1,0,0:0:0:8:soft-slidertick.wav
256,192,7362,1,0,0:0:0:8:soft-slidertick.wav
475,192,7362,1,0,0:0:0:8:soft-slidertick.wav
182,192,7362,1,0,0:0:0:8:soft-slidertick.wav
36,192,7362,1,0,0:0:0:8:soft-slidertick.wav
109,192,7362,1,0,0:0:0:8:soft-slidertick.wav
475,192,7460,1,0,0:0:0:8:soft-slidertick.wav
256,192,7460,1,0,0:0:0:8:soft-slidertick.wav
402,192,7460,1,0,0:0:0:8:soft-slidertick.wav
329,192,7460,1,0,0:0:0:8:soft-slidertick.wav
182,192,7460,1,0,0:0:0:8:soft-slidertick.wav
109,192,7460,1,0,0:0:0:8:soft-slidertick.wav
36,192,7460,1,0,0:0:0:8:soft-slidertick.wav
256,192,7558,1,0,0:0:0:8:soft-slidertick.wav
182,192,7558,1,0,0:0:0:8:soft-slidertick.wav
109,192,7558,1,0,0:0:0:8:soft-slidertick.wav
329,192,7558,1,0,0:0:0:8:soft-slidertick.wav
402,192,7558,1,0,0:0:0:8:soft-slidertick.wav
36,192,7558,1,0,0:0:0:8:soft-slidertick.wav
475,192,7558,1,0,0:0:0:8:soft-slidertick.wav
109,192,7656,1,0,0:0:0:8:soft-slidertick.wav
402,192,7656,1,0,0:0:0:8:soft-slidertick.wav
475,192,7656,1,0,0:0:0:8:soft-slidertick.wav
36,192,7656,1,0,0:0:0:8:soft-slidertick.wav
182,192,7656,1,0,0:0:0:8:soft-slidertick.wav
329,192,7656,1,0,0:0:0:8:soft-slidertick.wav
256,192,7656,1,0,0:0:0:8:soft-slidertick.wav
402,192,7756,1,0,0:0:0:8:soft-slidertick.wav
36,192,7756,1,0,0:0:0:8:soft-slidertick.wav
475,192,7756,1,0,0:0:0:8:soft-slidertick.wav
329,192,7756,1,0,0:0:0:8:soft-slidertick.wav
256,192,7756,1,0,0:0:0:8:soft-slidertick.wav
182,192,7756,1,0,0:0:0:8:soft-slidertick.wav
109,192,7756,1,0,0:0:0:8:soft-slidertick.wav
36,192,7855,1,0,0:0:0:8:soft-slidertick.wav
182,192,7855,1,0,0:0:0:8:soft-slidertick.wav
329,192,7855,1,0,0:0:0:8:soft-slidertick.wav
109,192,7855,1,0,0:0:0:8:soft-slidertick.wav
256,192,7855,1,0,0:0:0:8:soft-slidertick.wav
402,192,7855,1,0,0:0:0:8:soft-slidertick.wav
475,192,7855,1,0,0:0:0:8:soft-slidertick.wav
182,192,7953,1,0,0:0:0:8:soft-slidertick.wav
256,192,7953,1,0,0:0:0:8:soft-slidertick.wav
475,192,7953,1,0,0:0:0:8:soft-slidertick.wav
109,192,7953,1,0,0:0:0:8:soft-slidertick.wav
402,192,7953,1,0,0:0:0:8:soft-slidertick.wav
36,192,7953,1,0,0:0:0:8:soft-slidertick.wav
329,192,7953,1,0,0:0:0:8:soft-slidertick.wav
475,192,8053,1,0,0:0:0:8:soft-slidertick.wav
402,192,8053,1,0,0:0:0:8:soft-slidertick.wav
109,192,8053,1,0,0:0:0:8:soft-slidertick.wav
256,192,8053,1,0,0:0:0:8:soft-slidertick.wav
182,192,8053,1,0,0:0:0:8:soft-slidertick.wav
329,192,8053,1,0,0:0:0:8:soft-slidertick.wav
36,192,8053,1,0,0:0:0:8:soft-slidertick.wav
182,192,8151,1,0,0:0:0:8:soft-slidertick.wav
329,192,8151,1,0,0:0:0:8:soft-slidertick.wav
402,192,8151,1,0,0:0:0:8:soft-slidertick.wav
109,192,8151,1,0,0:0:0:8:soft-slidertick.wav
256,192,8151,1,0,0:0:0:8:soft-slidertick.wav
329,192,8249,1,0,0:0:0:8:soft-slidertick.wav
182,192,8249,1,0,0:0:0:8:soft-slidertick.wav
402,192,8249,1,0,0:0:0:8:soft-slidertick.wav
109,192,8249,1,0,0:0:0:8:soft-slidertick.wav
256,192,8249,1,0,0:0:0:8:soft-slidertick.wav
182,192,8348,1,0,0:0:0:8:soft-slidertick.wav
329,192,8348,1,0,0:0:0:8:soft-slidertick.wav
109,192,8348,1,0,0:0:0:8:soft-slidertick.wav
402,192,8348,1,0,0:0:0:8:soft-slidertick.wav
256,192,8348,1,0,0:0:0:8:soft-slidertick.wav
109,192,8447,1,0,0:0:0:8:soft-slidertick.wav
182,192,8447,1,0,0:0:0:8:soft-slidertick.wav
329,192,8447,1,0,0:0:0:8:soft-slidertick.wav
402,192,8447,1,0,0:0:0:8:soft-slidertick.wav
256,192,8447,1,0,0:0:0:8:soft-slidertick.wav
182,192,8545,1,0,0:0:0:8:soft-slidertick.wav
329,192,8545,1,0,0:0:0:8:soft-slidertick.wav
256,192,8545,1,0,0:0:0:8:soft-slidertick.wav
109,192,8545,1,0,0:0:0:8:soft-slidertick.wav
402,192,8545,1,0,0:0:0:8:soft-slidertick.wav
109,192,8644,1,0,0:0:0:8:soft-slidertick.wav
182,192,8644,1,0,0:0:0:8:soft-slidertick.wav
329,192,8644,1,0,0:0:0:8:soft-slidertick.wav
402,192,8644,1,0,0:0:0:8:soft-slidertick.wav
256,192,8644,1,0,0:0:0:8:soft-slidertick.wav
329,192,8743,1,0,0:0:0:8:soft-slidertick.wav
256,192,8743,1,0,0:0:0:8:soft-slidertick.wav
182,192,8743,1,0,0:0:0:8:soft-slidertick.wav
182,192,8841,1,0,0:0:0:8:soft-slidertick.wav
256,192,8841,1,0,0:0:0:8:soft-slidertick.wav
329,192,8841,1,0,0:0:0:8:soft-slidertick.wav
329,192,8940,1,0,0:0:0:8:soft-slidertick.wav
256,192,8940,1,0,0:0:0:8:soft-slidertick.wav
182,192,8940,1,0,0:0:0:8:soft-slidertick.wav
256,192,9039,1,0,0:0:0:8:soft-slidertick.wav
182,192,9039,1,0,0:0:0:8:soft-slidertick.wav
329,192,9039,1,0,0:0:0:8:soft-slidertick.wav
256,192,9137,1,0,0:0:0:8:soft-slidertick.wav
256,192,9236,1,0,0:0:0:8:soft-slidertick.wav
256,192,9335,1,0,0:0:0:8:soft-slidertick.wav
256,192,9433,1,0,0:0:0:8:soft-slidertick.wav
256,192,38151,132,0,38941:0:0:0:14:LR_RevcyG.wav
36,192,38151,128,0,38941:0:0:0:14:LR_RevcyG.wav
109,192,38151,128,0,38941:0:0:0:14:LR_RevcyG.wav
402,192,38151,128,0,38941:0:0:0:14:LR_RevcyG.wav
475,192,38151,128,0,38941:0:0:0:14:LR_RevcyG.wav
329,192,38151,128,0,38941:0:0:0:14:LR_RevcyG.wav
182,192,38151,128,0,38941:0:0:0:14:LR_RevcyG.wav
256,192,50783,132,0,51572:0:0:0:14:LR_RevcyG.wav
36,192,50783,128,0,51572:0:0:0:14:LR_RevcyG.wav
109,192,50783,128,0,51572:0:0:0:14:LR_RevcyG.wav
402,192,50783,128,0,51572:0:0:0:14:LR_RevcyG.wav
475,192,50783,128,0,51572:0:0:0:14:LR_RevcyG.wav
329,192,50783,128,0,51572:0:0:0:14:LR_RevcyG.wav
182,192,50783,128,0,51572:0:0:0:14:LR_RevcyG.wav
36,192,76046,132,0,76835:0:0:0:14:LR_RevcyG.wav
109,192,76046,128,0,76835:0:0:0:14:LR_RevcyG.wav
402,192,76046,128,0,76835:0:0:0:14:LR_RevcyG.wav
182,192,76046,128,0,76835:0:0:0:14:LR_RevcyG.wav
256,192,76046,128,0,76835:0:0:0:14:LR_RevcyG.wav
475,192,76046,128,0,76835:0:0:0:14:LR_RevcyG.wav
329,192,76046,128,0,76835:0:0:0:14:LR_RevcyG.wav
475,192,102888,132,0,103579:0:0:0:14:LR_RevcyG.wav
402,192,102888,128,0,103579:0:0:0:14:LR_RevcyG.wav
182,192,102888,128,0,103579:0:0:0:14:LR_RevcyG.wav
256,192,102888,128,0,103579:0:0:0:14:LR_RevcyG.wav
329,192,102888,128,0,103579:0:0:0:14:LR_RevcyG.wav
109,192,102888,128,0,103579:0:0:0:14:LR_RevcyG.wav
36,192,102888,128,0,103579:0:0:0:14:LR_RevcyG.wav
329,192,115520,132,0,116211:0:0:0:14:LR_RevcyG.wav
109,192,115520,128,0,116211:0:0:0:14:LR_RevcyG.wav
36,192,115520,128,0,116211:0:0:0:14:LR_RevcyG.wav
256,192,115520,128,0,116211:0:0:0:14:LR_RevcyG.wav
475,192,115520,128,0,116211:0:0:0:14:LR_RevcyG.wav
402,192,115520,128,0,116211:0:0:0:14:LR_RevcyG.wav
182,192,115520,128,0,116211:0:0:0:14:LR_RevcyG.wav
109,192,129434,132,0,129533:0:0:0:35:F3S_s.wav
36,192,129533,128,0,129632:0:0:0:35:C3S_s.wav
182,192,129632,128,0,129730:0:0:0:35:F3S_s.wav
329,192,129730,128,0,129829:0:0:0:35:G3S_s.wav
475,192,129829,128,0,129928:0:0:0:35:G#3S_Ab3S_s.wav
109,192,129928,128,0,130026:0:0:0:35:C4S_s.wav
256,192,130026,128,0,130125:0:0:0:35:F4S_s.wav
402,192,130125,128,0,130224:0:0:0:35:G4S_s.wav
182,192,130224,128,0,130322:0:0:0:35:G#4S_Ab4S_s.wav
329,192,130322,128,0,130421:0:0:0:35:C5S_s.wav
182,192,130421,128,0,130520:0:0:0:35:G#4S_Ab4S_s.wav
36,192,130520,128,0,130618:0:0:0:35:F4S_s.wav
182,192,130618,128,0,130717:0:0:0:35:G#4S_Ab4S_s.wav
475,192,130717,128,0,130816:0:0:0:35:F3S_s.wav
329,192,130816,128,0,130914:0:0:0:35:C3S_s.wav
402,192,130914,128,0,131013:0:0:0:35:G#3S_Ab3S_s.wav
475,192,131013,128,0,131112:0:0:0:52:E4S_s.wav
36,192,131112,128,0,131211:0:0:0:44:C4S_s.wav
182,192,131211,128,0,131309:0:0:0:44:E4S_s.wav
329,192,131309,128,0,131408:0:0:0:44:G4S_s.wav
475,192,131408,128,0,131507:0:0:0:44:A#4S_Bb4S_s.wav
402,192,131507,128,0,131605:0:0:0:44:G#4S_Ab4S_s.wav
329,192,131605,128,0,131704:0:0:0:44:G4S_s.wav
182,192,131704,128,0,131803:0:0:0:44:E4S_s.wav
109,192,131803,128,0,131901:0:0:0:44:C4S_s.wav
36,192,131901,128,0,132000:0:0:0:44:G3S_s.wav
182,192,132000,128,0,132099:0:0:0:44:C4S_s.wav
256,192,132099,128,0,132197:0:0:0:44:D4S_s.wav
329,192,132197,128,0,132296:0:0:0:44:E4S_s.wav
402,192,132296,128,0,132395:0:0:0:44:F4S_s.wav
475,192,132395,128,0,132493:0:0:0:44:G4S_s.wav
329,192,132493,128,0,132592:0:0:0:44:E4S_s.wav
182,192,132592,128,0,132691:0:0:0:35:C#4S_Db4S_s.wav
36,192,132691,128,0,132789:0:0:0:35:C4S_s.wav
256,192,132789,128,0,132888:0:0:0:35:A3S_s.wav
109,192,132888,128,0,132987:0:0:0:35:F3S_s.wav
36,192,132987,128,0,133086:0:0:0:35:F3S_s.wav
329,192,133086,128,0,133184:0:0:0:35:E4S_s.wav
182,192,133184,128,0,133283:0:0:0:35:C4S_s.wav
402,192,133283,128,0,133382:0:0:0:35:A4S_s.wav
475,192,133382,128,0,133480:0:0:0:35:C5S_s.wav
329,192,133480,128,0,133579:0:0:0:35:A4S_s.wav
182,192,133579,128,0,133678:0:0:0:35:F4S_s.wav
329,192,133678,128,0,133776:0:0:0:35:A4S_s.wav
402,192,133776,128,0,133875:0:0:0:35:A4S_s.wav
182,192,133875,128,0,133974:0:0:0:35:F4S_s.wav
109,192,133974,128,0,134072:0:0:0:35:C4S_s.wav
36,192,134072,128,0,134171:0:0:0:35:A4S_s.wav
256,192,134171,128,0,134270:0:0:0:35:A#3S_Bb3S_s.wav
402,192,134270,128,0,134368:0:0:0:35:C#4S_Db4S_s.wav
256,192,134368,128,0,134467:0:0:0:35:A#3S_Bb3S_s.wav
109,192,134467,128,0,134566:0:0:0:35:F3S_s.wav
256,192,134566,128,0,134664:0:0:0:35:A#3S_Bb3S_s.wav
109,192,134664,128,0,134763:0:0:0:35:F3S_s.wav
182,192,134763,128,0,134862:0:0:0:35:C#3S_Db3S_s.wav
109,192,134862,128,0,134961:0:0:0:35:F3S_s.wav
36,192,134961,128,0,135750:0:0:0:44:A#2S_Bb2S.wav
402,192,135750,128,0,135849:0:0:0:44:C#4S_Db4S_s.wav
109,192,135849,128,0,135947:0:0:0:44:C#3S_Db3S_s.wav
256,192,135947,128,0,136046:0:0:0:44:A#3S_Bb3S_s.wav
402,192,136046,128,0,136145:0:0:0:44:C#4S_Db4S_s.wav
475,192,136145,128,0,136243:0:0:0:44:G4S_s.wav
329,192,136243,128,0,136342:0:0:0:35:F4S_s.wav
182,192,136342,128,0,136441:0:0:0:35:E4S_s.wav
329,192,136441,128,0,136539:0:0:0:35:F4S_s.wav
182,192,136539,128,0,136638:0:0:0:35:E4S_s.wav
36,192,136638,128,0,136737:0:0:0:35:C4S_s.wav
475,192,136737,128,0,136836:0:0:0:35:C5S_s.wav
329,192,136836,128,0,136934:0:0:0:35:A#4S_Bb4S_s.wav
256,192,136934,128,0,137033:0:0:0:35:G#4S_Ab4S_s.wav
182,192,137033,128,0,137132:0:0:0:35:G4S_s.wav
109,192,137132,128,0,137230:0:0:0:35:F4S_s.wav
36,192,137230,128,0,137329:0:0:0:35:E4S_s.wav
109,192,137329,128,0,137428:0:0:0:35:F4S_s.wav
475,192,137428,128,0,137526:0:0:0:35:C4S_s.wav
329,192,137526,128,0,137625:0:0:0:35:G#3S_Ab3S_s.wav
475,192,137625,128,0,137724:0:0:0:35:C4S_s.wav
329,192,137724,128,0,137822:0:0:0:35:G#3S_Ab3S_s.wav
182,192,137822,128,0,137921:0:0:0:35:F3S_s.wav
329,192,137921,128,0,138020:0:0:0:35:G#3S_Ab3S_s.wav
182,192,138020,128,0,138118:0:0:0:35:F3S_s.wav
36,192,138118,128,0,138217:0:0:0:44:C3S_s.wav
182,192,138217,128,0,138316:0:0:0:44:F3S_s.wav
256,192,138316,128,0,138414:0:0:0:44:A#3S_Bb3S_s.wav
329,192,138414,128,0,138513:0:0:0:44:C#4S_Db4S_s.wav
475,192,138513,128,0,138612:0:0:0:44:F4S_s.wav
329,192,138612,128,0,138711:0:0:0:35:C#4S_Db4S_s.wav
475,192,138711,128,0,138809:0:0:0:35:F4S_s.wav
402,192,138809,128,0,138908:0:0:0:35:G#4S_Ab4S_s.wav
475,192,138908,128,0,139007:0:0:0:35:A#4S_Bb4S_s.wav
402,192,139007,128,0,139105:0:0:0:35:F4S_s.wav
329,192,139105,128,0,139204:0:0:0:35:C#4S_Db4S_s.wav
182,192,139204,128,0,139303:0:0:0:35:A#3S_Bb3S_s.wav
36,192,139303,128,0,139401:0:0:0:44:F3S_s.wav
109,192,139401,128,0,139500:0:0:0:44:C#3S_Db3S_s.wav
256,192,139500,128,0,139599:0:0:0:44:F3S_s.wav
402,192,139599,128,0,139697:0:0:0:44:A#3S_Bb3S_s.wav
475,192,139697,128,0,139796:0:0:0:44:B3S_s.wav
36,192,139796,128,0,139895:0:0:0:35:G3S_s.wav
182,192,139895,128,0,139993:0:0:0:35:B3S_s.wav
329,192,139993,128,0,140092:0:0:0:35:D4S_s.wav
402,192,140092,128,0,140191:0:0:0:35:G4S_s.wav
109,192,140191,128,0,140289:0:0:0:35:D4S_s.wav
256,192,140289,128,0,140388:0:0:0:35:G4S_s.wav
36,192,140388,128,0,140487:0:0:0:35:G5S_s.wav
475,192,140487,5,0,0:0:0:48:F5S_s.wav
402,192,140586,1,0,0:0:0:48:E5S_s.wav
329,192,140684,1,0,0:0:0:48:C5S_s.wav
256,192,140783,1,0,0:0:0:48:G4S_s.wav
402,192,140882,1,0,0:0:0:48:E5S_s.wav
329,192,140980,1,0,0:0:0:48:C5S_s.wav
256,192,141079,1,0,0:0:0:48:G4S_s.wav
182,192,141178,1,0,0:0:0:48:E4S_s.wav
329,192,141276,1,0,0:0:0:48:C5S_s.wav
256,192,141375,1,0,0:0:0:48:G4S_s.wav
182,192,141474,1,0,0:0:0:48:E4S_s.wav
109,192,141572,1,0,0:0:0:56:C4S_s.wav
182,192,141671,1,0,0:0:0:56:C#4S_Db4S.wav
256,192,141770,1,0,0:0:0:56:C4S_s.wav
182,192,141868,1,0,0:0:0:56:A#3S_Bb3S_s.wav
109,192,141967,1,0,0:0:0:56:G#3S_Ab3S_s.wav
36,192,142066,128,0,142461:0:0:0:56:F3S.wav
329,192,142066,128,0,142263:0:0:0:48:F4S.wav
329,192,142461,128,0,142658:0:0:0:48:F4S.wav
329,192,142855,128,0,143052:0:0:0:48:F4S.wav
329,192,143250,128,0,143447:0:0:0:48:F4S.wav
256,192,143645,128,0,143842:0:0:0:48:E4S.wav
256,192,144039,128,0,144237:0:0:0:48:E4S.wav
256,192,144434,128,0,144632:0:0:0:48:E4S.wav
256,192,144829,128,0,145026:0:0:0:48:E4S.wav
182,192,145224,128,0,145421:0:0:0:48:D#4S_Eb4S.wav
182,192,145618,128,0,145816:0:0:0:48:D#4S_Eb4S.wav
182,192,146013,128,0,146211:0:0:0:48:D#4S_Eb4S.wav
182,192,146408,128,0,146605:0:0:0:48:D#4S_Eb4S.wav
109,192,146803,128,0,147000:0:0:0:48:D4S.wav
109,192,147197,128,0,147395:0:0:0:48:D4S.wav
109,192,147592,128,0,147789:0:0:0:48:D4S.wav
109,192,147987,128,0,148184:0:0:0:48:D4S.wav
36,192,148382,128,0,148579:0:0:0:48:A#3S_Bb3S.wav
36,192,148776,128,0,148974:0:0:0:48:A#3S_Bb3S.wav
109,192,149171,128,0,149368:0:0:0:48:C4S.wav
109,192,149566,128,0,149763:0:0:0:48:C4S.wav
329,192,149961,128,0,150158:0:0:0:48:F4S.wav
329,192,150355,128,0,150553:0:0:0:48:F4S.wav
36,192,150750,128,0,150947:0:0:0:48:A#3S_Bb3S.wav
36,192,151145,128,0,151342:0:0:0:48:A#3S_Bb3S.wav
182,192,151539,1,0,0:0:0:62:C#3S_Db3S_s.wav
475,192,151539,1,0,0:0:0:62:C#4S_Db4S_s.wav
182,192,151737,1,0,0:0:0:62:C#3S_Db3S_s.wav
475,192,151737,1,0,0:0:0:62:C#4S_Db4S_s.wav
182,192,151934,1,0,0:0:0:62:C#3S_Db3S_s.wav
475,192,151934,1,0,0:0:0:62:C#4S_Db4S_s.wav
182,192,152132,1,0,0:0:0:62:C#3S_Db3S_s.wav
475,192,152132,1,0,0:0:0:62:C#4S_Db4S_s.wav
182,192,152329,1,0,0:0:0:62:C#3S_Db3S_s.wav
475,192,152329,1,0,0:0:0:62:C#4S_Db4S_s.wav
182,192,152526,1,0,0:0:0:62:C#3S_Db3S_s.wav
475,192,152526,1,0,0:0:0:62:C#4S_Db4S_s.wav
182,192,152724,1,0,0:0:0:62:C#3S_Db3S_s.wav
475,192,152724,1,0,0:0:0:62:C#4S_Db4S_s.wav
182,192,152921,1,0,0:0:0:62:C#3S_Db3S_s.wav
475,192,152921,1,0,0:0:0:62:C#4S_Db4S_s.wav
329,192,153118,128,0,153513:0:0:0:55:C4S.wav
36,192,154697,1,0,0:0:0:50:G#6S_Ab6S_s.wav
182,192,154796,1,0,0:0:0:50:G#6S_Ab6S_s.wav
329,192,154895,1,0,0:0:0:50:G#6S_Ab6S_s.wav
475,192,155092,1,0,0:0:0:50:G#6S_Ab6S_s.wav
329,192,155191,1,0,0:0:0:50:G#6S_Ab6S_s.wav
182,192,155289,1,0,0:0:0:50:G#6S_Ab6S_s.wav
36,192,155487,1,0,0:0:0:50:G#6S_Ab6S_s.wav
182,192,155586,1,0,0:0:0:50:G#6S_Ab6S_s.wav
329,192,155684,1,0,0:0:0:50:G#6S_Ab6S_s.wav
402,192,155882,1,0,0:0:0:50:C6S_s.wav
256,192,155980,1,0,0:0:0:50:C6S_s.wav
109,192,156079,1,0,0:0:0:50:C6S_s.wav
475,192,156276,1,0,0:0:0:50:C#6S_Db6S_s.wav
329,192,156375,1,0,0:0:0:50:C#6S_Db6S_s.wav
182,192,156474,1,0,0:0:0:50:C#6S_Db6S_s.wav
475,192,156671,1,0,0:0:0:50:C#6S_Db6S_s.wav
329,192,156770,1,0,0:0:0:50:C#6S_Db6S_s.wav
182,192,156869,1,0,0:0:0:50:C#6S_Db6S_s.wav
36,192,157066,1,0,0:0:0:50:C7S_s.wav
256,192,157164,1,0,0:0:0:50:C7S_s.wav
402,192,157263,1,0,0:0:0:50:C7S_s.wav
109,192,157461,1,0,0:0:0:50:C7S_s.wav
329,192,157559,1,0,0:0:0:50:C7S_s.wav
475,192,157658,1,0,0:0:0:50:C7S_s.wav
36,192,157855,1,0,0:0:0:50:C7S_s.wav
256,192,157953,1,0,0:0:0:50:C7S_s.wav
402,192,158052,1,0,0:0:0:50:C7S_s.wav
109,192,158250,1,0,0:0:0:50:C7S_s.wav
329,192,158348,1,0,0:0:0:50:C7S_s.wav
475,192,158447,1,0,0:0:0:50:C7S_s.wav
36,192,158645,1,0,0:0:0:50:C7S_s.wav
256,192,158743,1,0,0:0:0:50:C7S_s.wav
402,192,158842,1,0,0:0:0:50:C7S_s.wav
109,192,159434,1,0,0:0:0:50:G6S_s.wav
402,192,159533,1,0,0:0:0:50:G6S_s.wav
182,192,159632,1,0,0:0:0:50:G6S_s.wav
36,192,159829,1,0,0:0:0:50:G6S_s.wav
329,192,159928,1,0,0:0:0:50:G6S_s.wav
109,192,160026,1,0,0:0:0:50:G6S_s.wav
182,192,160224,1,0,0:0:0:50:G6S_s.wav
475,192,160322,1,0,0:0:0:50:G6S_s.wav
256,192,160421,1,0,0:0:0:50:G6S_s.wav
402,192,161013,1,0,0:0:0:35:C7S_s.wav
256,192,161112,1,0,0:0:0:35:C7S_s.wav
109,192,161211,1,0,0:0:0:35:C7S_s.wav
475,192,161408,1,0,0:0:0:35:C7S_s.wav
329,192,161507,1,0,0:0:0:35:C7S_s.wav
182,192,161605,1,0,0:0:0:35:C7S_s.wav
402,192,161803,1,0,0:0:0:35:C7S_s.wav
256,192,161901,1,0,0:0:0:35:C7S_s.wav
109,192,162000,1,0,0:0:0:35:C7S_s.wav
329,192,162197,1,0,0:0:0:35:C7S_s.wav
182,192,162296,1,0,0:0:0:35:C7S_s.wav
36,192,162395,1,0,0:0:0:35:C7S_s.wav
402,192,162592,1,0,0:0:0:35:C7S_s.wav
256,192,162691,1,0,0:0:0:35:C7S_s.wav
109,192,162789,1,0,0:0:0:35:C7S_s.wav
475,192,162987,1,0,0:0:0:35:C7S_s.wav
329,192,163086,1,0,0:0:0:35:C7S_s.wav
182,192,163184,1,0,0:0:0:35:C7S_s.wav
402,192,163382,1,0,0:0:0:35:C7S_s.wav
256,192,163480,1,0,0:0:0:35:C7S_s.wav
109,192,163579,1,0,0:0:0:35:C7S_s.wav
182,192,164171,1,0,0:0:0:50:G6S_s.wav
329,192,164270,1,0,0:0:0:50:G6S_s.wav
182,192,164368,1,0,0:0:0:50:G6S_s.wav
109,192,164566,1,0,0:0:0:50:G6S_s.wav
402,192,164664,1,0,0:0:0:50:G6S_s.wav
109,192,164763,1,0,0:0:0:50:G6S_s.wav
182,192,164961,1,0,0:0:0:50:G6S_s.wav
329,192,165059,1,0,0:0:0:50:G6S_s.wav
182,192,165158,1,0,0:0:0:50:G6S_s.wav
109,192,165355,1,0,0:0:0:50:G6S_s.wav
402,192,165454,1,0,0:0:0:50:G6S_s.wav
109,192,165553,1,0,0:0:0:50:G6S_s.wav
182,192,165750,1,0,0:0:0:50:D#6S_Eb6S_s.wav
182,192,165849,1,0,0:0:0:50:D#6S_Eb6S_s.wav
182,192,165947,1,0,0:0:0:50:D#6S_Eb6S_s.wav
329,192,166145,1,0,0:0:0:50:D#6S_Eb6S_s.wav
329,192,166243,1,0,0:0:0:50:D#6S_Eb6S_s.wav
329,192,166342,1,0,0:0:0:50:D#6S_Eb6S_s.wav
109,192,166539,1,0,0:0:0:50:D#6S_Eb6S_s.wav
109,192,166638,1,0,0:0:0:50:D#6S_Eb6S_s.wav
109,192,166737,1,0,0:0:0:50:D#6S_Eb6S_s.wav
36,192,167329,1,0,0:0:0:40:C7S_s.wav
109,192,167428,1,0,0:0:0:40:C7S_s.wav
182,192,167526,1,0,0:0:0:40:C7S_s.wav
475,192,167724,1,0,0:0:0:40:C7S_s.wav
402,192,167822,1,0,0:0:0:40:C7S_s.wav
329,192,167921,1,0,0:0:0:40:C7S_s.wav
36,192,168118,1,0,0:0:0:40:C7S_s.wav
109,192,168217,1,0,0:0:0:40:C7S_s.wav
182,192,168316,1,0,0:0:0:40:C7S_s.wav
475,192,168513,1,0,0:0:0:40:C7S_s.wav
402,192,168612,1,0,0:0:0:40:C7S_s.wav
329,192,168711,1,0,0:0:0:40:C7S_s.wav
36,192,168908,1,0,0:0:0:40:C7S_s.wav
109,192,169007,1,0,0:0:0:40:C7S_s.wav
182,192,169106,1,0,0:0:0:40:C7S_s.wav
475,192,169303,1,0,0:0:0:40:C7S_s.wav
402,192,169402,1,0,0:0:0:40:C7S_s.wav
329,192,169501,1,0,0:0:0:40:C7S_s.wav
36,192,169697,1,0,0:0:0:40:C7S_s.wav
109,192,169796,1,0,0:0:0:40:C7S_s.wav
182,192,169895,1,0,0:0:0:40:C7S_s.wav
475,192,170487,1,0,0:0:0:40:F7S_s.wav
329,192,170586,1,0,0:0:0:40:F7S_s.wav
182,192,170684,1,0,0:0:0:40:F7S_s.wav
36,192,170882,1,0,0:0:0:40:D#7S_Eb7S_s.wav
182,192,170980,1,0,0:0:0:40:D#7S_Eb7S_s.wav
329,192,171079,1,0,0:0:0:40:D#7S_Eb7S_s.wav
475,192,171276,1,0,0:0:0:40:C7S_s.wav
329,192,171375,1,0,0:0:0:40:C7S_s.wav
182,192,171474,1,0,0:0:0:40:C7S_s.wav
36,192,171671,1,0,0:0:0:40:A#6S_Bb6S_s.wav
182,192,171770,1,0,0:0:0:40:A#6S_Bb6S_s.wav
329,192,171868,1,0,0:0:0:40:A#6S_Bb6S_s.wav
475,192,172066,1,0,0:0:0:40:C7S_s.wav
329,192,172165,1,0,0:0:0:40:C7S_s.wav
182,192,172264,1,0,0:0:0:40:C7S_s.wav
36,192,172461,5,0,0:0:0:40:A#6S_Bb6S_s.wav
182,192,172560,1,0,0:0:0:40:A#6S_Bb6S_s.wav
329,192,172658,1,0,0:0:0:40:A#6S_Bb6S_s.wav
256,192,173645,5,0,0:0:0:90:C3S.wav
36,192,173645,1,0,0:0:0:45:G3S_s.wav
475,192,173645,1,0,0:0:0:45:C4S_s.wav
36,192,173842,1,0,0:0:0:45:G3S_s.wav
475,192,173842,1,0,0:0:0:45:C4S_s.wav
36,192,174039,1,0,0:0:0:45:G3S_s.wav
475,192,174039,1,0,0:0:0:45:C4S_s.wav
36,192,174237,1,0,0:0:0:66:G3S_s.wav
475,192,174237,1,0,0:0:0:66:C4S_s.wav
36,192,174434,1,0,0:0:0:66:G3S_s.wav
475,192,174434,1,0,0:0:0:66:C4S_s.wav
256,192,174434,1,0,0:0:0:90:C3S.wav
475,192,174631,1,0,0:0:0:66:C4S_s.wav
36,192,174631,1,0,0:0:0:66:G3S_s.wav
475,192,174829,1,0,0:0:0:66:C4S_s.wav
36,192,174829,1,0,0:0:0:66:G3S_s.wav
475,192,175026,1,0,0:0:0:66:C4S_s.wav
36,192,175026,1,0,0:0:0:66:G3S_s.wav
256,192,175224,1,0,0:0:0:90:C3S.wav
109,192,175224,1,0,0:0:0:45:G#3S_Ab3S_s.wav
402,192,175224,1,0,0:0:0:45:C4S_s.wav
109,192,175421,1,0,0:0:0:45:G#3S_Ab3S_s.wav
402,192,175421,1,0,0:0:0:45:C4S_s.wav
109,192,175618,1,0,0:0:0:45:G#3S_Ab3S_s.wav
402,192,175618,1,0,0:0:0:45:C4S_s.wav
109,192,175816,1,0,0:0:0:45:G#3S_Ab3S_s.wav
402,192,175816,1,0,0:0:0:45:C4S_s.wav
256,192,176013,1,0,0:0:0:90:C3S.wav
109,192,176013,1,0,0:0:0:45:G#3S_Ab3S_s.wav
402,192,176013,1,0,0:0:0:45:C4S_s.wav
109,192,176211,1,0,0:0:0:45:G#3S_Ab3S_s.wav
402,192,176211,1,0,0:0:0:45:C4S_s.wav
109,192,176408,1,0,0:0:0:45:G#3S_Ab3S_s.wav
402,192,176408,1,0,0:0:0:45:C4S_s.wav
109,192,176605,1,0,0:0:0:45:G#3S_Ab3S_s.wav
402,192,176605,1,0,0:0:0:45:C4S_s.wav
256,192,176803,1,0,0:0:0:90:C3S.wav
36,192,176803,1,0,0:0:0:45:A#3S_Bb3S_s.wav
475,192,176803,1,0,0:0:0:45:C4S_s.wav
109,192,176901,1,0,0:0:0:45:A#3S_Bb3S_s.wav
402,192,176901,1,0,0:0:0:45:C4S_s.wav
182,192,177000,1,0,0:0:0:45:A#3S_Bb3S_s.wav
329,192,177000,1,0,0:0:0:45:C4S_s.wav
475,192,177099,1,0,0:0:0:45:C4S_s.wav
36,192,177099,1,0,0:0:0:45:A#3S_Bb3S_s.wav
402,192,177197,1,0,0:0:0:45:C4S_s.wav
109,192,177197,1,0,0:0:0:45:A#3S_Bb3S_s.wav
329,192,177296,1,0,0:0:0:45:C4S_s.wav
182,192,177296,1,0,0:0:0:45:A#3S_Bb3S_s.wav
36,192,177395,1,0,0:0:0:45:A#3S_Bb3S_s.wav
475,192,177395,1,0,0:0:0:45:C4S_s.wav
109,192,177493,1,0,0:0:0:45:A#3S_Bb3S_s.wav
402,192,177493,1,0,0:0:0:45:C4S_s.wav
256,192,177592,1,0,0:0:0:90:C3S.wav
182,192,177592,1,0,0:0:0:45:A#3S_Bb3S_s.wav
329,192,177592,1,0,0:0:0:45:C4S_s.wav
475,192,177691,1,0,0:0:0:45:C4S_s.wav
36,192,177691,1,0,0:0:0:45:A#3S_Bb3S_s.wav
402,192,177789,1,0,0:0:0:45:C4S_s.wav
109,192,177789,1,0,0:0:0:45:A#3S_Bb3S_s.wav
329,192,177888,1,0,0:0:0:45:C4S_s.wav
182,192,177888,1,0,0:0:0:45:A#3S_Bb3S_s.wav
475,192,177987,1,0,0:0:0:45:C4S_s.wav
36,192,177987,1,0,0:0:0:45:A#3S_Bb3S_s.wav
402,192,178086,1,0,0:0:0:45:C4S_s.wav
109,192,178086,1,0,0:0:0:45:A#3S_Bb3S_s.wav
329,192,178184,1,0,0:0:0:45:C4S_s.wav
182,192,178184,1,0,0:0:0:45:A#3S_Bb3S_s.wav
475,192,178283,1,0,0:0:0:45:C4S_s.wav
36,192,178283,1,0,0:0:0:45:A#3S_Bb3S_s.wav
402,192,178382,1,0,0:0:0:45:C4S_s.wav
109,192,178382,1,0,0:0:0:45:A#3S_Bb3S_s.wav
182,192,178480,1,0,0:0:0:45:C3S_s.wav
329,192,178480,1,0,0:0:0:45:C4S_s.wav
109,192,178579,1,0,0:0:0:45:C3S_s.wav
402,192,178579,1,0,0:0:0:45:C4S_s.wav
36,192,178678,1,0,0:0:0:45:C3S_s.wav
475,192,178678,1,0,0:0:0:45:C4S_s.wav
182,192,178776,1,0,0:0:0:45:C3S_s.wav
329,192,178776,1,0,0:0:0:45:C4S_s.wav
109,192,178875,1,0,0:0:0:45:C3S_s.wav
402,192,178875,1,0,0:0:0:45:C4S_s.wav
36,192,178974,1,0,0:0:0:45:C3S_s.wav
475,192,178974,1,0,0:0:0:45:C4S_s.wav
182,192,179072,1,0,0:0:0:45:C3S_s.wav
329,192,179072,1,0,0:0:0:45:C4S_s.wav
109,192,179171,1,0,0:0:0:45:C3S_s.wav
402,192,179171,1,0,0:0:0:45:C4S_s.wav
36,192,179270,1,0,0:0:0:45:C3S_s.wav
475,192,179270,1,0,0:0:0:45:C4S_s.wav
182,192,179368,1,0,0:0:0:45:C3S_s.wav
329,192,179368,1,0,0:0:0:45:C4S_s.wav
109,192,179467,1,0,0:0:0:45:C3S_s.wav
402,192,179467,1,0,0:0:0:45:C4S_s.wav
36,192,179566,1,0,0:0:0:45:C3S_s.wav
475,192,179566,1,0,0:0:0:45:C4S_s.wav
182,192,179664,1,0,0:0:0:45:C3S_s.wav
329,192,179664,1,0,0:0:0:45:C4S_s.wav
109,192,179763,1,0,0:0:0:45:C3S_s.wav
402,192,179763,1,0,0:0:0:45:C4S_s.wav
36,192,179862,1,0,0:0:0:45:C3S_s.wav
475,192,179862,1,0,0:0:0:45:C4S_s.wav
256,192,181145,128,0,181244:0:0:0:0:
329,192,181244,128,0,181343:0:0:0:0:
182,192,181244,128,0,181343:0:0:0:0:
256,192,181343,128,0,181441:0:0:0:0:
109,192,181343,128,0,181441:0:0:0:0:
402,192,181343,128,0,181441:0:0:0:0:
329,192,181441,128,0,181540:0:0:0:0:
475,192,181441,128,0,181540:0:0:0:0:
182,192,181441,128,0,181540:0:0:0:0:
36,192,181441,128,0,181540:0:0:0:0:
256,192,181540,128,0,181639:0:0:0:0:
109,192,181540,128,0,181639:0:0:0:0:
402,192,181540,128,0,181639:0:0:0:0:
475,192,181639,128,0,181737:0:0:0:0:
329,192,181639,128,0,181737:0:0:0:0:
36,192,181639,128,0,181737:0:0:0:0:
182,192,181639,128,0,181737:0:0:0:0:
109,192,181737,128,0,181836:0:0:0:0:
402,192,181737,128,0,181836:0:0:0:0:
256,192,183118,128,0,183348:0:0:0:0:
475,192,183118,128,0,183249:0:0:0:0:
109,192,183118,128,0,183183:0:0:0:0:
36,192,183118,128,0,183249:0:0:0:0:
402,192,183118,128,0,183183:0:0:0:0:
329,192,183118,128,0,183315:0:0:0:0:
182,192,183118,128,0,183315:0:0:0:0:
36,192,183414,128,0,183710:0:0:0:0:
475,192,183414,128,0,183512:0:0:0:0:
109,192,183479,128,0,183611:0:0:0:0:
402,192,183479,128,0,183611:0:0:0:0:
256,192,183479,128,0,183841:0:0:0:0:
182,192,183512,128,0,183611:0:0:0:0:
329,192,183512,128,0,183611:0:0:0:0:
475,192,183611,128,0,183710:0:0:0:0:
329,192,183710,128,0,184104:0:0:0:0:
182,192,183710,128,0,184104:0:0:0:0:
402,192,183808,128,0,184203:0:0:0:0:
109,192,183808,128,0,184203:0:0:0:0:
36,192,183907,128,0,184104:0:0:0:0:
256,192,183907,128,0,184006:0:0:0:0:
475,192,183907,128,0,184104:0:0:0:0:
402,192,184302,1,0,0:0:0:0:
109,192,184302,1,0,0:0:0:0:
182,192,185092,128,0,185191:0:0:0:0:
475,192,185092,128,0,185487:0:0:0:0:
36,192,185092,128,0,185487:0:0:0:0:
109,192,185092,128,0,185783:0:0:0:0:
329,192,185092,128,0,185191:0:0:0:0:
402,192,185092,128,0,185783:0:0:0:0:
256,192,185092,1,0,0:0:0:0:
256,192,185191,128,0,185487:0:0:0:0:
329,192,185290,128,0,185586:0:0:0:0:
182,192,185290,128,0,185586:0:0:0:0:
