osu file format v13

[General]
AudioFilename: L Ascension Act2 by ICE.mp3
AudioLeadIn: 0
PreviewTime: 64162
Countdown: 0
SampleSet: Soft
StackLeniency: 0.9
Mode: 3
LetterboxInBreaks: 0
SpecialStyle: 0
WidescreenStoryboard: 1

[Editor]
Bookmarks: 1693,14526,20032,39580,51774,64258,83999,91695,97598,103791,117001,117049,128130,142211,154791
DistanceSpacing: 0.8
BeatDivisor: 4
GridSize: 8
TimelineZoom: 1.1

[Metadata]
Title:L2 - Ascension : Act 2 (Liberation)
TitleUnicode:L青 - Liberation
Artist:Ice
ArtistUnicode:Ice
Creator:LordRaika
Version:Perfection (6K EX)
Source:Cytus
Tags:Iceloki Instrumental Piano Violin CoroQuetz Okoratu Fullerene- lZenxl CLSW Expew Kurokami DjNightmare
BeatmapID:453743
BeatmapSetID:123760

[Difficulty]
HPDrainRate:8.5
CircleSize:6
OverallDifficulty:8.5
ApproachRate:10
SliderMultiplier:2.99999990463257
SliderTickRate:4

[Events]
//Background and Video events
0,0,"L2.jpg",0,0
//Break Periods
//Storyboard Layer 0 (Background)
//Storyboard Layer 1 (Fail)
//Storyboard Layer 2 (Pass)
//Storyboard Layer 3 (Foreground)
Sprite,Foreground,Centre,"Resource\My Icon EX.png",320,240 M,0,-38,,617,403 S,0,-38,,0.7678357 F,0,-38,179961,1 F,0,179961,187165,1,0
Sprite,Foreground,Centre,"Resource\lZenxl.png",320,240 F,0,179961,180355,0,1 M,0,180355,,567,258 S,0,180355,,0.7789087 F,0,180355,186671,1 F,0,186671,187165,1,0
Sprite,Foreground,Centre,"Resource\LordRaika.png",320,240 F,0,179961,180355,0,1 M,0,180355,,573,179 S,0,180355,,0.7789087 F,0,180355,186671,1 F,0,186671,187165,1,0
//Storyboard Sound Samples
Sample,1540,0,"C#4S_Db4S.wav",50
Sample,6276,0,"E4S.wav",33
Sample,7855,0,"F4S.wav",50
Sample,8645,0,"G4S.wav",50
Sample,9434,0,"G#4S_Ab4S.wav",40
Sample,13382,0,"F3S.wav",40
Sample,20487,0,"G#4S_Ab4S.wav",40
Sample,20487,0,"F4S.wav",40
Sample,22066,0,"A#3S_Bb3S.wav",40
Sample,22066,0,"A#3S_Bb3S.wav",40
Sample,22066,0,"F3S.wav",40
Sample,22066,0,"C#4S_Db4S.wav",40
Sample,22461,0,"G#5S_Ab5S.wav",50
Sample,22855,0,"A#5S_Bb5S.wav",50
Sample,23250,0,"C#6S_Db6S.wav",50
Sample,23645,0,"E4S.wav",33
Sample,23645,0,"C6S.wav",50
Sample,23645,0,"C4S.wav",33
Sample,23645,0,"G4S.wav",33
Sample,26803,0,"F4S.wav",60
//Background Colour Transformations
3,100,163,162,255

[TimingPoints]
1540,394.736842105263,4,2,1,5,1,0
1541,-142.857142857143,4,2,0,5,0,0
7855,-166.666666666667,4,2,0,5,0,0
8646,-142.857142857143,4,2,0,5,0,0
9434,-166.666666666667,4,2,0,5,0,0
11013,-131.578947368421,4,2,0,5,0,0
19896,-107.52688172043,4,2,0,5,0,0
20487,-107.52688172043,4,1,0,12,0,0
20586,-107.52688172043,4,2,0,5,0,0
22066,-107.52688172043,4,1,0,12,0,0
22164,-107.52688172043,4,2,0,5,0,0
23645,-107.52688172043,4,1,0,9,0,0
24434,-166.666666666667,4,1,0,18,0,0
24484,-113.636363636364,4,2,0,5,0,0
25224,-133.333333333333,4,1,0,18,0,0
25273,-113.636363636364,4,2,0,5,0,0
26754,-100,4,1,2,18,0,0
39434,-133.333333333333,4,1,1,9,0,0
39485,-100,4,2,0,18,0,0
52067,-133.333333333333,4,1,0,40,0,0
52116,-100,4,2,0,5,0,0
64697,-133.333333333333,4,1,0,12,0,0
64748,-100,4,2,0,5,0,0
71013,-133.333333333333,4,1,1,12,0,0
71063,-100,4,2,0,5,0,0
72592,-133.333333333333,4,1,0,12,0,0
72642,-100,4,2,0,5,0,0
74171,-133.333333333333,4,1,0,12,0,0
74221,-100,4,2,0,5,0,0
74961,-133.333333333333,4,1,0,18,0,0
75011,-100,4,2,0,5,0,0
75750,-133.333333333333,4,1,0,12,0,0
75800,-100,4,2,0,5,0,0
77329,-119.047619047619,4,2,0,5,0,0
77428,-108.695652173913,4,2,1,5,0,0
77526,-100,4,1,2,9,0,1
78809,-108.695652173913,4,2,1,5,0,1
78908,-119.047619047619,4,2,0,18,0,1
79007,-108.695652173913,4,2,1,5,0,1
79106,-100,4,1,0,12,0,1
80388,-108.695652173913,4,2,1,5,0,1
80487,-119.047619047619,4,3,0,22,0,1
80586,-108.695652173913,4,2,1,5,0,1
80684,-100,4,1,2,9,0,1
81967,-108.695652173913,4,2,1,5,0,1
82066,-119.047619047619,4,1,0,5,0,1
82165,-108.695652173913,4,2,1,5,0,1
82263,-100,4,1,0,9,0,1
83254,-104.166666666667,4,1,0,9,0,1
83300,-100,4,2,1,5,0,1
83350,-104.166666666667,4,1,0,9,0,1
83399,-100,4,2,1,5,0,1
83448,-104.166666666667,4,1,0,9,0,1
83498,-100,4,2,1,5,0,1
83547,-104.166666666667,4,1,0,9,0,1
83596,-100,4,2,1,5,0,1
83645,-100,4,1,0,12,0,1
83743,-100,4,2,0,5,0,1
85224,-151.515151515152,4,1,0,12,0,1
85266,-100,4,2,0,5,0,1
86803,-151.515151515152,4,1,0,12,0,1
86843,-100,4,2,1,5,0,1
87001,-100,4,3,0,20,0,1
87050,-100,4,2,1,5,0,1
87198,-100,4,3,0,20,0,1
87248,-100,4,2,1,5,0,1
87396,-100,4,3,0,20,0,1
87445,-100,4,2,1,5,0,1
87593,-151.515151515152,4,1,0,18,0,1
87642,-100,4,2,1,5,0,1
87790,-100,4,3,0,20,0,1
87840,-100,4,2,1,5,0,1
87988,-100,4,3,0,20,0,1
88037,-100,4,2,1,5,0,1
88184,-100,4,3,0,20,0,1
88234,-100,4,1,1,9,0,1
88382,-153.846153846154,4,1,0,9,0,0
89171,-138.888888888889,4,2,0,5,0,0
89961,-126.582278481013,4,2,0,5,0,0
90751,-116.279069767442,4,2,0,5,0,0
91145,-107.52688172043,4,2,0,5,0,0
91540,-151.515151515152,4,1,0,9,0,0
91589,-100,4,2,0,5,0,0
97263,-100,4,2,0,33,0,1
97855,-166.666666666667,4,1,1,12,0,1
97906,-100,4,2,0,33,0,1
98645,-166.666666666667,4,1,0,12,0,1
98695,-100,4,2,0,33,0,1
99435,-166.666666666667,4,1,0,12,0,1
99485,-100,4,2,0,33,0,1
100224,-166.666666666667,4,1,0,12,0,1
100274,-100,4,2,0,33,0,1
101013,-166.666666666667,4,1,0,12,0,1
101064,-100,4,2,0,33,0,1
101803,-270.27027027027,4,1,0,12,0,1
101853,-100,4,2,0,16,0,1
102592,-270.27027027027,4,1,0,12,0,1
102642,-100,4,3,0,12,0,1
103480,-100,4,3,0,18,0,1
104172,-151.515151515152,4,1,0,12,0,1
104221,-100,4,2,0,5,0,1
110488,-166.666666666667,4,1,0,12,0,1
110537,-100,4,2,0,5,0,1
112067,-166.666666666667,4,1,0,10,0,1
112116,-100,4,2,0,5,0,1
113646,-166.666666666667,4,1,0,10,0,1
113695,-100,4,2,0,5,0,1
114434,-166.666666666667,4,1,0,12,0,1
114485,-100,4,2,0,5,0,1
115224,-105.263157894737,4,1,0,14,0,1
115289,-100,4,2,0,7,0,1
116803,-166.666666666667,4,1,0,18,0,1
116853,-100,4,2,0,5,0,1
123118,-166.666666666667,4,1,0,12,0,1
123169,-100,4,2,0,5,0,1
124697,-166.666666666667,4,1,0,12,0,1
124748,-100,4,2,0,5,0,1
126277,-129.87012987013,4,1,0,12,0,1
126326,-100,4,2,0,5,0,1
127067,-129.87012987013,4,1,0,16,0,1
127116,-100,4,2,0,5,0,1
127855,-142.857142857143,4,1,0,12,0,0
127905,-100,4,2,0,7,0,0
135750,-151.515151515152,4,1,0,12,0,0
135800,-100,4,2,0,7,0,0
137329,-151.515151515152,4,1,0,12,0,0
137379,-100,4,2,0,7,0,0
138908,-151.515151515152,4,1,0,12,0,0
138958,-100,4,2,0,7,0,0
139697,-151.515151515152,4,1,0,12,0,0
139748,-100,4,2,0,5,0,0
140487,-125,4,1,0,12,0,1
140520,-100,4,2,0,5,0,1
142066,-151.515151515152,4,1,0,12,0,1
142116,-100,4,2,0,5,0,1
148382,-151.515151515152,4,1,0,12,0,1
148432,-100,4,2,0,5,0,1
149961,-151.515151515152,4,1,0,12,0,1
150011,-100,4,2,0,5,0,1
151540,-161.290322580645,4,1,0,18,0,1
151590,-100,4,2,0,5,0,1
152330,-161.290322580645,4,1,0,18,0,1
152373,-100,4,2,0,5,0,1
153119,-142.857142857143,4,1,0,9,0,0
153168,-142.857142857143,4,2,0,5,0,0
153908,-121.951219512195,4,2,0,5,0,0
154007,-107.52688172043,4,2,1,5,0,0
154105,-90.0900900900901,4,2,1,5,0,0
154303,-100,4,2,1,5,0,0
154401,-111.111111111111,4,2,1,5,0,0
154500,-120.481927710843,4,2,1,5,0,0
154698,-100,4,1,0,12,0,0
161013,-105.263157894737,4,1,0,9,0,0
161112,-100,4,2,0,15,0,0
167329,-105.263157894737,4,1,0,9,0,0
167428,-100,4,2,0,12,0,0
173646,-100,4,1,0,11,0,0
176803,-100,4,1,0,22,0,0
178678,-105.263157894737,4,2,0,5,0,0
179123,-114.942528735632,4,2,0,5,0,0
179517,-126.582278481013,4,2,0,5,0,0
179898,-166.666666666667,4,1,0,22,0,0
180009,-200,4,2,1,5,0,0
180258,-250,4,2,1,5,0,0
180751,-333.333333333333,4,2,1,5,0,0

[Colours]
Combo1 : 3,111,241
Combo2 : 2,21,253

[HitObjects]
182,192,1540,5,2,0:0:0:55:C#5S_Db5S.wav
32,192,1540,128,2,4697:0:0:0:50:C#3S_Db3S.wav
109,192,1934,1,0,0:0:0:55:C5S.wav
182,192,2329,1,0,0:0:0:55:C#5S_Db5S.wav
288,192,2724,1,0,0:0:0:60:D#5S_Eb5S.wav
352,192,3118,1,2,0:0:0:60:F5S.wav
298,192,3908,1,0,0:0:0:70:G5S.wav
384,192,4303,1,0,0:0:0:70:G#5S_Ab5S.wav
298,192,4697,128,2,6276:0:0:0:50:D#4S_Eb4S.wav
469,192,4697,1,0,0:0:0:75:G5S.wav
96,192,4697,128,2,6276:0:0:0:50:D#3S_Eb3S.wav
42,192,5487,1,0,0:0:0:60:C5S.wav
480,192,6276,1,0,0:0:0:75:C6S.wav
182,192,6276,128,2,7855:0:0:0:50:E3S.wav
416,192,6671,1,0,0:0:0:70:A#5S_Bb5S.wav
298,192,7066,1,0,0:0:0:70:G#5S_Ab5S.wav
469,192,7461,1,0,0:0:0:70:G5S.wav
352,192,7855,128,0,8908:0:0:0:70:G#5S_Ab5S.wav
36,192,7855,128,2,8645:0:0:0:50:F3S.wav
109,192,8645,128,2,9434:0:0:0:50:G3S.wav
475,192,8908,1,2,0:0:0:70:G5S.wav
402,192,9171,1,2,0:0:0:70:F5S.wav
329,192,9434,128,0,11013:0:0:0:75:C5S.wav
182,192,9434,128,2,11013:0:0:0:50:G#3S_Ab3S.wav
42,192,11013,1,2,0:0:0:33:A4S_s.wav
480,192,11013,128,2,11211:0:0:0:33:A4S_s.wav
416,192,11211,128,2,11408:0:0:0:33:F4S_s.wav
128,192,11211,1,2,0:0:0:33:F4S_s.wav
298,192,11408,128,2,11605:0:0:0:33:C4S_s.wav
213,192,11408,1,2,0:0:0:33:C4S_s.wav
384,192,11605,128,2,11803:0:0:0:33:A3S_s.wav
128,192,11605,1,2,0:0:0:33:A3S_s.wav
469,192,11803,128,2,12000:0:0:0:33:F4S_s.wav
42,192,11803,1,2,0:0:0:33:F4S_s.wav
128,192,12000,1,2,0:0:0:33:C4S_s.wav
352,192,12000,128,2,12197:0:0:0:33:C4S_s.wav
213,192,12197,1,2,0:0:0:33:A3S_s.wav
256,192,12197,128,2,12395:0:0:0:33:A3S_s.wav
128,192,12395,128,2,12987:0:0:0:33:F3S_s.wav
384,192,12395,128,2,12987:0:0:0:33:F3S_s.wav
42,192,12592,1,0,0:0:0:23:F2S.wav
469,192,12592,1,0,0:0:0:23:F2S.wav
32,192,13382,128,2,13776:0:0:0:40:C4S.wav
213,192,13382,1,2,0:0:0:70:C5S.wav
160,192,13382,128,2,13776:0:0:0:40:D#4S_Eb4S.wav
298,192,13645,1,0,0:0:0:50:C#5S_Db5S.wav
416,192,13908,1,0,0:0:0:50:D#5S_Eb5S.wav
96,192,14171,128,2,14566:0:0:0:50:A#3S_Bb3S.wav
224,192,14171,128,2,14566:0:0:0:50:C#4S_Db4S.wav
469,192,14171,1,2,0:0:0:75:C#5S_Db5S.wav
384,192,14566,1,0,0:0:0:75:C6S.wav
298,192,14961,1,0,0:0:0:70:A#5S_Bb5S.wav
352,192,15355,1,0,0:0:0:70:G#5S_Ab5S.wav
32,192,15750,128,2,16145:0:0:0:50:C4S.wav
469,192,15750,1,0,0:0:0:77:G#5S_Ab5S.wav
182,192,15750,128,2,16145:0:0:0:40:E4S.wav
384,192,16145,1,0,0:0:0:70:G5S.wav
256,192,16803,1,0,0:0:0:70:G5S.wav
384,192,17066,1,0,0:0:0:70:G#5S_Ab5S.wav
96,192,17329,128,2,17724:0:0:0:50:E3S.wav
224,192,17329,128,2,17724:0:0:0:50:C4S.wav
469,192,17329,1,0,0:0:0:77:A#5S_Bb5S.wav
384,192,17724,1,0,0:0:0:70:C#6S_Db6S.wav
298,192,18118,1,0,0:0:0:70:C6S.wav
182,192,18513,1,0,0:0:0:70:G5S.wav
384,192,18908,1,0,0:0:0:77:A#5S_Bb5S.wav
128,192,18908,128,2,19303:0:0:0:50:C4S.wav
32,192,18908,128,2,19303:0:0:0:50:F3S.wav
256,192,19303,1,0,0:0:0:70:G#5S_Ab5S.wav
288,192,19895,1,2,0:0:0:50:C6S.wav
32,192,19896,128,2,20093:0:0:0:50:C5S.wav
96,192,20093,128,2,20290:0:0:0:50:F5S.wav
352,192,20093,1,2,0:0:0:50:F6S.wav
469,192,20289,1,2,0:0:0:50:G6S.wav
213,192,20289,128,2,20487:0:0:0:50:G5S.wav
298,192,20487,1,4,0:0:0:40:C#4S_Db4S.wav
128,192,20487,128,4,20882:0:0:0:50:G#5S_Ab5S.wav
384,192,20487,128,4,20882:0:0:0:50:G#6S_Ab6S.wav
213,192,20882,1,2,0:0:0:50:G5S.wav
469,192,20882,128,2,21079:0:0:0:50:G6S.wav
352,192,21080,128,2,21277:0:0:0:50:F6S.wav
96,192,21080,1,2,0:0:0:50:F5S.wav
288,192,21276,128,2,21671:0:0:0:50:C6S.wav
32,192,21277,128,2,21672:0:0:0:50:C5S.wav
213,192,21671,128,2,22066:0:0:0:50:F5S.wav
469,192,21671,1,2,0:0:0:50:F6S.wav
416,192,21868,1,0,0:0:0:20:soft-hitwhistle.wav
298,192,22066,1,4,0:0:0:1:
128,192,22066,128,4,22461:0:0:0:50:G5S.wav
480,192,22067,1,4,0:0:0:50:G6S.wav
224,192,22461,128,2,22856:0:0:0:50:G#6S_Ab6S.wav
329,192,22855,128,2,23250:0:0:0:50:A#6S_Bb6S.wav
402,192,23250,128,2,23645:0:0:0:50:C#7S_Db7S.wav
182,192,23447,1,0,0:0:0:10:soft-hitwhistle.wav
42,192,23447,1,2,0:0:0:10:soft-hitwhistle.wav
298,192,23645,128,4,25224:0:0:0:0:
224,192,23645,128,4,25224:0:0:0:0:
475,192,23645,128,4,25224:0:0:0:50:C7S.wav
42,192,23645,128,4,25224:0:0:0:33:A#4S_Bb4S.wav
128,192,24434,1,4,0:0:0:0:
384,192,24434,1,4,0:0:0:0:
128,192,25224,1,4,0:0:0:0:
384,192,25224,1,4,0:0:0:0:
298,192,25289,1,2,0:0:0:0:
224,192,25355,1,2,0:0:0:0:
96,192,25421,1,2,0:0:0:0:
416,192,25520,1,2,0:0:0:6:
213,192,25618,1,2,0:0:0:6:
288,192,25717,1,2,0:0:0:6:
128,192,25816,1,2,0:0:0:0:
384,192,25882,1,2,0:0:0:0:
42,192,25947,1,2,0:0:0:0:
469,192,26013,1,2,0:0:0:0:
128,192,26079,1,2,0:0:0:0:
416,192,26145,1,2,0:0:0:0:
224,192,26260,1,2,0:0:0:6:
298,192,26342,1,2,0:0:0:0:
384,192,26408,1,2,0:0:0:6:
42,192,26474,1,2,0:0:0:0:
128,192,26539,1,2,0:0:0:0:
213,192,26605,1,2,0:0:0:0:
298,192,26671,1,2,0:0:0:0:
416,192,26738,1,2,0:0:0:0:
96,192,26803,1,8,0:0:0:0:
480,192,26804,128,0,38448:0:0:0:60:F5S.wav
288,192,27000,128,2,27197:0:0:0:0:
32,192,27197,1,8,0:0:0:0:
213,192,27395,128,2,27592:0:0:0:0:
384,192,27592,1,8,0:0:0:0:
298,192,27789,128,2,27987:0:0:0:0:
160,192,27987,1,8,0:0:0:0:
42,192,28184,128,2,28382:0:0:0:0:
213,192,28382,1,8,0:0:0:0:
352,192,28579,128,2,28776:0:0:0:0:
160,192,28776,1,8,0:0:0:0:
288,192,28974,128,2,29171:0:0:0:0:
32,192,29171,1,8,0:0:0:0:
416,192,29368,128,2,29566:0:0:0:0:
213,192,29566,1,8,0:0:0:0:
128,192,29763,128,2,29961:0:0:0:0:
298,192,29961,1,8,0:0:0:0:
213,192,30158,128,2,30355:0:0:0:0:
42,192,30355,1,8,0:0:0:0:
298,192,30553,128,2,30750:0:0:0:0:
96,192,30750,1,8,0:0:0:0:
352,192,30947,128,2,31145:0:0:0:0:
224,192,31145,1,8,0:0:0:0:
42,192,31342,128,2,31539:0:0:0:0:
298,192,31539,1,8,0:0:0:0:
416,192,31737,128,2,31934:0:0:0:0:
160,192,31934,1,8,0:0:0:0:
213,192,32132,128,2,32329:0:0:0:0:
298,192,32329,1,8,0:0:0:0:
42,192,32526,128,2,32724:0:0:0:0:
416,192,32724,1,8,0:0:0:0:
224,192,32724,1,8,0:0:0:0:
298,192,32921,1,8,0:0:0:0:
160,192,32921,1,8,0:0:0:0:
42,192,33118,1,8,0:0:0:0:
213,192,33118,1,8,0:0:0:0:
298,192,33217,1,0,0:0:0:0:
384,192,33316,1,2,0:0:0:0:
128,192,33513,1,8,0:0:0:0:
298,192,33612,1,0,0:0:0:0:
213,192,33711,1,2,0:0:0:0:
384,192,33908,1,8,0:0:0:0:
42,192,34007,1,0,0:0:0:0:
128,192,34105,1,2,0:0:0:0:
352,192,34303,1,8,0:0:0:0:
96,192,34401,1,0,0:0:0:0:
32,192,34500,1,2,0:0:0:0:
416,192,34697,1,8,0:0:0:0:
224,192,34796,1,0,0:0:0:0:
160,192,34895,1,2,0:0:0:0:
288,192,35092,1,8,0:0:0:0:
32,192,35191,1,0,0:0:0:0:
96,192,35289,1,2,0:0:0:0:
42,192,35487,1,8,0:0:0:0:
298,192,35586,1,0,0:0:0:0:
384,192,35684,1,2,0:0:0:0:
128,192,35882,1,8,0:0:0:0:
298,192,35980,1,0,0:0:0:0:
224,192,36079,1,2,0:0:0:0:
42,192,36276,1,8,0:0:0:0:
384,192,36375,1,0,0:0:0:0:
298,192,36474,1,2,0:0:0:0:
128,192,36671,1,8,0:0:0:0:
298,192,36770,1,0,0:0:0:0:
213,192,36868,1,2,0:0:0:0:
416,192,37066,1,8,0:0:0:0:
42,192,37164,1,0,0:0:0:0:
160,192,37263,1,2,0:0:0:0:
298,192,37461,1,8,0:0:0:0:
96,192,37559,1,0,0:0:0:0:
213,192,37658,1,2,0:0:0:0:
352,192,37855,1,8,0:0:0:0:
213,192,37954,1,0,0:0:0:0:
298,192,38053,1,2,0:0:0:0:
160,192,38250,1,8,0:0:0:0:
352,192,38250,1,8,0:0:0:0:
32,192,38448,128,0,38843:0:0:0:6:
352,192,38646,1,8,0:0:0:0:
160,192,38646,1,8,0:0:0:0:
352,192,38843,1,8,0:0:0:0:
160,192,38843,1,8,0:0:0:0:
352,192,39040,1,8,0:0:0:0:
160,192,39040,1,8,0:0:0:0:
352,192,39238,1,8,0:0:0:0:
160,192,39238,1,8,0:0:0:0:
416,192,39435,1,4,0:0:0:1:
96,192,39435,1,4,0:0:0:0:
288,192,39435,1,4,0:0:0:0:
224,192,39435,1,4,0:0:0:0:
128,192,39730,128,2,39829:0:0:0:0:
298,192,39829,1,8,0:0:0:0:
416,192,39929,1,0,0:0:0:0:
42,192,40026,128,2,40125:0:0:0:0:
480,192,40027,1,0,0:0:0:0:
288,192,40224,1,8,0:0:0:0:
213,192,40322,128,2,40421:0:0:0:0:
352,192,40323,1,0,0:0:0:0:
469,192,40421,1,0,0:0:0:0:
480,192,40618,1,8,0:0:0:0:
160,192,40619,128,2,40718:0:0:0:0:
416,192,40718,1,0,0:0:0:0:
42,192,40816,128,2,40914:0:0:0:0:
298,192,40816,1,0,0:0:0:0:
469,192,41013,1,8,0:0:0:0:
224,192,41013,128,2,41112:0:0:0:0:
352,192,41113,1,0,0:0:0:0:
288,192,41211,1,0,0:0:0:0:
96,192,41310,128,2,41409:0:0:0:0:
469,192,41408,1,8,0:0:0:0:
298,192,41507,1,0,0:0:0:0:
213,192,41605,128,2,41704:0:0:0:0:
384,192,41605,1,0,0:0:0:0:
469,192,41803,1,8,0:0:0:0:
42,192,41901,128,2,42000:0:0:0:0:
298,192,41901,1,0,0:0:0:0:
416,192,42001,1,0,0:0:0:0:
298,192,42197,1,8,0:0:0:0:
128,192,42197,128,2,42296:0:0:0:0:
469,192,42296,1,0,0:0:0:6:
32,192,42395,128,2,42494:0:0:0:0:
352,192,42396,1,0,0:0:0:0:
298,192,42592,1,8,0:0:0:0:
213,192,42592,128,2,42691:0:0:0:0:
469,192,42691,1,0,0:0:0:0:
384,192,42789,1,0,0:0:0:0:
96,192,42888,128,2,42987:0:0:0:0:
298,192,42987,1,8,0:0:0:0:
416,192,43086,1,0,0:0:0:6:
213,192,43184,128,2,43283:0:0:0:0:
480,192,43185,1,0,0:0:0:0:
288,192,43382,1,8,0:0:0:0:
352,192,43480,1,0,0:0:0:0:
42,192,43480,128,2,43579:0:0:0:0:
469,192,43579,1,0,0:0:0:0:
298,192,43776,1,8,0:0:0:0:
128,192,43776,128,2,43875:0:0:0:0:
469,192,43875,1,0,0:0:0:6:
32,192,43974,128,2,44073:0:0:0:0:
352,192,43975,1,0,0:0:0:0:
298,192,44171,1,8,0:0:0:0:
128,192,44171,128,2,44270:0:0:0:0:
469,192,44270,1,0,0:0:0:0:
384,192,44368,1,0,0:0:0:0:
213,192,44467,128,2,44566:0:0:0:0:
469,192,44566,1,8,0:0:0:0:
416,192,44665,1,0,0:0:0:6:
298,192,44763,1,0,0:0:0:0:
42,192,44763,128,2,44862:0:0:0:0:
469,192,44961,1,8,0:0:0:0:
298,192,45059,1,0,0:0:0:0:
96,192,45060,128,2,45159:0:0:0:0:
416,192,45159,1,0,0:0:0:0:
224,192,45356,1,8,0:0:0:2:
288,192,45356,1,0,0:0:0:0:
480,192,45356,1,8,0:0:0:0:
32,192,45356,1,8,0:0:0:0:
288,192,45554,1,0,0:0:0:0:
32,192,45554,1,8,0:0:0:0:
224,192,45554,1,8,0:0:0:0:
480,192,45554,1,8,0:0:0:0:
224,192,45751,1,8,0:0:0:0:
288,192,45751,1,0,0:0:0:0:
480,192,45751,1,8,0:0:0:0:
32,192,45751,1,8,0:0:0:0:
384,192,46046,128,2,46145:0:0:0:0:
213,192,46145,1,8,0:0:0:0:
96,192,46243,1,0,0:0:0:0:
298,192,46342,128,2,46441:0:0:0:0:
32,192,46343,1,0,0:0:0:0:
224,192,46539,1,8,0:0:0:0:
416,192,46638,128,2,46737:0:0:0:0:
160,192,46638,1,0,0:0:0:0:
42,192,46737,1,0,0:0:0:0:
469,192,46934,128,2,47033:0:0:0:0:
32,192,46934,1,8,0:0:0:0:
96,192,47034,1,0,0:0:0:0:
416,192,47132,128,2,47230:0:0:0:0:
213,192,47132,1,0,0:0:0:0:
288,192,47329,128,2,47428:0:0:0:0:
42,192,47329,1,8,0:0:0:0:
128,192,47428,1,0,0:0:0:0:
213,192,47526,1,0,0:0:0:0:
416,192,47625,128,2,47724:0:0:0:0:
42,192,47724,1,8,0:0:0:0:
213,192,47822,1,0,0:0:0:6:
298,192,47921,128,2,48020:0:0:0:0:
128,192,47921,1,0,0:0:0:0:
42,192,48118,1,8,0:0:0:0:
384,192,48217,128,2,48316:0:0:0:0:
213,192,48217,1,0,0:0:0:0:
96,192,48317,1,0,0:0:0:0:
469,192,48513,128,2,48612:0:0:0:0:
213,192,48513,1,8,0:0:0:0:
42,192,48612,1,0,0:0:0:6:
384,192,48711,128,2,48809:0:0:0:0:
160,192,48711,1,0,0:0:0:0:
298,192,48908,128,2,49007:0:0:0:0:
213,192,48908,1,8,0:0:0:0:
42,192,49007,1,0,0:0:0:0:
128,192,49105,1,0,0:0:0:0:
416,192,49203,128,2,49302:0:0:0:0:
213,192,49303,1,8,0:0:0:0:
96,192,49402,1,0,0:0:0:6:
298,192,49500,128,2,49599:0:0:0:0:
32,192,49501,1,0,0:0:0:0:
224,192,49697,1,8,0:0:0:0:
416,192,49796,128,2,49895:0:0:0:0:
160,192,49797,1,0,0:0:0:0:
42,192,49895,1,0,0:0:0:0:
469,192,50092,128,2,50191:0:0:0:0:
32,192,50092,1,8,0:0:0:0:
96,192,50192,1,0,0:0:0:6:
384,192,50289,128,2,50388:0:0:0:0:
213,192,50289,1,0,0:0:0:0:
298,192,50487,128,2,50586:0:0:0:0:
42,192,50487,1,8,0:0:0:0:
160,192,50587,1,0,0:0:0:0:
224,192,50685,1,0,0:0:0:0:
416,192,50783,128,2,50882:0:0:0:0:
42,192,50882,1,8,0:0:0:0:
213,192,50980,1,0,0:0:0:0:
480,192,51079,128,0,51474:0:0:0:11:soft-sliderslide.wav
160,192,51080,1,0,0:0:0:0:
298,192,51276,1,8,0:0:0:0:
213,192,51474,1,8,0:0:0:0:
32,192,51474,128,2,52066:0:0:0:6:
298,192,51671,1,8,0:0:0:0:
96,192,51671,128,2,52066:0:0:0:3:
416,192,51868,1,8,0:0:0:0:
213,192,51868,128,2,52066:0:0:0:3:
298,192,52066,128,0,52362:0:0:0:2:
480,192,52066,1,4,0:0:0:0:
213,192,52362,128,2,52954:0:0:0:2:
469,192,52362,128,2,52461:0:0:0:0:
416,192,52659,128,2,52758:0:0:0:0:
96,192,52659,128,2,52955:0:0:0:3:
32,192,52954,128,2,53250:0:0:0:6:
298,192,52954,128,2,53053:0:0:0:0:
416,192,53251,128,2,53350:0:0:0:0:
96,192,53251,128,2,53448:0:0:0:6:
298,192,53447,128,2,53546:0:0:0:0:
32,192,53447,128,2,53941:0:0:0:0:
96,192,53645,128,2,54237:0:0:0:6:
384,192,53645,128,2,53743:0:0:0:0:
213,192,53941,128,2,54237:0:0:0:6:
469,192,53941,128,2,54039:0:0:0:0:
298,192,54237,128,2,54533:0:0:0:3:
42,192,54237,128,2,54336:0:0:0:0:
384,192,54533,128,2,55224:0:0:0:3:
128,192,54533,128,2,54632:0:0:0:0:
128,192,54829,128,2,54928:0:0:0:0:
298,192,54829,128,2,55224:0:0:0:3:
213,192,55026,128,2,55224:0:0:0:3:
42,192,55026,128,2,55125:0:0:0:0:
469,192,55224,128,2,55322:0:0:0:0:
128,192,55224,128,2,55520:0:0:0:3:
42,192,55520,128,2,56112:0:0:0:2:
384,192,55520,128,2,55618:0:0:0:0:
128,192,55816,128,2,56408:0:0:0:3:
298,192,55816,128,2,55914:0:0:0:0:
384,192,56112,128,2,56211:0:0:0:0:
213,192,56113,128,2,56606:0:0:0:3:
298,192,56408,128,2,56803:0:0:0:3:
469,192,56408,128,2,56507:0:0:0:0:
384,192,56605,128,2,57099:0:0:0:6:
42,192,56605,128,2,56704:0:0:0:0:
469,192,56803,128,2,57987:0:0:0:0:
128,192,56803,128,2,56901:0:0:0:0:
213,192,57099,128,2,57197:0:0:0:0:
128,192,57099,128,2,57395:0:0:0:3:
42,192,57395,128,2,57987:0:0:0:0:
96,192,57987,128,2,58086:0:0:0:0:
224,192,58086,128,2,58184:0:0:0:0:
288,192,58184,128,2,58283:0:0:0:0:
416,192,58283,128,2,58382:0:0:0:0:
480,192,58382,128,2,59270:0:0:0:0:
32,192,58383,128,2,58481:0:0:0:0:
160,192,58678,128,2,58776:0:0:0:0:
384,192,58678,128,2,59270:0:0:0:6:
42,192,58974,128,2,59072:0:0:0:0:
298,192,58974,128,2,59270:0:0:0:3:
128,192,59270,128,2,59368:0:0:0:0:
213,192,59270,128,2,59566:0:0:0:3:
298,192,59566,128,2,59961:0:0:0:0:
42,192,59566,128,2,59664:0:0:0:0:
416,192,59763,128,2,59961:0:0:0:6:
128,192,59763,128,2,59862:0:0:0:0:
213,192,59961,128,2,60059:0:0:0:0:
480,192,59961,128,2,60553:0:0:0:6:
416,192,60257,128,2,60553:0:0:0:0:
160,192,60257,128,2,60355:0:0:0:0:
298,192,60553,128,2,60849:0:0:0:0:
32,192,60553,128,2,60651:0:0:0:0:
96,192,60849,128,2,60947:0:0:0:0:
384,192,60849,128,2,61145:0:0:0:3:
469,192,61145,128,2,61539:0:0:0:3:
224,192,61145,128,2,61243:0:0:0:0:
352,192,61342,128,2,61539:0:0:0:3:
160,192,61343,128,2,61442:0:0:0:0:
288,192,61539,128,2,61836:0:0:0:3:
42,192,61539,128,2,61638:0:0:0:0:
224,192,61836,128,2,62132:0:0:0:0:
469,192,61836,128,2,61934:0:0:0:0:
160,192,62132,128,2,62428:0:0:0:3:
352,192,62132,128,2,62230:0:0:0:0:
42,192,62428,128,2,63118:0:0:0:6:
288,192,62428,128,2,62526:0:0:0:0:
384,192,62724,128,2,62822:0:0:0:0:
160,192,62725,128,2,63711:0:0:0:6:
298,192,62921,128,2,63020:0:0:0:0:
469,192,63118,128,2,63217:0:0:0:0:
224,192,63118,128,2,64105:0:0:0:6:
416,192,63414,128,2,63513:0:0:0:0:
298,192,63711,128,2,63908:0:0:0:0:
469,192,63908,128,2,64105:0:0:0:0:
384,192,64105,1,2,0:0:0:1:
128,192,64105,1,2,0:0:0:0:
298,192,64303,1,2,0:0:0:0:
42,192,64303,1,2,0:0:0:0:
416,192,64500,1,2,0:0:0:0:
160,192,64500,1,2,0:0:0:0:
224,192,64697,1,4,0:0:0:0:
480,192,64697,1,4,0:0:0:0:
298,192,64697,1,4,0:0:0:0:
32,192,64993,1,2,0:0:0:6:
480,192,65093,1,2,0:0:0:10:soft-hitwhistle.wav
224,192,65290,1,2,0:0:0:6:
480,192,65488,1,2,0:0:0:10:soft-hitwhistle.wav
96,192,65586,1,2,0:0:0:6:
224,192,65882,1,2,0:0:0:1:
480,192,65883,1,2,0:0:0:10:soft-hitwhistle.wav
160,192,66079,1,2,0:0:0:6:
42,192,66276,1,2,0:0:0:3:
480,192,66277,1,2,0:0:0:10:soft-hitwhistle.wav
160,192,66573,1,2,0:0:0:6:
480,192,66671,1,2,0:0:0:10:soft-hitwhistle.wav
160,192,66869,1,2,0:0:0:6:
416,192,67067,1,2,0:0:0:10:soft-hitwhistle.wav
224,192,67165,1,2,0:0:0:6:
160,192,67461,1,2,0:0:0:6:
416,192,67462,1,2,0:0:0:10:soft-hitwhistle.wav
96,192,67658,1,2,0:0:0:6:
32,192,67855,1,2,0:0:0:3:
416,192,67856,1,2,0:0:0:10:soft-hitwhistle.wav
96,192,67954,1,2,0:0:0:6:
213,192,68053,1,2,0:0:0:6:
298,192,68151,1,2,0:0:0:6:
384,192,68250,1,2,0:0:0:6:
42,192,68250,1,2,0:0:0:10:soft-hitwhistle.wav
469,192,68349,1,2,0:0:0:6:
416,192,68447,1,2,0:0:0:6:
298,192,68546,1,2,0:0:0:0:
224,192,68645,1,2,0:0:0:0:
469,192,68645,1,2,0:0:0:10:soft-hitwhistle.wav
160,192,68743,1,2,0:0:0:6:
42,192,68842,1,2,0:0:0:6:
128,192,68941,1,2,0:0:0:6:
469,192,69039,1,2,0:0:0:0:
213,192,69039,1,2,0:0:0:6:
298,192,69138,1,2,0:0:0:3:
416,192,69237,1,2,0:0:0:0:
480,192,69336,1,2,0:0:0:2:
352,192,69434,1,2,0:0:0:3:
96,192,69434,1,2,0:0:0:10:soft-hitwhistle.wav
298,192,69533,1,2,0:0:0:0:
384,192,69632,1,2,0:0:0:0:
298,192,69730,1,2,0:0:0:6:
213,192,69829,1,2,0:0:0:0:
416,192,69829,1,2,0:0:0:10:soft-hitwhistle.wav
96,192,69928,1,2,0:0:0:0:
32,192,70026,1,2,0:0:0:6:
416,192,70224,1,2,0:0:0:10:soft-hitwhistle.wav
213,192,70421,1,2,0:0:0:6:
128,192,70520,1,2,0:0:0:6:
416,192,70618,1,0,0:0:0:10:soft-hitwhistle.wav
213,192,70618,1,2,0:0:0:6:
128,192,70717,1,2,0:0:0:6:
416,192,70816,1,0,0:0:0:10:soft-hitwhistle.wav
42,192,70816,1,2,0:0:0:0:
160,192,70915,1,2,0:0:0:0:
224,192,71013,1,4,0:0:0:0:
480,192,71013,1,4,0:0:0:0:
298,192,71013,1,4,0:0:0:0:
128,192,71309,1,2,0:0:0:1:
384,192,71309,1,2,0:0:0:0:
213,192,71605,128,2,71901:0:0:0:0:
469,192,71605,128,2,71901:0:0:0:0:
384,192,71901,128,2,72197:0:0:0:0:
128,192,71901,128,2,72197:0:0:0:0:
298,192,72197,1,2,0:0:0:3:
42,192,72197,1,2,0:0:0:6:
416,192,72395,1,2,0:0:0:3:
160,192,72395,1,2,0:0:0:0:
224,192,72592,1,4,0:0:0:0:
480,192,72592,1,4,0:0:0:2:
298,192,72592,1,4,0:0:0:0:
128,192,72888,1,2,0:0:0:0:
384,192,72888,1,2,0:0:0:0:
42,192,73184,128,2,73480:0:0:0:0:
298,192,73184,128,2,73480:0:0:0:0:
128,192,73480,128,2,73776:0:0:0:0:
384,192,73480,128,2,73776:0:0:0:0:
298,192,73776,1,2,0:0:0:0:
42,192,73776,1,2,0:0:0:3:
160,192,73974,1,2,0:0:0:0:
416,192,73974,1,2,0:0:0:0:
480,192,74171,1,4,0:0:0:0:
213,192,74171,128,4,74467:0:0:0:0:
298,192,74171,1,4,0:0:0:0:
384,192,74368,1,0,0:0:0:14:soft-hitwhistle.wav
160,192,74467,128,0,74763:0:0:0:0:
352,192,74566,1,0,0:0:0:14:soft-hitwhistle.wav
416,192,74763,1,0,0:0:0:14:soft-hitwhistle.wav
42,192,74763,128,0,75059:0:0:0:0:
480,192,74961,1,4,0:0:0:0:
298,192,74961,1,4,0:0:0:0:
128,192,75059,128,0,75355:0:0:0:0:
384,192,75158,1,0,0:0:0:14:soft-hitwhistle.wav
298,192,75355,1,0,0:0:0:14:soft-hitwhistle.wav
42,192,75355,1,0,0:0:0:6:
416,192,75553,1,0,0:0:0:14:soft-hitwhistle.wav
160,192,75554,1,0,0:0:0:6:
224,192,75750,1,4,0:0:0:0:
480,192,75750,1,4,0:0:0:0:
298,192,75750,1,4,0:0:0:0:
96,192,75947,1,2,0:0:0:6:
416,192,76046,1,2,0:0:0:0:
160,192,76145,1,2,0:0:0:0:
352,192,76243,1,2,0:0:0:0:
224,192,76342,1,2,0:0:0:0:
288,192,76441,1,2,0:0:0:0:
416,192,76539,1,2,0:0:0:6:
298,192,76589,1,2,0:0:0:0:
213,192,76638,1,2,0:0:0:6:
96,192,76737,1,2,0:0:0:2:
42,192,76836,1,2,0:0:0:6:
128,192,76934,1,2,0:0:0:0:
213,192,77033,1,2,0:0:0:0:
298,192,77132,1,2,0:0:0:0:
416,192,77230,1,2,0:0:0:0:
480,192,77329,1,2,0:0:0:0:
128,192,77526,128,0,77921:0:0:0:0:
42,192,77526,128,0,78118:0:0:0:0:
352,192,77526,128,0,77921:0:0:0:0:
288,192,77921,128,8,78118:0:0:0:0:
128,192,78118,128,8,78316:0:0:0:0:
384,192,78118,128,8,78513:0:0:0:0:
224,192,78316,128,8,78513:0:0:0:0:
298,192,78513,128,8,78711:0:0:0:0:
96,192,78513,128,8,78908:0:0:0:0:
384,192,78711,128,8,78908:0:0:0:0:
32,192,78908,1,2,0:0:0:0:
469,192,78908,1,2,0:0:0:0:
224,192,79105,128,0,79500:0:0:0:0:
298,192,79105,128,0,79697:0:0:0:0:
42,192,79105,1,0,0:0:0:0:
469,192,79105,1,0,0:0:0:0:
160,192,79500,128,0,79697:0:0:0:0:
213,192,79697,128,0,80092:0:0:0:0:
416,192,79698,128,0,79895:0:0:0:0:
298,192,79895,128,0,80092:0:0:0:0:
160,192,80092,128,0,80289:0:0:0:0:
352,192,80092,128,0,80487:0:0:0:0:
213,192,80289,128,0,80487:0:0:0:0:
128,192,80487,1,8,0:0:0:0:
298,192,80487,1,8,0:0:0:0:
469,192,80684,128,0,81276:0:0:0:1:
42,192,80684,128,0,81079:0:0:0:1:
384,192,80684,128,0,81079:0:0:0:1:
224,192,80685,128,0,81080:0:0:0:1:
128,192,81079,128,8,81276:0:0:0:0:
42,192,81276,128,8,81671:0:0:0:0:
298,192,81276,128,8,81474:0:0:0:0:
480,192,81474,128,8,81671:0:0:0:0:
416,192,81671,128,8,82066:0:0:0:0:
213,192,81671,128,8,81868:0:0:0:0:
128,192,81868,128,8,82066:0:0:0:0:
42,192,82066,1,2,0:2:0:0:
480,192,82066,1,2,0:2:0:0:
298,192,82263,128,0,82658:0:0:0:0:
213,192,82263,128,0,82658:0:0:0:0:
128,192,82263,1,0,0:0:0:0:
384,192,82263,1,0,0:0:0:0:
128,192,82658,128,0,82855:0:0:0:0:
384,192,82658,128,0,82855:0:0:0:0:
42,192,82855,128,0,83053:0:0:0:0:
469,192,82855,128,0,83053:0:0:0:0:
128,192,83053,128,0,83250:0:0:0:0:
298,192,83250,1,0,0:0:0:0:
213,192,83250,128,0,83447:0:0:0:0:
384,192,83349,1,0,0:0:0:0:
298,192,83447,1,0,0:0:0:0:
96,192,83447,128,0,83645:0:0:0:0:
416,192,83546,1,0,0:0:0:0:
480,192,83645,1,4,0:0:0:0:
298,192,83645,1,4,0:0:0:0:
32,192,83646,1,4,0:0:0:0:
128,192,83842,1,2,0:0:0:0:
213,192,83941,1,2,0:0:0:0:
384,192,84039,1,2,0:0:0:0:
298,192,84138,1,2,0:0:0:6:
42,192,84237,1,2,0:0:0:0:
128,192,84336,1,2,0:0:0:6:
213,192,84434,1,2,0:0:0:6:
480,192,84633,1,2,0:0:0:6:
224,192,84730,1,2,0:0:0:6:
416,192,84829,1,2,0:0:0:6:
160,192,84928,1,2,0:0:0:3:
298,192,85026,1,2,0:0:0:1:
42,192,85125,1,2,0:0:0:1:
213,192,85224,1,4,0:0:0:0:
480,192,85224,1,4,0:0:0:0:
128,192,85224,1,4,0:0:0:0:
384,192,85421,1,2,0:0:0:0:
298,192,85520,1,2,0:0:0:0:
128,192,85618,1,2,0:0:0:0:
213,192,85717,1,2,0:0:0:6:
469,192,85816,1,2,0:0:0:0:
384,192,85914,1,2,0:0:0:6:
298,192,86013,1,2,0:0:0:6:
32,192,86211,1,2,0:0:0:6:
288,192,86310,1,2,0:0:0:6:
96,192,86409,1,2,0:0:0:6:
352,192,86508,1,2,0:0:0:3:
213,192,86605,1,2,0:0:0:1:
469,192,86704,1,2,0:0:0:1:
298,192,86803,1,4,0:0:0:0:
32,192,86803,1,4,0:0:0:0:
384,192,86803,1,4,0:0:0:0:
96,192,87000,1,8,0:0:0:0:
469,192,87000,1,8,0:0:0:0:
298,192,87099,1,0,0:0:0:0:
469,192,87197,1,8,0:0:0:0:
96,192,87198,1,8,0:0:0:0:
298,192,87296,1,0,0:0:0:3:
469,192,87395,1,8,0:0:0:0:
96,192,87396,1,8,0:0:0:0:
352,192,87494,1,0,0:0:0:0:
298,192,87592,1,4,0:0:0:0:
32,192,87592,1,4,0:0:0:0:
128,192,87789,1,8,0:0:0:0:
416,192,87790,1,8,0:0:0:0:
213,192,87888,1,0,0:0:0:0:
416,192,87987,1,8,0:0:0:0:
42,192,87987,1,8,0:0:0:0:
128,192,88086,1,0,0:0:0:0:
416,192,88184,1,8,0:0:0:0:
213,192,88184,1,8,0:0:0:0:
128,192,88283,1,0,0:0:0:0:
469,192,88382,128,4,89171:0:0:0:1:
42,192,88382,128,4,89171:0:0:0:1:
288,192,88382,128,4,89961:0:0:0:1:
224,192,88382,128,4,89171:0:0:0:1:
352,192,89172,128,2,89962:0:0:0:0:
160,192,89172,128,2,89962:0:0:0:0:
213,192,89961,128,2,90750:0:0:0:0:
298,192,90750,5,2,0:0:0:0:
128,192,91145,1,2,0:0:0:0:
384,192,91145,1,2,0:0:0:0:
213,192,91539,1,0,0:0:0:0:
298,192,91539,1,0,0:0:0:0:
32,192,91540,5,0,0:0:0:0:
480,192,91540,1,0,0:0:0:0:
416,192,91934,1,0,0:0:0:10:soft-hitwhistle.wav
224,192,92133,1,2,0:0:0:0:
96,192,92231,1,2,0:0:0:0:
416,192,92329,1,0,0:0:0:10:soft-hitwhistle.wav
42,192,92329,1,2,0:0:0:0:
128,192,92526,1,2,0:0:0:0:
213,192,92724,1,2,0:0:0:0:
416,192,92724,1,0,0:0:0:10:soft-hitwhistle.wav
160,192,92921,1,2,0:0:0:0:
42,192,93118,1,2,0:0:0:0:
416,192,93119,1,0,0:0:0:10:soft-hitwhistle.wav
96,192,93514,1,0,0:0:0:10:soft-hitwhistle.wav
469,192,93711,1,2,0:0:0:0:
469,192,93908,1,2,0:0:0:0:
96,192,93909,1,0,0:0:0:10:soft-hitwhistle.wav
384,192,94105,1,2,0:0:0:0:
298,192,94303,1,2,0:0:0:0:
96,192,94304,1,0,0:0:0:10:soft-hitwhistle.wav
416,192,94500,1,2,0:0:0:0:
480,192,94697,1,2,0:0:0:0:
96,192,94698,1,0,0:0:0:10:soft-hitwhistle.wav
416,192,95093,1,0,0:0:0:10:soft-hitwhistle.wav
224,192,95290,1,2,0:0:0:0:
160,192,95389,1,2,0:0:0:0:
416,192,95488,1,0,0:0:0:10:soft-hitwhistle.wav
224,192,95488,1,2,0:0:0:0:
160,192,95685,1,2,0:0:0:0:
42,192,95882,1,2,0:0:0:0:
416,192,95883,1,0,0:0:0:10:soft-hitwhistle.wav
128,192,96079,128,2,96276:0:0:0:0:
213,192,96276,128,2,96474:0:0:0:0:
42,192,96276,128,2,96474:0:0:0:0:
416,192,96277,1,0,0:0:0:10:soft-hitwhistle.wav
416,192,96672,1,0,0:0:0:10:soft-hitwhistle.wav
96,192,96869,128,2,97066:0:0:0:0:
32,192,97066,128,2,97263:0:0:0:0:
213,192,97066,128,2,97263:0:0:0:0:
384,192,97066,1,0,0:0:0:10:soft-hitwhistle.wav
128,192,97263,1,8,0:0:0:0:
416,192,97263,1,8,0:0:0:0:
288,192,97362,1,0,0:0:0:2:
352,192,97461,1,8,0:0:0:0:
160,192,97461,1,8,0:0:0:0:
224,192,97559,1,0,0:0:0:2:
384,192,97658,1,8,0:0:0:0:
96,192,97658,1,8,0:0:0:0:
298,192,97757,1,0,0:0:0:2:
32,192,97855,1,4,0:0:0:0:
480,192,97855,1,4,0:0:0:0:
213,192,97855,1,4,0:0:0:0:
42,192,98053,1,0,0:0:0:2:
160,192,98151,1,0,0:0:0:2:
213,192,98250,1,8,0:0:0:0:
416,192,98250,1,8,0:0:0:0:
128,192,98349,1,0,0:0:0:2:
42,192,98447,1,0,0:0:0:2:
160,192,98546,1,0,0:0:0:2:
224,192,98645,1,4,0:0:0:0:
384,192,98645,1,4,0:0:0:0:
480,192,98646,1,4,0:0:0:0:
288,192,98842,1,0,0:0:0:2:
213,192,98941,1,0,0:0:0:2:
96,192,99039,1,8,0:0:0:0:
352,192,99040,1,8,0:0:0:0:
224,192,99138,1,0,0:0:0:2:
416,192,99237,1,8,0:0:0:0:
96,192,99237,1,8,0:0:0:0:
288,192,99336,1,0,0:0:0:2:
32,192,99434,1,4,0:0:0:0:
213,192,99434,1,4,0:0:0:0:
480,192,99435,1,4,0:0:0:0:
469,192,99632,1,0,0:0:0:2:
352,192,99730,1,0,0:0:0:2:
298,192,99829,1,8,0:0:0:0:
96,192,99829,1,8,0:0:0:0:
384,192,99928,1,0,0:0:0:2:
469,192,100026,1,0,0:0:0:2:
352,192,100125,1,0,0:0:0:2:
32,192,100224,1,4,0:0:0:0:
288,192,100224,1,4,0:0:0:0:
213,192,100224,1,4,0:0:0:0:
469,192,100421,1,0,0:0:0:2:
384,192,100520,1,0,0:0:0:2:
298,192,100618,1,8,0:0:0:0:
128,192,100618,1,8,0:0:0:0:
213,192,100717,1,0,0:0:0:2:
128,192,100816,1,8,0:0:0:0:
298,192,100816,1,8,0:0:0:0:
384,192,100914,1,0,0:0:0:2:
32,192,101013,1,4,0:0:0:0:
469,192,101013,1,4,0:0:0:0:
298,192,101013,1,4,0:0:0:0:
416,192,101211,1,8,0:0:0:0:
224,192,101211,1,8,0:0:0:0:
288,192,101309,1,0,0:0:0:2:
352,192,101408,1,8,0:0:0:0:
160,192,101408,1,8,0:0:0:0:
224,192,101507,1,0,0:0:0:2:
96,192,101605,1,8,0:0:0:0:
288,192,101605,1,8,0:0:0:0:
213,192,101704,1,0,0:0:0:2:
298,192,101803,1,4,0:0:0:0:
480,192,101804,1,4,0:0:0:0:
32,192,101804,1,4,0:0:0:0:
32,192,102000,1,8,0:0:0:0:
480,192,102000,1,8,0:0:0:0:
96,192,102099,1,0,0:0:0:2:
416,192,102099,1,0,0:0:0:2:
213,192,102197,1,8,0:0:0:0:
298,192,102197,1,8,0:0:0:0:
128,192,102296,1,0,0:0:0:2:
384,192,102296,1,0,0:0:0:2:
213,192,102395,1,8,0:0:0:0:
298,192,102395,1,8,0:0:0:0:
416,192,102493,1,0,0:0:0:2:
96,192,102493,1,0,0:0:0:2:
213,192,102592,1,4,0:0:0:0:
32,192,102593,1,4,0:0:0:0:
480,192,102593,1,4,0:0:0:0:
416,192,102691,1,8,0:0:0:0:
298,192,102789,1,4,0:0:0:0:
42,192,102789,1,0,0:0:0:0:
416,192,102888,1,8,0:0:0:0:
160,192,102888,1,0,0:0:0:0:
298,192,102987,1,4,0:0:0:0:
42,192,102987,1,0,0:0:0:0:
416,192,103086,1,8,0:0:0:0:
96,192,103086,1,0,0:0:0:0:
298,192,103184,1,4,0:0:0:0:
213,192,103184,1,0,0:0:0:0:
416,192,103283,1,8,0:0:0:0:
128,192,103283,1,0,0:0:0:0:
298,192,103382,1,4,0:0:0:0:
42,192,103382,1,0,0:0:0:0:
416,192,103480,1,8,0:0:0:0:
298,192,103579,1,4,0:0:0:0:
416,192,103678,1,8,0:0:0:0:
298,192,103776,1,4,0:0:0:0:
224,192,103777,128,0,103975:0:0:0:10:soft-slidertick.wav
416,192,103875,1,8,0:0:0:0:
298,192,103974,1,4,0:0:0:0:
160,192,103975,128,0,104172:0:0:0:10:soft-slidertick.wav
416,192,104072,1,8,0:0:0:0:
213,192,104171,1,4,0:0:0:0:
42,192,104171,128,4,104961:0:0:0:0:
480,192,104172,1,4,0:0:0:0:
288,192,104369,1,2,0:0:0:0:
160,192,104468,1,2,0:0:0:0:
352,192,104567,1,2,0:0:0:0:
224,192,104665,1,2,0:0:0:0:
469,192,104763,1,2,0:0:0:0:
288,192,104863,1,2,0:0:0:0:
128,192,104961,128,0,105355:0:0:0:0:
480,192,104961,1,2,0:0:0:0:
416,192,105059,1,2,0:0:0:0:
298,192,105158,1,2,0:0:0:0:
384,192,105257,1,2,0:0:0:0:
298,192,105355,1,2,0:0:0:0:
42,192,105355,128,0,105750:0:0:0:0:
384,192,105454,1,2,0:0:0:0:
469,192,105553,1,2,0:0:0:0:
416,192,105652,1,2,0:0:0:0:
298,192,105750,1,2,0:0:0:0:
160,192,105751,128,0,106540:0:0:0:0:
352,192,105849,1,2,0:0:0:0:
469,192,105947,1,2,0:0:0:0:
288,192,106046,1,2,0:0:0:0:
352,192,106145,1,2,0:0:0:0:
224,192,106244,1,2,0:0:0:0:
288,192,106343,1,2,0:0:0:0:
352,192,106442,1,2,0:0:0:0:
469,192,106539,1,2,0:0:0:0:
224,192,106540,128,0,107330:0:0:0:0:
384,192,106638,1,2,0:0:0:0:
298,192,106737,1,2,0:0:0:0:
416,192,106836,1,2,0:0:0:0:
288,192,106935,1,2,0:0:0:0:
480,192,107034,1,2,0:0:0:0:
352,192,107132,1,2,0:0:0:0:
298,192,107230,1,2,0:0:0:0:
480,192,107329,1,2,0:0:0:0:
160,192,107330,128,0,108119:0:0:0:0:
384,192,107428,1,2,0:0:0:0:
480,192,107527,1,2,0:0:0:0:
416,192,107592,1,2,0:0:0:0:
298,192,107658,1,2,0:0:0:0:
213,192,107724,1,2,0:0:0:0:
384,192,107822,1,2,0:0:0:0:
288,192,107921,1,2,0:0:0:0:
352,192,108020,1,2,0:0:0:0:
288,192,108118,1,2,0:0:0:0:
42,192,108118,128,0,108513:0:0:0:0:
213,192,108217,1,2,0:0:0:0:
298,192,108316,1,2,0:0:0:0:
384,192,108414,1,2,0:0:0:0:
469,192,108513,1,2,0:0:0:0:
160,192,108514,128,0,108909:0:0:0:0:
352,192,108612,1,2,0:0:0:0:
288,192,108711,1,2,0:0:0:0:
384,192,108809,1,2,0:0:0:0:
469,192,108908,1,2,0:0:0:0:
213,192,108908,128,0,109697:0:0:0:0:
352,192,109007,1,2,0:0:0:0:
298,192,109105,1,2,0:0:0:0:
469,192,109204,1,2,0:0:0:0:
352,192,109303,1,2,0:0:0:0:
298,192,109401,1,2,0:0:0:0:
469,192,109500,1,2,0:0:0:0:
352,192,109599,1,2,0:0:0:0:
469,192,109697,1,2,0:0:0:0:
160,192,109698,128,0,110488:0:0:0:0:
352,192,109796,1,2,0:0:0:0:
288,192,109895,1,2,0:0:0:0:
384,192,109993,1,2,0:0:0:0:
298,192,110092,1,2,0:0:0:0:
384,192,110191,1,2,0:0:0:0:
298,192,110289,1,2,0:0:0:0:
352,192,110388,1,2,0:0:0:0:
480,192,110487,1,4,0:0:0:0:
213,192,110487,128,0,111276:0:0:0:0:
32,192,110488,1,4,0:0:0:0:
298,192,110684,1,2,0:0:0:0:
469,192,110783,1,2,0:0:0:0:
298,192,110882,1,2,0:0:0:0:
469,192,110980,1,2,0:0:0:0:
384,192,111079,1,2,0:0:0:0:
298,192,111178,1,2,0:0:0:0:
128,192,111276,128,0,111671:0:0:0:0:
352,192,111277,1,2,0:0:0:0:
469,192,111375,1,2,0:0:0:0:
384,192,111474,1,2,0:0:0:0:
298,192,111572,1,2,0:0:0:0:
213,192,111671,128,0,112066:0:0:0:0:
469,192,111671,1,2,0:0:0:0:
384,192,111770,1,2,0:0:0:0:
298,192,111868,1,2,0:0:0:0:
416,192,111968,1,2,0:0:0:0:
128,192,112066,1,4,0:0:0:0:
480,192,112066,1,0,0:0:0:0:
42,192,112066,128,4,112855:0:0:0:0:
384,192,112164,1,2,0:0:0:0:
298,192,112263,1,2,0:0:0:0:
469,192,112362,1,2,0:0:0:0:
298,192,112461,1,2,0:0:0:0:
416,192,112559,1,2,0:0:0:0:
480,192,112658,1,2,0:0:0:0:
298,192,112757,1,2,0:0:0:0:
469,192,112855,1,2,0:0:0:0:
128,192,112855,128,0,113250:0:0:0:0:
384,192,112954,1,2,0:0:0:0:
469,192,113053,1,2,0:0:0:0:
352,192,113151,1,2,0:0:0:0:
288,192,113250,1,2,0:0:0:0:
213,192,113250,128,0,113645:0:0:0:0:
480,192,113349,1,2,0:0:0:0:
416,192,113448,1,2,0:0:0:0:
469,192,113546,1,2,0:0:0:0:
288,192,113645,1,0,0:0:0:0:
128,192,113645,128,4,115224:0:0:0:0:
32,192,113646,1,4,0:0:0:0:
352,192,113744,1,2,0:0:0:0:
469,192,113842,1,2,0:0:0:0:
288,192,113941,1,2,0:0:0:0:
352,192,114040,1,2,0:0:0:0:
469,192,114138,1,2,0:0:0:0:
288,192,114237,1,2,0:0:0:0:
352,192,114336,1,2,0:0:0:0:
469,192,114434,1,0,0:0:0:0:
32,192,114434,1,4,0:0:0:0:
213,192,114434,1,4,0:0:0:0:
288,192,114533,1,2,0:0:0:0:
352,192,114632,1,2,0:0:0:0:
469,192,114730,1,2,0:0:0:0:
224,192,114829,1,2,0:0:0:0:
298,192,114829,1,2,0:0:0:0:
298,192,115026,1,2,0:0:0:0:
224,192,115026,1,2,0:0:0:0:
32,192,115224,128,4,116803:0:0:0:0:
480,192,115224,128,4,116803:0:0:0:0:
416,192,115224,1,0,0:0:0:0:
288,192,115289,1,2,0:0:0:0:
213,192,115355,1,2,0:0:0:0:
128,192,115421,1,2,0:0:0:0:
213,192,115520,1,2,0:0:0:0:
298,192,115618,1,2,0:0:0:0:
213,192,115717,1,2,0:0:0:0:
298,192,115816,1,2,0:0:0:0:
213,192,115914,1,2,0:0:0:0:
128,192,116013,1,2,0:0:0:0:
213,192,116079,1,2,0:0:0:0:
298,192,116145,1,2,0:0:0:0:
384,192,116211,1,2,0:0:0:0:
298,192,116276,1,2,0:0:0:0:
213,192,116342,1,2,0:0:0:0:
128,192,116408,1,2,0:0:0:0:
213,192,116474,1,2,0:0:0:0:
298,192,116539,1,2,0:0:0:0:
384,192,116605,1,2,0:0:0:0:
298,192,116671,1,2,0:0:0:0:
213,192,116737,1,2,0:0:0:0:
96,192,116803,1,4,0:0:0:0:
384,192,116803,1,4,0:0:0:0:
469,192,117099,1,2,0:0:0:0:
224,192,117198,1,2,0:0:0:0:
352,192,117296,1,2,0:0:0:0:
160,192,117395,1,2,0:0:0:0:
288,192,117494,1,2,0:0:0:0:
42,192,117592,1,2,0:0:0:0:
469,192,117789,1,2,0:0:0:0:
352,192,117889,1,2,0:0:0:0:
288,192,117988,1,2,0:0:0:0:
96,192,118086,1,2,0:0:0:0:
352,192,118185,1,2,0:0:0:0:
160,192,118284,1,2,0:0:0:0:
416,192,118383,1,2,0:0:0:0:
298,192,118480,1,2,0:0:0:0:
213,192,118579,1,2,0:0:0:0:
96,192,118679,1,2,0:0:0:0:
352,192,118777,1,2,0:0:0:0:
160,192,118876,1,2,0:0:0:0:
416,192,118975,1,2,0:0:0:0:
469,192,119072,1,2,0:0:0:0:
32,192,119172,1,2,0:0:0:0:
96,192,119237,1,2,0:0:0:0:
213,192,119303,1,2,0:0:0:0:
298,192,119368,1,2,0:0:0:0:
384,192,119467,1,2,0:0:0:0:
213,192,119566,1,2,0:0:0:0:
469,192,119664,1,2,0:0:0:0:
96,192,119764,1,2,0:0:0:0:
352,192,119863,1,2,0:0:0:0:
32,192,119961,1,2,0:0:0:0:
288,192,120060,1,2,0:0:0:0:
96,192,120158,1,2,0:0:0:0:
352,192,120257,1,2,0:0:0:0:
213,192,120355,1,2,0:0:0:0:
469,192,120454,1,2,0:0:0:0:
128,192,120553,1,2,0:0:0:0:
384,192,120651,1,2,0:0:0:0:
298,192,120750,1,2,0:0:0:0:
213,192,120816,1,2,0:0:0:0:
128,192,120882,1,2,0:0:0:0:
298,192,120947,1,2,0:0:0:0:
213,192,121013,1,2,0:0:0:0:
128,192,121079,1,2,0:0:0:0:
42,192,121145,1,2,0:0:0:0:
160,192,121244,1,2,0:0:0:0:
224,192,121343,1,2,0:0:0:0:
288,192,121442,1,2,0:0:0:0:
32,192,121540,1,2,0:0:0:0:
352,192,121639,1,2,0:0:0:0:
96,192,121737,1,2,0:0:0:0:
469,192,121836,1,2,0:0:0:0:
213,192,121934,1,2,0:0:0:0:
384,192,122033,1,2,0:0:0:0:
128,192,122132,1,2,0:0:0:0:
469,192,122461,1,2,0:0:0:0:
384,192,122526,1,2,0:0:0:0:
298,192,122592,1,2,0:0:0:0:
213,192,122658,1,2,0:0:0:0:
128,192,122724,1,2,0:0:0:0:
42,192,122789,1,2,0:0:0:0:
128,192,122855,1,2,0:0:0:0:
213,192,122921,1,2,0:0:0:0:
298,192,122987,1,2,0:0:0:0:
416,192,123054,1,2,0:0:0:0:
480,192,123118,1,4,0:0:0:0:
42,192,123118,1,4,0:0:0:0:
298,192,123118,1,4,0:0:0:0:
160,192,123217,1,2,0:0:0:0:
224,192,123316,1,2,0:0:0:0:
469,192,123414,1,2,0:0:0:0:
352,192,123513,1,2,0:0:0:0:
288,192,123612,1,2,0:0:0:0:
32,192,123711,1,2,0:0:0:0:
384,192,123809,1,2,0:0:0:0:
96,192,123908,1,2,0:0:0:0:
469,192,124007,1,2,0:0:0:0:
213,192,124105,1,2,0:0:0:0:
298,192,124204,1,2,0:0:0:0:
224,192,124304,1,2,0:0:0:0:
160,192,124368,1,2,0:0:0:0:
42,192,124434,1,2,0:0:0:0:
416,192,124500,1,2,0:0:0:0:
224,192,124599,1,2,0:0:0:0:
128,192,124697,1,4,0:0:0:0:
480,192,124698,1,4,0:0:0:0:
32,192,124698,1,4,0:0:0:0:
352,192,124796,1,2,0:0:0:0:
213,192,124895,1,2,0:0:0:0:
298,192,124993,1,2,0:0:0:0:
128,192,125092,1,2,0:0:0:0:
384,192,125191,1,2,0:0:0:0:
224,192,125290,1,2,0:0:0:0:
288,192,125355,1,2,0:0:0:0:
352,192,125421,1,2,0:0:0:0:
469,192,125487,1,2,0:0:0:0:
42,192,125586,1,2,0:0:0:0:
288,192,125684,1,2,0:0:0:0:
160,192,125784,1,2,0:0:0:0:
352,192,125883,1,2,0:0:0:0:
224,192,125981,1,2,0:0:0:0:
288,192,126079,1,2,0:0:0:0:
224,192,126179,1,2,0:0:0:0:
32,192,126277,1,4,0:0:0:0:
480,192,126277,1,4,0:0:0:0:
288,192,126277,1,4,0:0:0:0:
352,192,126343,1,2,0:0:0:0:
96,192,126376,1,0,0:0:0:11:soft-hitwhistle.wav
469,192,126408,1,2,0:0:0:0:
42,192,126474,1,0,0:0:0:11:soft-hitwhistle.wav
288,192,126475,1,2,0:0:0:0:
352,192,126540,1,2,0:0:0:0:
128,192,126572,1,0,0:0:0:11:soft-hitwhistle.wav
469,192,126605,1,2,0:0:0:0:
42,192,126671,1,0,0:0:0:11:soft-hitwhistle.wav
288,192,126672,1,2,0:0:0:0:
352,192,126738,1,2,0:0:0:0:
96,192,126771,1,0,0:0:0:11:soft-hitwhistle.wav
469,192,126803,1,2,0:0:0:0:
42,192,126868,1,0,0:0:0:11:soft-hitwhistle.wav
288,192,126869,1,2,0:0:0:0:
352,192,126935,1,2,0:0:0:0:
96,192,126968,1,0,0:0:0:11:soft-hitwhistle.wav
469,192,127000,1,2,0:0:0:0:
384,192,127066,1,4,0:0:0:0:
42,192,127066,1,4,0:0:0:11:soft-hitwhistle.wav
298,192,127132,1,2,0:0:0:0:
96,192,127165,1,0,0:0:0:11:soft-hitwhistle.wav
352,192,127197,1,2,0:0:0:0:
480,192,127263,1,2,0:0:0:0:
42,192,127263,1,0,0:0:0:11:soft-hitwhistle.wav
416,192,127329,1,2,0:0:0:0:
96,192,127363,1,0,0:0:0:11:soft-hitwhistle.wav
298,192,127395,1,2,0:0:0:0:
384,192,127461,1,2,0:0:0:0:
469,192,127526,1,2,0:0:0:0:
352,192,127592,1,2,0:0:0:0:
288,192,127658,1,2,0:0:0:0:
224,192,127724,1,2,0:0:0:0:
160,192,127789,1,2,0:0:0:0:
384,192,127855,1,4,0:0:0:0:
32,192,127855,1,4,0:0:0:0:
298,192,127855,1,4,0:0:0:0:
213,192,128053,128,2,128250:0:0:0:0:
469,192,128053,128,2,128250:0:0:0:0:
352,192,128251,128,2,128448:0:0:0:0:
96,192,128251,128,2,128448:0:0:0:0:
32,192,128448,128,2,128646:0:0:0:0:
288,192,128448,128,2,128646:0:0:0:0:
96,192,128646,128,2,128843:0:0:0:0:
352,192,128646,128,2,128843:0:0:0:0:
213,192,128842,128,2,129039:0:0:0:0:
469,192,128842,128,2,129039:0:0:0:0:
128,192,129039,128,2,129237:0:0:0:0:
384,192,129039,128,2,129237:0:0:0:0:
298,192,129237,128,2,129434:0:0:0:0:
42,192,129237,128,2,129434:0:0:0:0:
384,192,129434,1,2,0:0:0:0:
213,192,129434,1,2,0:0:0:0:
469,192,129434,1,0,1:0:0:0:
42,192,129829,1,8,0:0:0:0:
224,192,129829,1,8,0:0:0:0:
288,192,130026,1,2,0:0:0:0:
352,192,130125,1,2,0:0:0:0:
469,192,130224,1,2,0:0:0:0:
42,192,130224,1,0,0:0:0:0:
160,192,130323,1,0,0:0:0:0:
384,192,130421,1,2,0:0:0:0:
224,192,130422,1,0,0:0:0:0:
224,192,130618,1,8,0:0:0:0:
42,192,130618,1,8,0:0:0:0:
469,192,130618,1,2,0:0:0:0:
352,192,130816,1,2,0:0:0:0:
288,192,131013,1,2,0:0:0:0:
42,192,131013,1,0,0:0:0:0:
160,192,131212,1,0,0:0:0:0:
224,192,131408,1,8,0:0:0:0:
42,192,131408,1,8,0:0:0:0:
480,192,131408,1,2,0:0:0:0:
42,192,131803,1,0,0:0:0:0:
160,192,131902,1,0,0:0:0:0:
224,192,132001,1,0,0:0:0:0:
42,192,132197,1,8,0:0:0:0:
224,192,132197,1,8,0:0:0:0:
42,192,132592,1,0,0:0:0:0:
416,192,132593,1,2,0:0:0:0:
128,192,132790,1,0,0:0:0:0:
224,192,132987,1,8,0:0:0:0:
42,192,132987,1,8,0:0:0:0:
480,192,133185,1,2,0:0:0:0:
416,192,133284,1,2,0:0:0:0:
298,192,133382,1,2,0:0:0:0:
42,192,133382,1,0,0:0:0:0:
160,192,133481,1,0,0:0:0:0:
384,192,133579,1,2,0:0:0:0:
224,192,133580,1,0,0:0:0:0:
42,192,133776,1,8,0:0:0:0:
224,192,133776,1,8,0:0:0:0:
298,192,133776,1,2,0:0:0:0:
416,192,133975,1,2,0:0:0:0:
42,192,134171,1,0,0:0:0:0:
480,192,134172,1,2,0:0:0:0:
160,192,134369,1,0,0:0:0:0:
352,192,134566,1,2,0:0:0:0:
224,192,134566,1,8,0:0:0:0:
42,192,134566,1,8,0:0:0:0:
42,192,134961,1,0,0:0:0:0:
160,192,135060,1,0,0:0:0:0:
384,192,135158,1,2,0:0:0:0:
224,192,135159,1,0,0:0:0:0:
298,192,135355,1,2,0:0:0:0:
42,192,135355,1,8,0:0:0:0:
224,192,135355,1,8,0:0:0:0:
352,192,135454,1,2,0:0:0:0:
298,192,135553,1,2,0:0:0:0:
224,192,135553,1,8,0:0:0:0:
42,192,135553,1,8,0:0:0:0:
416,192,135652,1,2,0:0:0:0:
128,192,135750,1,4,0:0:0:0:
480,192,135750,1,4,0:0:0:0:
298,192,135750,1,4,0:0:0:0:
42,192,136145,1,8,0:0:0:0:
224,192,136145,1,8,0:0:0:0:
480,192,136342,1,2,0:0:0:0:
416,192,136441,1,2,0:0:0:0:
42,192,136539,1,0,0:0:0:0:
298,192,136539,1,2,0:0:0:0:
160,192,136639,1,0,0:0:0:0:
384,192,136737,1,2,0:0:0:0:
224,192,136738,1,0,0:0:0:0:
469,192,136934,1,2,0:0:0:0:
224,192,136934,1,8,0:0:0:0:
42,192,136934,1,8,0:0:0:0:
416,192,137132,1,2,0:0:0:0:
42,192,137329,1,4,0:0:0:0:
480,192,137329,1,4,0:0:0:0:
298,192,137329,1,4,0:0:0:0:
128,192,137526,1,0,0:0:0:0:
384,192,137526,1,0,0:0:0:0:
469,192,137724,1,2,0:0:0:0:
42,192,137724,1,8,0:0:0:0:
224,192,137724,1,8,0:0:0:0:
416,192,137921,1,2,0:0:0:0:
298,192,138118,1,2,0:0:0:0:
42,192,138118,1,0,0:0:0:0:
160,192,138218,1,0,0:0:0:0:
224,192,138317,1,0,0:0:0:0:
469,192,138513,1,2,0:0:0:0:
224,192,138513,1,8,0:0:0:0:
42,192,138513,1,8,0:0:0:0:
352,192,138645,1,2,0:0:0:0:
42,192,138711,1,8,0:0:0:0:
224,192,138711,1,8,0:0:0:0:
288,192,138777,1,2,0:0:0:0:
469,192,138908,1,4,0:0:0:0:
384,192,138908,1,0,0:0:0:0:
128,192,138908,128,0,139303:1:0:0:0:
224,192,139303,1,8,0:0:0:0:
42,192,139303,1,8,0:0:0:0:
352,192,139304,1,2,0:0:0:0:
288,192,139434,1,2,0:0:0:0:
416,192,139566,1,2,0:0:0:0:
128,192,139697,1,4,0:0:0:0:
213,192,139697,1,0,0:0:0:0:
469,192,139697,128,0,140092:0:0:0:0:
298,192,140092,1,2,0:0:0:0:
213,192,140224,1,2,0:0:0:0:
128,192,140355,1,2,0:0:0:0:
42,192,140487,1,4,0:0:0:0:
298,192,140487,1,4,0:0:0:0:
480,192,140488,1,4,0:0:0:0:
416,192,140587,1,2,0:0:0:11:soft-hitwhistle.wav
128,192,140618,1,2,0:0:0:0:
469,192,140684,1,2,0:0:0:11:soft-hitwhistle.wav
213,192,140750,1,2,0:0:0:0:
416,192,140784,1,2,0:0:0:11:soft-hitwhistle.wav
469,192,140882,1,2,0:0:0:11:soft-hitwhistle.wav
128,192,140882,1,2,0:0:0:0:
416,192,140981,1,2,0:0:0:11:soft-hitwhistle.wav
42,192,141013,1,2,0:0:0:0:
469,192,141079,1,2,0:0:0:11:soft-hitwhistle.wav
96,192,141146,1,2,0:0:0:0:
416,192,141179,1,2,0:0:0:11:soft-hitwhistle.wav
469,192,141276,1,2,0:0:0:11:soft-hitwhistle.wav
213,192,141276,1,2,0:0:0:0:
416,192,141376,1,2,0:0:0:11:soft-hitwhistle.wav
96,192,141409,1,2,0:0:0:0:
469,192,141474,1,2,0:0:0:11:soft-hitwhistle.wav
42,192,141539,1,2,0:0:0:0:
416,192,141573,1,2,0:0:0:11:soft-hitwhistle.wav
469,192,141671,1,2,0:0:0:11:soft-hitwhistle.wav
128,192,141671,1,2,0:0:0:0:
416,192,141771,1,2,0:0:0:11:soft-hitwhistle.wav
213,192,141803,1,2,0:0:0:0:
469,192,141868,1,2,0:0:0:11:soft-hitwhistle.wav
96,192,141935,1,2,0:0:0:0:
416,192,141968,1,2,0:0:0:11:soft-hitwhistle.wav
298,192,142066,1,4,0:0:0:0:
480,192,142067,1,4,0:0:0:0:
32,192,142067,1,4,0:0:0:0:
96,192,142198,1,2,0:0:0:0:
213,192,142329,1,2,0:0:0:0:
32,192,142461,1,2,0:0:0:0:
469,192,142461,1,8,0:0:0:0:
288,192,142461,1,8,0:0:0:0:
160,192,142592,1,2,0:0:0:0:
213,192,142724,1,2,0:0:0:0:
42,192,142855,1,2,0:0:0:0:
469,192,142855,1,0,0:0:0:0:
352,192,142955,1,0,0:0:0:0:
128,192,142987,1,2,0:0:0:0:
288,192,143054,1,0,0:0:0:0:
213,192,143118,1,2,0:0:0:0:
288,192,143250,1,8,0:0:0:0:
469,192,143250,1,8,0:0:0:0:
160,192,143251,1,2,0:0:0:0:
42,192,143382,1,2,0:0:0:0:
160,192,143514,1,2,0:0:0:0:
469,192,143645,1,0,0:0:0:0:
213,192,143645,1,2,0:0:0:0:
160,192,143777,1,2,0:0:0:0:
384,192,143842,1,0,0:0:0:0:
213,192,143908,1,2,0:0:0:0:
469,192,144039,1,8,0:0:0:0:
288,192,144039,1,8,0:0:0:0:
128,192,144039,1,2,0:0:0:0:
42,192,144171,1,2,0:0:0:0:
160,192,144304,1,2,0:0:0:0:
213,192,144434,1,2,0:0:0:0:
469,192,144434,1,0,0:0:0:0:
352,192,144534,1,0,0:0:0:0:
160,192,144567,1,2,0:0:0:0:
288,192,144633,1,0,0:0:0:0:
32,192,144698,1,2,0:0:0:0:
96,192,144829,1,2,0:0:0:0:
288,192,144829,1,8,0:0:0:0:
469,192,144829,1,8,0:0:0:0:
42,192,144961,1,2,0:0:0:0:
128,192,145092,1,2,0:0:0:0:
480,192,145224,1,2,0:0:0:0:
416,192,145323,1,2,0:0:0:0:
298,192,145421,1,2,0:0:0:0:
213,192,145520,1,2,0:0:0:0:
128,192,145618,1,2,0:0:0:0:
32,192,145750,1,2,0:0:0:0:
213,192,145882,1,2,0:0:0:0:
384,192,146013,1,2,0:0:0:0:
128,192,146145,1,2,0:0:0:0:
298,192,146276,1,2,0:0:0:0:
469,192,146408,1,2,0:0:0:0:
213,192,146539,1,2,0:0:0:0:
384,192,146671,1,2,0:0:0:0:
42,192,146803,1,2,0:0:0:0:
96,192,146901,1,2,0:0:0:0:
213,192,147000,1,2,0:0:0:0:
298,192,147099,1,2,0:0:0:0:
469,192,147197,1,2,0:0:0:0:
352,192,147263,1,2,0:0:0:0:
288,192,147329,1,2,0:0:0:0:
469,192,147395,1,2,0:0:0:0:
352,192,147461,1,2,0:0:0:0:
288,192,147526,1,2,0:0:0:0:
224,192,147592,1,2,0:0:0:0:
128,192,147789,1,2,0:0:0:0:
224,192,147987,1,2,0:0:0:0:
298,192,148086,1,2,0:0:0:0:
160,192,148184,1,2,0:0:0:0:
416,192,148283,1,2,0:0:0:0:
213,192,148382,1,4,0:0:0:0:
480,192,148383,1,4,0:0:0:0:
32,192,148383,1,4,0:0:0:0:
96,192,148645,1,2,0:0:0:0:
416,192,148645,1,2,0:0:0:0:
288,192,148908,1,2,0:0:0:0:
42,192,148909,1,2,0:0:0:0:
128,192,149270,1,2,0:0:0:0:
352,192,149271,1,2,0:0:0:0:
469,192,149368,1,2,0:0:0:0:
42,192,149368,1,2,0:0:0:0:
224,192,149566,1,2,0:0:0:0:
298,192,149566,1,2,0:0:0:0:
160,192,149764,1,2,0:0:0:0:
352,192,149764,1,2,0:0:0:0:
32,192,149961,1,4,0:0:0:0:
480,192,149961,1,4,0:0:0:0:
298,192,149961,1,4,0:0:0:0:
160,192,150224,1,2,0:0:0:0:
352,192,150224,1,2,0:0:0:0:
480,192,150487,1,2,0:0:0:0:
213,192,150487,1,2,0:0:0:0:
128,192,150750,1,2,0:0:0:0:
416,192,150751,1,2,0:0:0:0:
42,192,150849,1,2,0:0:0:0:
469,192,150849,1,2,0:0:0:0:
213,192,150947,1,2,0:0:0:0:
298,192,150947,1,2,0:0:0:0:
96,192,151145,1,2,0:0:0:0:
416,192,151145,1,2,0:0:0:0:
32,192,151343,1,2,0:0:0:0:
480,192,151343,1,2,0:0:0:0:
213,192,151539,1,4,0:0:0:0:
469,192,151539,1,4,0:0:0:0:
384,192,151638,1,2,0:0:0:0:
128,192,151638,1,2,0:0:0:0:
298,192,151737,1,2,0:0:0:0:
42,192,151737,1,2,0:0:0:0:
416,192,151836,1,2,0:0:0:0:
128,192,151836,1,2,0:0:0:0:
213,192,151934,1,2,0:0:0:0:
469,192,151934,1,2,0:0:0:0:
384,192,152033,1,2,0:0:0:0:
128,192,152033,1,2,0:0:0:0:
42,192,152132,1,2,0:0:0:0:
298,192,152132,1,2,0:0:0:0:
160,192,152230,1,2,0:0:0:0:
416,192,152230,1,2,0:0:0:0:
224,192,152329,1,4,0:0:0:0:
480,192,152330,1,4,0:0:0:0:
160,192,152724,1,2,0:0:0:0:
416,192,152725,1,2,0:0:0:0:
42,192,153118,1,4,0:0:0:0:
469,192,153118,1,4,0:0:0:0:
213,192,153118,128,4,153711:0:0:0:0:
298,192,153118,128,4,153711:0:0:0:0:
469,192,153711,128,2,153809:0:0:0:0:
42,192,153711,128,2,153809:0:0:0:0:
352,192,153810,128,2,153909:0:0:0:0:
160,192,153810,128,2,153909:0:0:0:0:
224,192,153908,128,2,154105:0:0:0:0:
288,192,153908,128,2,154105:0:0:0:0:
352,192,154697,1,8,0:0:0:0:
32,192,154698,128,4,155883:0:0:0:0:
480,192,154698,128,4,155883:0:0:0:0:
160,192,154797,1,0,0:0:0:0:
288,192,154896,1,0,0:0:0:0:
224,192,155093,1,8,0:0:0:0:
352,192,155192,1,0,0:0:0:0:
160,192,155290,1,0,0:0:0:0:
288,192,155488,1,8,0:0:0:0:
213,192,155586,1,0,0:0:0:0:
298,192,155684,1,0,0:0:0:0:
384,192,155882,128,0,156276:0:0:0:0:
128,192,155882,128,0,156276:0:0:0:0:
224,192,155883,1,8,0:0:0:0:
298,192,155980,1,0,0:0:0:0:
213,192,156079,1,0,0:0:0:0:
480,192,156277,128,0,157067:0:0:0:0:
32,192,156277,128,0,157067:0:0:0:0:
288,192,156277,1,8,0:0:0:0:
213,192,156375,1,0,0:0:0:0:
352,192,156475,1,0,0:0:0:0:
128,192,156671,1,8,0:0:0:0:
298,192,156770,1,0,0:0:0:0:
213,192,156868,1,0,0:0:0:0:
128,192,157066,128,0,157855:0:0:0:0:
384,192,157066,128,0,157855:0:0:0:0:
288,192,157067,1,8,0:0:0:0:
213,192,157164,1,0,0:0:0:0:
298,192,157263,1,0,0:0:0:0:
224,192,157461,1,8,0:0:0:0:
298,192,157559,1,0,0:0:0:0:
213,192,157658,1,0,0:0:0:0:
32,192,157856,128,0,159040:0:0:0:0:
480,192,157856,128,0,159040:0:0:0:0:
288,192,157856,1,8,0:0:0:0:
213,192,157954,1,0,0:0:0:0:
298,192,158053,1,0,0:0:0:0:
224,192,158251,1,8,0:0:0:0:
288,192,158349,1,0,0:0:0:0:
352,192,158546,1,8,0:0:0:0:
288,192,158645,1,0,0:0:0:0:
224,192,158743,1,0,0:0:0:0:
160,192,158842,1,0,0:0:0:0:
298,192,159039,128,0,159237:0:0:0:0:
213,192,159039,128,0,159237:0:0:0:0:
384,192,159237,128,0,159434:0:0:0:0:
160,192,159238,128,0,159435:0:0:0:0:
298,192,159434,1,8,0:0:0:0:
42,192,159434,128,0,160618:0:0:0:0:
469,192,159434,128,0,160618:0:0:0:0:
384,192,159533,1,0,0:0:0:0:
298,192,159632,1,0,0:0:0:0:
213,192,159829,1,8,0:0:0:0:
96,192,159929,1,0,0:0:0:0:
213,192,160026,1,0,0:0:0:0:
298,192,160224,1,8,0:0:0:0:
416,192,160323,1,0,0:0:0:0:
298,192,160421,1,0,0:0:0:0:
213,192,160618,1,0,0:0:0:0:
298,192,160618,1,0,0:0:0:0:
96,192,160718,1,0,0:0:0:0:
416,192,160718,1,0,0:0:0:0:
213,192,160816,1,0,0:0:0:0:
298,192,160816,1,0,0:0:0:0:
96,192,160915,1,0,0:0:0:0:
416,192,160915,1,0,0:0:0:0:
32,192,161013,128,4,163974:0:0:0:0:
480,192,161013,128,4,163974:0:0:0:0:
213,192,161013,1,4,0:0:0:0:
298,192,161013,1,4,0:0:0:0:
128,192,161408,1,8,0:0:0:0:
384,192,161408,1,0,0:0:0:0:
213,192,161507,1,0,0:0:0:2:
298,192,161605,1,2,0:0:0:2:
384,192,161803,1,8,0:0:0:0:
128,192,161803,1,2,0:0:0:0:
298,192,161901,1,0,0:0:0:2:
213,192,162000,1,2,0:0:0:2:
128,192,162197,1,8,0:0:0:0:
384,192,162197,1,2,0:0:0:0:
213,192,162296,1,0,0:0:0:2:
298,192,162395,1,2,0:0:0:0:
384,192,162592,1,8,0:0:0:0:
128,192,162592,1,2,0:0:0:0:
298,192,162691,1,0,0:0:0:2:
213,192,162789,1,2,0:0:0:0:
128,192,162987,1,8,0:0:0:0:
384,192,162987,1,2,0:0:0:0:
213,192,163086,1,0,0:0:0:2:
298,192,163184,1,2,0:0:0:0:
384,192,163382,1,8,0:0:0:0:
128,192,163480,1,0,0:0:0:2:
213,192,163776,1,2,0:0:0:0:
298,192,163776,1,2,0:0:0:0:
352,192,163974,128,2,164171:0:0:0:0:
128,192,163974,128,2,164171:0:0:0:0:
224,192,164171,128,2,165750:0:0:0:0:
288,192,164172,128,2,165751:0:0:0:0:
32,192,164567,1,8,0:0:0:0:
96,192,164664,1,2,0:0:0:2:
480,192,164764,128,2,164961:0:0:0:0:
96,192,164961,128,2,165159:0:0:0:0:
416,192,165159,128,2,165356:0:0:0:0:
32,192,165356,1,8,0:0:0:0:
96,192,165454,1,0,0:0:0:2:
384,192,165553,1,2,0:0:0:0:
469,192,165651,1,0,0:0:0:0:
160,192,165750,128,2,166539:0:0:0:0:
352,192,165750,128,2,166539:0:0:0:0:
480,192,166145,128,10,166342:0:0:0:0:
32,192,166145,128,2,166342:0:0:0:0:
469,192,166638,1,2,0:0:0:0:
42,192,166638,1,2,0:0:0:0:
298,192,166737,1,2,0:0:0:0:
213,192,166737,1,2,0:0:0:0:
416,192,166836,1,2,0:0:0:0:
96,192,166836,1,2,0:0:0:0:
469,192,166934,1,2,0:0:0:0:
42,192,166934,1,2,0:0:0:0:
128,192,167033,1,2,0:0:0:0:
384,192,167033,1,2,0:0:0:0:
213,192,167132,1,2,0:0:0:0:
298,192,167132,1,2,0:0:0:0:
96,192,167231,1,2,0:0:0:0:
416,192,167231,1,2,0:0:0:0:
480,192,167329,128,4,167526:0:0:0:0:
224,192,167330,128,4,170093:0:0:0:0:
32,192,167330,1,4,0:0:0:0:
288,192,167330,128,4,170093:0:0:0:0:
352,192,167724,1,8,0:0:0:0:
32,192,167724,128,2,167921:0:0:0:0:
469,192,167822,1,0,0:0:0:2:
384,192,167921,1,2,0:0:0:0:
480,192,168118,128,2,168316:0:0:0:0:
160,192,168118,1,8,0:0:0:0:
42,192,168217,1,0,0:0:0:2:
128,192,168316,1,2,0:0:0:0:
352,192,168513,1,8,0:0:0:0:
32,192,168513,128,2,168711:0:0:0:0:
469,192,168612,1,0,0:0:0:2:
384,192,168711,1,2,0:0:0:0:
480,192,168908,128,2,169105:0:0:0:0:
160,192,168908,1,8,0:0:0:0:
42,192,169007,1,0,0:0:0:2:
128,192,169105,1,2,0:0:0:0:
384,192,169303,1,8,0:0:0:0:
32,192,169304,128,2,169501:0:0:0:0:
469,192,169401,1,0,0:0:0:2:
384,192,169500,1,2,0:0:0:0:
480,192,169697,128,2,169895:0:0:0:0:
128,192,169697,1,8,0:0:0:0:
42,192,169796,1,0,0:0:0:2:
160,192,169895,1,2,0:0:0:0:
384,192,170092,128,2,170289:0:0:0:0:
42,192,170092,128,2,170289:0:0:0:0:
298,192,170289,128,2,170487:0:0:0:0:
128,192,170289,128,2,170487:0:0:0:0:
213,192,170487,128,2,170882:0:0:0:0:
469,192,170487,128,2,170684:0:0:0:0:
128,192,170882,128,2,171079:0:0:0:0:
384,192,170882,128,2,171276:0:0:0:0:
298,192,171276,128,2,171474:0:0:0:0:
42,192,171276,128,2,171671:0:0:0:0:
213,192,171671,128,2,171868:0:0:0:0:
469,192,171671,128,2,172066:0:0:0:0:
384,192,172066,128,2,172461:0:0:0:0:
128,192,172066,128,2,172263:0:0:0:0:
288,192,172461,128,2,172658:0:0:0:0:
32,192,172461,128,2,172855:0:0:0:0:
480,192,172856,128,2,172955:0:0:0:0:
416,192,172955,128,2,173054:0:0:0:0:
128,192,173053,128,2,173151:0:0:0:0:
213,192,173151,128,2,173250:0:0:0:0:
298,192,173250,128,2,173349:0:0:0:0:
384,192,173349,128,2,173447:0:0:0:0:
298,192,173447,128,2,173546:0:0:0:0:
213,192,173546,128,2,173645:0:0:0:0:
32,192,173645,128,4,178678:0:0:0:0:
288,192,173645,1,8,0:0:0:0:
128,192,173645,128,4,176803:0:0:0:0:
480,192,173645,128,4,178678:0:0:0:0:
384,192,173645,128,4,176803:0:0:0:0:
224,192,173843,1,8,0:0:0:0:
213,192,174039,1,8,0:0:0:0:
298,192,174039,1,8,0:0:0:0:
213,192,174237,1,0,0:0:0:0:
298,192,174237,1,0,0:0:0:0:
288,192,174435,1,8,0:0:0:0:
224,192,174534,1,8,0:0:0:0:
298,192,174829,1,8,0:0:0:0:
213,192,174829,1,8,0:0:0:0:
213,192,175026,1,0,0:0:0:0:
298,192,175026,1,0,0:0:0:0:
288,192,175225,1,8,0:0:0:0:
224,192,175422,1,8,0:0:0:0:
213,192,175618,1,8,0:0:0:0:
298,192,175618,1,8,0:0:0:0:
213,192,175816,1,0,0:0:0:0:
298,192,175816,1,0,0:0:0:0:
288,192,176014,1,8,0:0:0:0:
224,192,176113,1,8,0:0:0:0:
298,192,176408,1,8,0:0:0:0:
213,192,176408,1,8,0:0:0:0:
298,192,176605,1,0,0:0:0:0:
213,192,176605,1,0,0:0:0:0:
224,192,176803,1,12,0:0:0:0:
288,192,176901,1,8,0:0:0:0:
224,192,177000,1,8,0:0:0:0:
288,192,177099,1,8,0:0:0:0:
213,192,177197,1,8,0:0:0:0:
298,192,177296,1,8,0:0:0:0:
213,192,177395,1,8,0:0:0:0:
298,192,177493,1,8,0:0:0:0:
96,192,177592,1,4,0:0:0:0:
416,192,177592,1,4,0:0:0:0:
224,192,177691,1,8,0:0:0:0:
288,192,177789,1,8,0:0:0:0:
224,192,177888,1,8,0:0:0:0:
288,192,177987,1,8,0:0:0:0:
213,192,178086,1,8,0:0:0:0:
298,192,178184,1,8,0:0:0:0:
213,192,178283,1,8,0:0:0:0:
96,192,178382,1,4,0:0:0:0:
416,192,178382,1,4,0:0:0:0:
213,192,178480,1,8,0:0:0:0:
298,192,178579,1,8,0:0:0:0:
384,192,178678,128,2,178776:0:0:0:0:
128,192,178776,128,2,178875:0:0:0:0:
469,192,178875,128,2,178974:0:0:0:0:
42,192,178974,128,2,179072:0:0:0:0:
384,192,179072,128,2,179171:0:0:0:0:
128,192,179171,128,2,179270:0:0:0:0:
298,192,179270,128,2,179368:0:0:0:0:
213,192,179368,128,2,179467:0:0:0:0:
416,192,179467,128,2,179566:0:0:0:0:
96,192,179566,128,2,179665:0:0:0:0:
480,192,179665,128,2,179763:0:0:0:0:
32,192,179763,128,2,179862:0:0:0:0:
288,192,179961,128,4,186770:0:0:0:0:
416,192,179961,128,4,186770:0:0:0:0:
224,192,179961,128,4,186770:0:0:0:0:
160,192,179961,128,4,186770:0:0:0:0:
