osu file format v13

[General]
AudioFilename: L Ascension Act2 by ICE.mp3
AudioLeadIn: 0
PreviewTime: 64162
Countdown: 0
SampleSet: Soft
StackLeniency: 0.9
Mode: 3
LetterboxInBreaks: 0
SpecialStyle: 0
WidescreenStoryboard: 1

[Editor]
Bookmarks: 1693,20032,39580,46342,51774,64258,83999,91695,97598,103791,117001,117049,128130,142211,154791
DistanceSpacing: 0.8
BeatDivisor: 4
GridSize: 8
TimelineZoom: 1.5

[Metadata]
Title:L2 - Ascension : Act 2 (Liberation)
TitleUnicode:L青 - Liberation
Artist:Ice
ArtistUnicode:Ice
Creator:LordRaika
Version:Perfection (4K EX)
Source:Cytus
Tags:Iceloki Instrumental Piano Violin CoroQuetz Okoratu Fullerene- lZenxl CLSW Expew Kurokami DjNightmare
BeatmapID:450128
BeatmapSetID:123760

[Difficulty]
HPDrainRate:8.5
CircleSize:4
OverallDifficulty:8.5
ApproachRate:5
SliderMultiplier:2.99999990463257
SliderTickRate:4

[Events]
//Background and Video events
0,0,"L2.jpg",0,0
//Break Periods
//Storyboard Layer 0 (Background)
//Storyboard Layer 1 (Fail)
//Storyboard Layer 2 (Pass)
//Storyboard Layer 3 (Foreground)
Sprite,Foreground,Centre,"Resource\My Icon EX.png",320,240 M,0,-38,,617,403 S,0,-38,,0.7678357 F,0,-38,179961,1 F,0,179961,187165,1,0
Sprite,Foreground,Centre,"Resource\lZenxl.png",320,240 F,0,179961,180355,0,1 M,0,180355,,567,258 S,0,180355,,0.7789087 F,0,180355,186671,1 F,0,186671,187165,1,0
Sprite,Foreground,Centre,"Resource\LordRaika.png",320,240 F,0,179961,180355,0,1 M,0,180355,,573,179 S,0,180355,,0.7789087 F,0,180355,186671,1 F,0,186671,187165,1,0
//Storyboard Sound Samples
Sample,1540,0,"C#4S_Db4S.wav",50
Sample,4697,0,"D#4S_Eb4S.wav",50
Sample,6276,0,"E4S.wav",33
Sample,7855,0,"F4S.wav",50
Sample,8645,0,"G4S.wav",50
Sample,9434,0,"G#4S_Ab4S.wav",40
Sample,13382,0,"F3S.wav",40
Sample,13382,0,"C4S.wav",40
Sample,14171,0,"C#4S_Db4S.wav",50
Sample,17329,0,"C4S.wav",50
Sample,18908,0,"F3S.wav",50
Sample,20487,0,"F4S.wav",40
Sample,20487,0,"G#4S_Ab4S.wav",40
Sample,22066,0,"F3S.wav",40
Sample,22066,0,"A#3S_Bb3S.wav",40
Sample,22066,0,"C#4S_Db4S.wav",40
Sample,22066,0,"A#3S_Bb3S.wav",40
Sample,22461,0,"G#5S_Ab5S.wav",50
Sample,22855,0,"A#5S_Bb5S.wav",50
Sample,23250,0,"C#6S_Db6S.wav",50
Sample,23645,0,"C6S.wav",50
Sample,23645,0,"E4S.wav",33
Sample,23645,0,"G4S.wav",33
Sample,23645,0,"C4S.wav",33
Sample,26803,0,"F4S.wav",60
//Background Colour Transformations
3,100,163,162,255

[TimingPoints]
1540,394.736842105263,4,2,1,5,1,0
1540,-142.857142857143,4,2,0,5,0,0
7855,-166.666666666667,4,2,0,5,0,0
8646,-142.857142857143,4,2,0,5,0,0
9434,-166.666666666667,4,2,0,5,0,0
11023,-131.578947368421,4,2,0,5,0,0
19896,-107.52688172043,4,2,0,5,0,0
20487,-107.52688172043,4,1,0,12,0,0
20586,-107.52688172043,4,2,0,5,0,0
21868,-107.52688172043,4,2,0,5,0,0
22066,-107.52688172043,4,1,0,10,0,0
22164,-107.52688172043,4,2,0,5,0,0
23645,-107.52688172043,4,1,0,18,0,0
24434,-166.666666666667,4,1,0,12,0,0
24484,-113.636363636364,4,2,1,5,0,0
25224,-133.333333333333,4,1,0,36,0,0
25273,-113.636363636364,4,2,0,5,0,0
26754,-100,4,1,2,18,0,0
39435,-133.333333333333,4,1,0,12,0,0
39485,-100,4,2,0,18,0,0
52067,-133.333333333333,4,1,0,18,0,0
52116,-100,4,2,0,9,0,0
64698,-151.515151515152,4,1,0,18,0,0
64748,-100,4,1,2,11,0,0
71014,-151.515151515152,4,1,0,12,0,0
71063,-100,4,2,0,5,0,0
72593,-151.515151515152,4,1,0,12,0,0
72642,-100,4,2,0,5,0,0
74172,-151.515151515152,4,1,0,12,0,0
74221,-100,4,1,2,15,0,0
75751,-151.515151515152,4,1,0,12,0,0
75800,-100,4,2,0,5,0,0
77329,-119.047619047619,4,2,0,5,0,0
77428,-108.695652173913,4,2,1,5,0,0
77526,-100,4,1,0,12,0,1
78809,-108.695652173913,4,2,1,5,0,1
78908,-119.047619047619,4,2,0,22,0,1
79007,-108.695652173913,4,2,1,5,0,1
79106,-100,4,1,2,9,0,1
80388,-108.695652173913,4,2,1,5,0,1
80487,-119.047619047619,4,3,0,20,0,1
80586,-108.695652173913,4,2,1,5,0,1
80684,-100,4,1,0,15,0,1
81967,-108.695652173913,4,2,1,5,0,1
82066,-119.047619047619,4,1,0,5,0,1
82165,-108.695652173913,4,2,1,5,0,1
82263,-100,4,1,0,11,0,1
83254,-103.092783505155,4,1,0,9,0,1
83300,-100,4,2,1,5,0,1
83350,-103.092783505155,4,1,0,9,0,1
83399,-100,4,2,1,5,0,1
83448,-103.092783505155,4,1,0,9,0,1
83498,-100,4,2,1,5,0,1
83547,-103.092783505155,4,1,0,9,0,1
83596,-100,4,2,1,5,0,1
83646,-100,4,1,0,16,0,1
83743,-100,4,2,0,5,0,1
85224,-151.515151515152,4,1,0,12,0,1
85266,-100,4,2,0,5,0,1
86803,-151.515151515152,4,1,0,12,0,1
86843,-100,4,2,0,5,0,1
87593,-151.515151515152,4,1,0,18,0,1
87642,-100,4,2,0,5,0,1
88382,-153.846153846154,4,2,1,5,0,0
89171,-138.888888888889,4,2,0,9,0,0
89961,-126.582278481013,4,2,0,9,0,0
90751,-116.279069767442,4,2,0,12,0,0
91145,-107.52688172043,4,2,0,12,0,0
91540,-151.515151515152,4,1,0,12,0,0
91589,-100,4,1,2,16,0,0
97263,-100,4,2,0,33,0,1
97855,-166.666666666667,4,1,1,12,0,1
97906,-100,4,2,0,33,0,1
98645,-166.666666666667,4,1,0,12,0,1
98695,-100,4,2,0,33,0,1
99434,-166.666666666667,4,1,0,12,0,1
99485,-100,4,2,0,33,0,1
100224,-166.666666666667,4,1,0,12,0,1
100274,-100,4,2,0,33,0,1
101013,-166.666666666667,4,1,0,12,0,1
101064,-100,4,2,0,33,0,1
101803,-270.27027027027,4,1,0,12,0,1
101853,-100,4,2,0,33,0,1
102592,-270.27027027027,4,1,0,12,0,1
102642,-100,4,1,2,15,0,1
104172,-151.515151515152,4,1,0,12,0,1
104221,-100,4,2,0,5,0,1
110487,-166.666666666667,4,1,0,12,0,1
110537,-100,4,2,0,5,0,1
112066,-166.666666666667,4,1,0,12,0,1
112116,-100,4,2,0,5,0,1
113645,-166.666666666667,4,1,0,14,0,1
113695,-100,4,2,0,5,0,1
114434,-166.666666666667,4,1,0,14,0,1
114485,-100,4,2,0,5,0,1
116803,-166.666666666667,4,1,0,12,0,1
116853,-100,4,2,0,5,0,1
123118,-166.666666666667,4,1,0,12,0,1
123169,-100,4,2,0,5,0,1
124697,-166.666666666667,4,1,0,12,0,1
124748,-100,4,2,0,5,0,1
126276,-129.87012987013,4,1,0,16,0,1
126326,-100,4,2,0,5,0,1
127067,-129.87012987013,4,1,0,16,0,1
127116,-100,4,2,0,5,0,1
127855,-142.857142857143,4,1,0,12,0,0
127905,-100,4,2,0,5,0,0
129829,-100,4,2,0,5,0,0
135751,-151.515151515152,4,1,0,10,0,0
135800,-100,4,2,0,5,0,0
137329,-151.515151515152,4,1,0,12,0,0
137379,-100,4,1,0,12,0,0
138909,-151.515151515152,4,1,0,18,0,0
138958,-100,4,1,0,12,0,0
139700,-151.515151515152,4,1,0,18,0,0
139748,-100,4,1,0,12,0,0
140487,-125,4,1,0,18,0,1
140520,-100,4,1,2,20,0,1
142066,-151.515151515152,4,1,0,12,0,1
142116,-100,4,2,0,5,0,1
148382,-151.515151515152,4,1,0,12,0,1
148432,-100,4,2,0,5,0,1
149961,-151.515151515152,4,1,0,18,0,1
150011,-100,4,2,0,5,0,1
151540,-161.290322580645,4,1,0,27,0,1
151590,-100,4,1,2,17,0,1
152329,-161.290322580645,4,1,0,12,0,1
152373,-100,4,1,2,17,0,1
153119,-142.857142857143,4,1,0,12,0,0
153168,-142.857142857143,4,2,0,5,0,0
153908,-121.951219512195,4,2,0,5,0,0
154007,-107.52688172043,4,2,1,5,0,0
154105,-90.0900900900901,4,2,1,5,0,0
154303,-100,4,2,1,5,0,0
154401,-111.111111111111,4,2,1,5,0,0
154500,-120.481927710843,4,2,1,5,0,0
154698,-100,4,1,0,7,0,0
160619,-100,4,2,0,5,0,0
161013,-105.263157894737,4,1,0,12,0,0
161112,-100,4,2,0,20,0,0
166590,-100,4,2,0,5,0,0
167329,-105.263157894737,4,1,0,12,0,0
167428,-100,4,2,0,10,0,0
173645,-100,4,1,0,12,0,0
176803,-100,4,1,0,20,0,0
178678,-105.263157894737,4,2,0,5,0,0
179123,-114.942528735632,4,2,0,5,0,0
179517,-126.582278481013,4,2,0,5,0,0
179898,-166.666666666667,4,1,0,18,0,0
180009,-200,4,2,1,5,0,0
180258,-250,4,2,1,5,0,0
180751,-333.333333333333,4,2,1,5,0,0

[Colours]
Combo1 : 3,111,241
Combo2 : 2,21,253

[HitObjects]
448,192,1540,5,2,0:0:0:55:C#5S_Db5S.wav
64,192,1540,128,2,4697:0:0:0:50:C#3S_Db3S.wav
320,192,1934,1,0,0:0:0:55:C5S.wav
192,192,2329,1,0,0:0:0:55:C#5S_Db5S.wav
320,192,2724,1,0,0:0:0:60:D#5S_Eb5S.wav
460,192,3118,1,2,0:0:0:60:F5S.wav
358,192,3908,1,0,0:0:0:70:G5S.wav
460,192,4303,1,0,0:0:0:70:G#5S_Ab5S.wav
320,192,4697,128,2,5487:0:0:0:75:G5S.wav
192,192,4697,128,2,6276:0:0:0:50:D#3S_Eb3S.wav
64,192,5487,1,0,0:0:0:60:C5S.wav
64,192,6276,1,0,0:0:0:75:C6S.wav
448,192,6276,128,2,7855:0:0:0:50:E3S.wav
192,192,6671,1,0,0:0:0:70:A#5S_Bb5S.wav
320,192,7066,1,0,0:0:0:70:G#5S_Ab5S.wav
192,192,7461,1,0,0:0:0:70:G5S.wav
36,192,7855,128,2,8645:0:0:0:50:F3S.wav
352,192,7855,128,0,8908:0:0:0:70:G#5S_Ab5S.wav
192,192,8645,128,2,9434:0:0:0:50:G3S.wav
475,192,8908,1,2,0:0:0:70:G5S.wav
320,192,9171,1,2,0:0:0:70:F5S.wav
448,192,9434,128,2,10618:0:0:0:50:G#3S_Ab3S.wav
51,192,9434,128,0,11013:0:0:0:75:C5S.wav
192,192,11013,1,2,0:0:0:33:A4S_s.wav
480,192,11013,128,2,11211:0:0:0:33:A4S_s.wav
358,192,11211,128,2,11408:0:0:0:33:F4S_s.wav
64,192,11211,1,2,0:0:0:33:F4S_s.wav
448,192,11408,1,2,0:0:0:33:C4S_s.wav
192,192,11408,128,2,11605:0:0:0:33:C4S_s.wav
64,192,11605,128,2,11803:0:0:0:33:A3S_s.wav
320,192,11605,1,2,0:0:0:33:A3S_s.wav
192,192,11803,1,2,0:0:0:33:F4S_s.wav
469,192,11803,128,2,12000:0:0:0:33:F4S_s.wav
64,192,12000,1,2,0:0:0:33:C4S_s.wav
352,192,12000,128,2,12197:0:0:0:33:C4S_s.wav
448,192,12197,1,2,0:0:0:33:A3S_s.wav
192,192,12197,128,2,12395:0:0:0:33:A3S_s.wav
64,192,12395,128,2,12987:0:0:0:33:F3S_s.wav
320,192,12395,128,2,12987:0:0:0:33:F3S_s.wav
469,192,12592,1,0,0:0:0:23:F2S.wav
192,192,12592,1,0,0:0:0:23:F2S.wav
51,192,13382,1,2,0:0:0:70:C5S.wav
460,192,13382,128,2,14171:0:0:0:40:D#4S_Eb4S.wav
153,192,13645,1,0,0:0:0:50:C#5S_Db5S.wav
256,192,13908,1,0,0:0:0:50:D#5S_Eb5S.wav
96,192,14171,128,2,14566:0:0:0:50:A#3S_Bb3S.wav
192,192,14171,1,2,0:0:0:75:C#5S_Db5S.wav
460,192,14566,1,0,0:0:0:75:C6S.wav
320,192,14961,1,0,0:0:0:70:A#5S_Bb5S.wav
192,192,15355,1,0,0:0:0:70:G#5S_Ab5S.wav
256,192,15750,128,2,16145:0:0:0:40:E4S.wav
192,192,15750,128,2,16145:0:0:0:50:C4S.wav
469,192,15750,1,0,0:0:0:77:G#5S_Ab5S.wav
64,192,16145,1,0,0:0:0:70:G5S.wav
64,192,16803,1,0,0:0:0:70:G5S.wav
192,192,17066,1,0,0:0:0:70:G#5S_Ab5S.wav
64,192,17329,128,2,17724:0:0:0:50:E3S.wav
320,192,17329,128,0,17724:0:0:0:77:A#5S_Bb5S.wav
460,192,17724,1,0,0:0:0:70:C#6S_Db6S.wav
358,192,18118,1,0,0:0:0:70:C6S.wav
64,192,18513,1,0,0:0:0:70:G5S.wav
256,192,18908,1,0,0:0:0:77:A#5S_Bb5S.wav
460,192,18908,128,2,19303:0:0:0:50:C4S.wav
192,192,19303,1,0,0:0:0:70:G#5S_Ab5S.wav
64,192,19895,1,2,0:0:0:50:C6S.wav
320,192,19895,128,2,20092:0:0:0:50:C5S.wav
153,192,20092,128,2,20289:0:0:0:50:F5S.wav
448,192,20092,1,2,0:0:0:50:F6S.wav
64,192,20289,1,2,0:0:0:50:G6S.wav
320,192,20289,128,2,20487:0:0:0:50:G5S.wav
448,192,20487,128,4,20882:0:0:0:50:G#6S_Ab6S.wav
192,192,20487,1,4,0:0:0:40:C#4S_Db4S.wav
64,192,20487,128,4,20882:0:0:0:50:G#5S_Ab5S.wav
213,192,20882,1,2,0:0:0:50:G5S.wav
320,192,20882,128,2,21079:0:0:0:50:G6S.wav
64,192,21079,1,2,0:0:0:50:F5S.wav
192,192,21079,128,2,21276:0:0:0:50:F6S.wav
448,192,21276,128,2,21671:0:0:0:50:C6S.wav
32,192,21277,128,2,21672:0:0:0:50:C5S.wav
320,192,21671,128,2,22066:0:0:0:50:F5S.wav
192,192,21671,1,2,0:0:0:50:F6S.wav
64,192,21868,1,0,0:0:0:20:soft-hitwhistle.wav
64,192,22066,1,4,0:0:0:1:
192,192,22066,128,4,22461:0:0:0:50:G5S.wav
480,192,22067,1,4,0:0:0:50:G6S.wav
64,192,22461,128,2,22855:0:0:0:50:G#6S_Ab6S.wav
192,192,22855,128,2,23250:0:0:0:50:A#6S_Bb6S.wav
320,192,23250,128,2,23645:0:0:0:50:C#7S_Db7S.wav
42,192,23447,1,2,0:0:0:10:soft-hitwhistle.wav
182,192,23447,1,0,0:0:0:10:soft-hitwhistle.wav
192,192,23645,1,4,0:0:0:0:
42,192,23645,128,4,25224:0:0:0:33:A#4S_Bb4S.wav
475,192,23645,128,4,25224:0:0:0:50:C7S.wav
182,192,24434,1,4,0:0:0:0:
329,192,24434,1,4,0:0:0:0:
182,192,25224,1,4,0:0:0:0:
256,192,25273,1,2,0:0:0:0:
448,192,25322,1,2,0:0:0:0:
320,192,25421,1,2,0:0:0:0:
192,192,25520,1,2,0:0:0:0:
448,192,25618,1,2,0:0:0:0:
320,192,25717,1,2,0:0:0:0:
64,192,25816,1,2,0:0:0:0:
192,192,25882,1,2,0:0:0:0:
320,192,25947,1,2,0:0:0:0:
448,192,26013,1,2,0:0:0:0:
320,192,26079,1,2,0:0:0:0:
192,192,26145,1,2,0:0:0:0:
64,192,26260,1,2,0:0:0:0:
320,192,26342,1,2,0:0:0:0:
448,192,26408,1,2,0:0:0:0:
256,192,26474,1,2,0:0:0:0:
192,192,26539,1,2,0:0:0:0:
64,192,26605,1,2,0:0:0:0:
192,192,26671,1,2,0:0:0:0:
358,192,26737,1,2,0:0:0:0:
36,192,26803,1,4,0:0:0:0:
475,192,26803,1,4,0:0:0:60:F5S.wav
153,192,26901,1,0,0:0:0:0:
358,192,27000,1,2,0:0:0:0:
51,192,27099,1,0,0:0:0:0:
320,192,27197,1,8,0:0:0:0:
448,192,27197,1,8,0:0:0:0:
192,192,27296,1,0,0:0:0:0:
448,192,27395,1,2,0:0:0:0:
64,192,27493,1,0,0:0:0:0:
320,192,27592,1,8,0:0:0:0:
192,192,27592,1,8,0:0:0:0:
64,192,27691,1,0,0:0:0:0:
320,192,27789,1,2,0:0:0:0:
153,192,27888,1,0,0:0:0:0:
448,192,27987,1,8,0:0:0:0:
64,192,27987,1,8,0:0:0:0:
320,192,28086,1,0,0:0:0:0:
192,192,28184,1,2,0:0:0:0:
460,192,28283,1,0,0:0:0:0:
64,192,28382,1,8,0:0:0:0:
192,192,28382,1,8,0:0:0:0:
358,192,28480,1,0,0:0:0:0:
192,192,28579,1,2,0:0:0:0:
448,192,28678,1,0,0:0:0:0:
64,192,28776,1,8,0:0:0:0:
320,192,28776,1,8,0:0:0:0:
448,192,28875,1,0,0:0:0:0:
192,192,28974,1,2,0:0:0:0:
256,192,29072,1,0,0:0:0:0:
36,192,29171,1,8,0:0:0:0:
448,192,29171,1,8,0:0:0:0:
256,192,29270,1,0,0:0:0:0:
192,192,29368,1,2,0:0:0:0:
448,192,29467,1,0,0:0:0:0:
64,192,29566,1,8,0:0:0:0:
192,192,29566,1,8,0:0:0:0:
320,192,29664,1,0,0:0:0:0:
64,192,29763,1,2,0:0:0:0:
320,192,29862,1,0,0:0:0:0:
192,192,29961,1,8,0:0:0:0:
64,192,29961,1,8,0:0:0:0:
448,192,30059,1,0,0:0:0:0:
192,192,30158,1,2,0:0:0:0:
448,192,30257,1,0,0:0:0:0:
64,192,30355,1,8,0:0:0:0:
320,192,30355,1,8,0:0:0:0:
192,192,30454,1,0,0:0:0:0:
320,192,30553,1,2,0:0:0:0:
153,192,30651,1,0,0:0:0:0:
460,192,30750,1,8,0:0:0:0:
64,192,30750,1,8,0:0:0:0:
320,192,30849,1,0,0:0:0:0:
192,192,30947,1,2,0:0:0:0:
320,192,31046,1,0,0:0:0:0:
64,192,31145,1,8,0:0:0:0:
448,192,31145,1,8,0:0:0:0:
256,192,31243,1,0,0:0:0:0:
192,192,31342,1,2,0:0:0:0:
402,192,31441,1,0,0:0:0:0:
64,192,31539,1,8,0:0:0:0:
192,192,31539,1,8,0:0:0:0:
320,192,31638,1,0,0:0:0:0:
192,192,31737,1,2,0:0:0:0:
448,192,31836,1,0,0:0:0:0:
192,192,31934,1,8,0:0:0:0:
64,192,31934,1,8,0:0:0:0:
320,192,32033,1,0,0:0:0:0:
64,192,32132,1,2,0:0:0:0:
192,192,32230,1,0,0:0:0:0:
448,192,32329,1,8,0:0:0:0:
64,192,32329,1,8,0:0:0:0:
320,192,32428,1,0,0:0:0:0:
192,192,32526,1,2,0:0:0:0:
320,192,32625,1,0,0:0:0:0:
109,192,32724,1,8,0:0:0:0:
402,192,32724,1,8,0:0:0:0:
192,192,32724,1,8,0:0:0:0:
64,192,32921,1,8,0:0:0:0:
320,192,32921,1,8,0:0:0:0:
448,192,32921,1,8,0:0:0:0:
109,192,33118,1,8,0:0:0:0:
402,192,33118,1,8,0:0:0:0:
192,192,33118,1,8,0:0:0:0:
320,192,33217,1,0,0:0:0:0:
192,192,33316,1,2,0:0:0:0:
64,192,33414,1,0,0:0:0:0:
448,192,33513,1,8,0:0:0:0:
192,192,33513,1,8,0:0:0:0:
256,192,33612,1,0,0:0:0:0:
192,192,33711,1,2,0:0:0:0:
64,192,33809,1,0,0:0:0:0:
329,192,33908,1,8,0:0:0:0:
448,192,33908,1,8,0:0:0:0:
192,192,34007,1,0,0:0:0:0:
320,192,34105,1,2,0:0:0:0:
192,192,34204,1,0,0:0:0:0:
64,192,34303,1,8,0:0:0:0:
448,192,34303,1,8,0:0:0:0:
256,192,34401,1,0,0:0:0:0:
64,192,34500,1,2,0:0:0:0:
320,192,34599,1,0,0:0:0:0:
192,192,34697,1,8,0:0:0:0:
64,192,34697,1,8,0:0:0:0:
320,192,34796,1,0,0:0:0:0:
192,192,34895,1,2,0:0:0:0:
320,192,34993,1,0,0:0:0:0:
475,192,35092,1,8,0:0:0:0:
64,192,35092,1,8,0:0:0:0:
192,192,35191,1,0,0:0:0:0:
320,192,35289,1,2,0:0:0:0:
153,192,35388,1,0,0:0:0:0:
64,192,35487,1,8,0:0:0:0:
448,192,35487,1,8,0:0:0:0:
320,192,35586,1,0,0:0:0:0:
192,192,35684,1,2,0:0:0:0:
320,192,35783,1,0,0:0:0:0:
448,192,35882,1,8,0:0:0:0:
192,192,35882,1,8,0:0:0:0:
64,192,35980,1,0,0:0:0:0:
320,192,36079,1,2,0:0:0:0:
192,192,36178,1,0,0:0:0:0:
448,192,36276,1,8,0:0:0:0:
320,192,36276,1,8,0:0:0:0:
64,192,36375,1,0,0:0:0:0:
320,192,36474,1,2,0:0:0:0:
192,192,36572,1,0,0:0:0:0:
460,192,36671,1,8,0:0:0:0:
64,192,36671,1,8,0:0:0:0:
320,192,36770,1,0,0:0:0:0:
64,192,36868,1,2,0:0:0:0:
192,192,36967,1,0,0:0:0:0:
448,192,37066,1,8,0:0:0:0:
64,192,37066,1,8,0:0:0:0:
256,192,37164,1,0,0:0:0:0:
64,192,37263,1,2,0:0:0:0:
192,192,37362,1,0,0:0:0:0:
448,192,37461,1,8,0:0:0:0:
64,192,37461,1,8,0:0:0:0:
153,192,37559,1,0,0:0:0:0:
320,192,37658,1,2,0:0:0:0:
64,192,37757,1,0,0:0:0:0:
448,192,37855,1,8,0:0:0:0:
320,192,37855,1,8,0:0:0:0:
192,192,37954,1,0,0:0:0:0:
320,192,38053,1,2,0:0:0:0:
64,192,38151,1,0,0:0:0:0:
192,192,38250,1,8,0:0:0:0:
448,192,38250,1,8,0:0:0:0:
320,192,38349,1,0,0:0:0:0:
192,192,38447,1,2,0:0:0:0:
402,192,38645,1,8,0:0:0:0:
109,192,38645,1,8,0:0:0:0:
448,192,38842,1,8,0:0:0:0:
64,192,38842,1,8,0:0:0:0:
109,192,39039,1,8,0:0:0:0:
402,192,39039,1,8,0:0:0:0:
109,192,39237,1,8,0:0:0:0:
402,192,39237,1,8,0:0:0:0:
192,192,39434,1,4,0:0:0:0:
475,192,39434,1,4,0:0:0:1:
256,192,39434,1,4,0:0:0:1:
64,192,39730,128,2,39829:0:0:0:0:
192,192,39829,1,8,0:0:0:0:
320,192,39928,1,0,0:0:0:8:soft-sliderslide.wav
192,192,40026,128,2,40125:0:0:0:0:
448,192,40026,1,0,0:0:0:0:
475,192,40224,1,8,0:0:0:0:
320,192,40322,1,0,0:0:0:8:soft-sliderslide.wav
64,192,40322,128,2,40421:0:0:0:0:
192,192,40421,1,0,0:0:0:0:
192,192,40618,1,8,0:0:0:0:
320,192,40618,128,2,40717:0:0:0:0:
64,192,40717,1,0,0:0:0:8:soft-sliderslide.wav
448,192,40816,128,2,40914:0:0:0:0:
192,192,40816,1,0,0:0:0:0:
320,192,41013,1,8,0:0:0:0:
192,192,41013,128,2,41112:0:0:0:0:
448,192,41112,1,0,0:0:0:8:soft-sliderslide.wav
320,192,41211,1,0,0:0:0:0:
64,192,41309,128,2,41408:0:0:0:0:
329,192,41408,1,8,0:0:0:0:
460,192,41507,1,0,0:0:0:8:soft-sliderslide.wav
320,192,41605,128,2,41704:0:0:0:0:
192,192,41605,1,0,0:0:0:0:
475,192,41803,1,8,0:0:0:0:
320,192,41901,1,0,0:0:0:8:soft-sliderslide.wav
64,192,41901,128,2,42000:0:0:0:0:
192,192,42000,1,0,0:0:0:0:
192,192,42197,1,8,0:0:0:0:
320,192,42197,128,2,42296:0:0:0:0:
64,192,42296,1,0,0:0:0:8:soft-sliderslide.wav
448,192,42395,128,2,42493:0:0:0:0:
192,192,42395,1,0,0:0:0:0:
320,192,42592,1,8,0:0:0:0:
192,192,42592,128,2,42691:0:0:0:0:
448,192,42691,1,0,0:0:0:8:soft-sliderslide.wav
320,192,42789,1,0,0:0:0:0:
64,192,42888,128,2,42987:0:0:0:0:
192,192,42987,1,8,0:0:0:0:
320,192,43086,1,0,0:0:0:8:soft-sliderslide.wav
448,192,43184,128,2,43283:0:0:0:0:
192,192,43184,1,0,0:0:0:0:
320,192,43382,1,8,0:0:0:0:
448,192,43480,1,0,0:0:0:8:soft-sliderslide.wav
192,192,43480,128,2,43579:0:0:0:0:
64,192,43579,1,0,0:0:0:0:
192,192,43776,1,8,0:0:0:0:
320,192,43776,128,2,43875:0:0:0:0:
64,192,43875,1,0,0:0:0:8:soft-sliderslide.wav
192,192,43974,128,2,44072:0:0:0:0:
448,192,43974,1,0,0:0:0:0:
320,192,44171,1,8,0:0:0:0:
64,192,44171,128,2,44270:0:0:0:0:
448,192,44270,1,0,0:0:0:8:soft-sliderslide.wav
320,192,44368,1,0,0:0:0:0:
192,192,44467,128,2,44566:0:0:0:0:
329,192,44566,1,8,0:0:0:0:
460,192,44664,1,0,0:0:0:8:soft-sliderslide.wav
320,192,44763,128,2,44862:0:0:0:0:
192,192,44763,1,0,0:0:0:0:
64,192,44961,1,8,0:0:0:0:
192,192,45059,5,8,0:0:0:8:soft-sliderslide.wav
448,192,45059,128,2,45158:0:0:0:0:
320,192,45158,1,0,0:0:0:0:
320,192,45355,1,8,0:0:0:0:
64,192,45355,1,2,0:0:0:0:
192,192,45355,1,8,0:0:0:0:
448,192,45553,1,8,0:0:0:0:
64,192,45553,1,2,0:0:0:0:
192,192,45553,1,8,0:0:0:0:
448,192,45750,1,8,0:0:0:0:
64,192,45750,1,2,0:0:0:0:
320,192,45750,1,8,0:0:0:0:
448,192,46046,128,2,46145:0:0:0:0:
320,192,46145,1,8,0:0:0:0:
192,192,46244,1,0,0:0:0:8:soft-sliderslide.wav
64,192,46342,1,0,0:0:0:0:
320,192,46342,128,2,46441:0:0:0:0:
64,192,46540,1,8,0:0:0:0:
448,192,46638,128,2,46737:0:0:0:0:
192,192,46638,1,0,0:0:0:8:soft-sliderslide.wav
320,192,46737,1,0,0:0:0:0:
192,192,46934,128,2,47033:0:0:0:0:
320,192,46934,1,8,0:0:0:0:
448,192,47033,1,0,0:0:0:8:soft-sliderslide.wav
320,192,47132,1,0,0:0:0:0:
64,192,47132,128,2,47230:0:0:0:0:
320,192,47329,128,2,47428:0:0:0:0:
192,192,47329,1,8,0:0:0:0:
64,192,47428,1,0,0:0:0:8:soft-sliderslide.wav
192,192,47527,1,0,0:0:0:0:
448,192,47625,128,2,47724:0:0:0:0:
192,192,47724,1,8,0:0:0:0:
64,192,47823,1,0,0:0:0:8:soft-sliderslide.wav
320,192,47921,1,0,0:0:0:0:
192,192,47921,128,2,48020:0:0:0:0:
64,192,48119,1,8,0:0:0:0:
448,192,48217,128,2,48316:0:0:0:0:
192,192,48217,1,0,0:0:0:8:soft-sliderslide.wav
320,192,48316,1,0,0:0:0:0:
192,192,48513,128,2,48612:0:0:0:0:
320,192,48513,1,8,0:0:0:0:
448,192,48612,1,0,0:0:0:8:soft-sliderslide.wav
320,192,48711,1,0,0:0:0:0:
64,192,48711,128,2,48809:0:0:0:0:
320,192,48908,128,2,49007:0:0:0:0:
192,192,48908,1,8,0:0:0:0:
64,192,49007,1,0,0:0:0:8:soft-sliderslide.wav
192,192,49105,1,0,0:0:0:0:
448,192,49204,128,2,49303:0:0:0:0:
320,192,49303,1,8,0:0:0:0:
192,192,49402,1,0,0:0:0:8:soft-sliderslide.wav
320,192,49500,1,0,0:0:0:0:
64,192,49500,128,2,49599:0:0:0:0:
192,192,49698,1,8,0:0:0:0:
320,192,49796,128,2,49895:0:0:0:0:
64,192,49796,1,0,0:0:0:8:soft-sliderslide.wav
448,192,49895,1,0,0:0:0:0:
192,192,50092,128,2,50191:0:0:0:0:
320,192,50092,1,8,0:0:0:0:
448,192,50191,1,0,0:0:0:8:soft-sliderslide.wav
64,192,50290,1,0,0:0:0:0:
320,192,50290,128,2,50388:0:0:0:0:
448,192,50487,128,2,50586:0:0:0:0:
192,192,50487,1,8,0:0:0:0:
64,192,50586,1,0,0:0:0:8:soft-sliderslide.wav
192,192,50684,1,0,0:0:0:0:
320,192,50783,128,2,50882:0:0:0:0:
64,192,50882,1,8,0:0:0:0:
448,192,50980,1,0,0:0:0:8:soft-sliderslide.wav
192,192,51079,1,0,0:0:0:0:
64,192,51079,128,2,51178:0:0:0:0:
320,192,51276,1,8,0:0:0:0:
448,192,51277,1,8,0:0:0:0:
192,192,51375,128,2,51474:0:0:0:0:
64,192,51375,1,8,0:0:0:0:
448,192,51474,1,8,0:0:0:0:
320,192,51474,1,8,0:0:0:0:
64,192,51671,128,2,52066:0:0:0:6:
192,192,51671,1,10,0:0:0:0:
192,192,51868,128,2,52066:0:0:0:3:
358,192,51868,1,10,0:0:0:0:
320,192,52066,128,4,52658:0:0:0:3:
460,192,52066,1,4,0:0:0:0:
192,192,52362,128,2,52658:0:0:0:2:
448,192,52362,128,2,52461:0:0:0:0:
64,192,52658,128,2,52954:0:0:0:3:
448,192,52658,128,2,52757:0:0:0:0:
192,192,52954,128,2,53250:0:0:0:6:
320,192,52954,128,2,53053:0:0:0:0:
64,192,53250,1,2,0:0:0:0:
320,192,53250,128,2,53447:0:0:0:6:
402,192,53447,1,2,0:0:0:0:
192,192,53447,128,2,53645:0:0:0:0:
320,192,53645,1,2,0:0:0:0:
64,192,53645,128,2,53941:0:0:0:0:
153,192,53941,128,2,54237:0:0:0:0:
448,192,53941,128,2,54039:0:0:0:0:
51,192,54237,128,2,54533:0:0:0:0:
320,192,54237,128,0,54336:0:0:0:0:
448,192,54533,128,2,54829:0:0:0:0:
192,192,54533,128,2,54632:0:0:0:0:
320,192,54829,128,2,55224:0:0:0:0:
64,192,54829,128,2,54928:0:0:0:0:
192,192,55026,128,2,55224:0:0:0:0:
64,192,55224,128,2,55520:0:0:0:0:
448,192,55224,128,2,55322:0:0:0:0:
192,192,55520,128,2,56112:0:0:0:0:
448,192,55520,128,2,55618:0:0:0:0:
256,192,55816,128,2,56112:0:0:0:0:
448,192,56112,128,2,56408:0:0:0:0:
64,192,56112,128,2,56211:0:0:0:0:
192,192,56408,1,2,0:0:0:0:
320,192,56408,128,2,56605:0:0:0:0:
460,192,56605,1,2,0:0:0:0:
192,192,56605,128,2,56803:0:0:0:0:
320,192,56803,1,2,0:0:0:0:
64,192,56803,128,2,57099:0:0:0:0:
153,192,57099,128,2,57395:0:0:0:0:
448,192,57099,1,2,0:0:0:0:
460,192,57395,128,2,57987:0:0:0:0:
320,192,57395,128,2,57987:0:0:0:0:
64,192,57395,128,0,57493:0:0:0:0:
192,192,57987,1,2,0:0:0:0:
64,192,58086,1,2,0:0:0:3:
192,192,58184,1,2,0:0:0:0:
320,192,58283,1,2,0:0:0:0:
36,192,58382,128,2,58678:0:0:0:0:
475,192,58382,128,2,58974:0:0:0:0:
192,192,58678,128,2,59270:0:0:0:6:
320,192,58678,128,2,58974:0:0:0:0:
64,192,58974,128,2,59270:0:0:0:0:
320,192,59270,128,2,59566:0:0:0:0:
448,192,59270,1,2,0:0:0:0:
448,192,59566,128,2,59961:0:0:0:0:
64,192,59566,1,2,0:0:0:0:
153,192,59763,1,2,0:0:0:0:
358,192,59763,128,2,59961:0:0:0:0:
51,192,59961,1,2,0:0:0:0:
192,192,59961,128,2,60158:0:0:0:0:
329,192,60158,1,2,0:0:0:0:
64,192,60158,128,2,60355:0:0:0:0:
460,192,60355,1,2,0:0:0:0:
192,192,60355,128,2,60553:0:0:0:0:
320,192,60553,128,2,60849:0:0:0:0:
64,192,60553,128,2,60651:0:0:0:0:
448,192,60849,128,2,61145:0:0:0:0:
192,192,60849,128,2,60947:0:0:0:0:
64,192,61145,1,2,0:0:0:0:
329,192,61145,128,2,61539:0:0:0:0:
448,192,61342,1,2,0:0:0:0:
192,192,61342,128,0,61539:0:0:0:0:
64,192,61539,128,2,62132:0:0:0:0:
192,192,61836,128,2,62132:0:0:0:0:
320,192,61836,1,2,0:0:0:0:
320,192,62132,128,2,62724:0:0:0:0:
460,192,62132,1,2,0:0:0:0:
448,192,62428,128,2,62724:0:0:0:0:
192,192,62428,1,2,0:0:0:0:
192,192,62724,128,2,62921:0:0:0:0:
64,192,62724,1,2,0:0:0:0:
358,192,62921,128,2,63118:0:0:0:0:
460,192,63118,128,2,63908:0:0:0:0:
192,192,63118,1,2,0:0:0:0:
256,192,63414,1,2,0:0:0:0:
320,192,63711,128,2,63908:0:0:0:0:
192,192,63908,128,2,64105:0:0:0:0:
320,192,64105,1,0,0:0:0:11:normal-hitclap2.wav
64,192,64105,1,0,0:0:0:11:normal-hitclap2.wav
192,192,64303,1,0,0:0:0:11:normal-hitclap2.wav
448,192,64303,1,0,0:0:0:11:normal-hitclap2.wav
320,192,64500,1,0,0:0:0:11:normal-hitclap2.wav
64,192,64500,1,0,0:0:0:11:normal-hitclap2.wav
475,192,64697,1,4,0:0:0:0:
64,192,64697,1,4,0:0:0:0:
320,192,64796,1,0,0:0:0:0:
192,192,64895,1,2,0:0:0:6:
320,192,64993,1,2,0:0:0:0:
192,192,65092,1,8,0:0:0:0:
448,192,65092,1,8,0:0:0:0:
320,192,65191,1,0,0:0:0:0:
64,192,65289,1,2,0:0:0:0:
192,192,65388,1,0,0:0:0:0:
320,192,65487,1,8,0:0:0:0:
448,192,65487,1,8,0:0:0:0:
192,192,65586,1,0,0:0:0:0:
448,192,65684,1,2,0:0:0:0:
320,192,65783,1,0,0:0:0:0:
192,192,65882,1,8,0:0:0:0:
64,192,65882,1,8,0:0:0:0:
448,192,65980,1,0,0:0:0:0:
64,192,66079,1,2,0:0:0:0:
192,192,66178,1,0,0:0:0:0:
320,192,66276,1,8,0:0:0:0:
448,192,66276,1,8,0:0:0:0:
64,192,66375,1,0,0:0:0:0:
320,192,66474,1,2,0:0:0:0:
192,192,66572,1,0,0:0:0:0:
320,192,66671,1,8,0:0:0:0:
64,192,66671,1,8,0:0:0:0:
448,192,66770,1,0,0:0:0:0:
192,192,66868,1,2,0:0:0:0:
320,192,66967,1,0,0:0:0:0:
448,192,67066,1,8,0:0:0:0:
64,192,67066,1,8,0:0:0:0:
192,192,67461,1,2,0:0:0:6:
320,192,67461,1,8,0:0:0:0:
192,192,67658,1,2,0:0:0:0:
320,192,67658,1,8,0:0:0:0:
64,192,67855,1,2,0:0:0:3:
192,192,67954,1,2,0:0:0:0:
358,192,68053,1,2,0:0:0:0:
460,192,68151,1,2,0:0:0:0:
448,192,68250,1,2,0:0:0:0:
358,192,68349,1,2,0:0:0:0:
192,192,68447,1,2,0:0:0:0:
64,192,68546,1,2,0:0:0:0:
64,192,68645,1,2,0:0:0:0:
192,192,68743,1,2,0:0:0:0:
256,192,68842,1,2,0:0:0:0:
448,192,68941,1,2,0:0:0:0:
448,192,69039,1,2,0:0:0:0:
320,192,69138,1,2,0:0:0:0:
192,192,69237,1,2,0:0:0:0:
64,192,69336,1,2,0:0:0:0:
320,192,69434,1,2,0:0:0:0:
64,192,69533,1,2,0:0:0:0:
320,192,69632,1,2,0:0:0:0:
64,192,69730,1,2,0:0:0:0:
192,192,69829,1,2,0:0:0:0:
329,192,69928,1,2,0:0:0:0:
460,192,70026,1,2,0:0:0:0:
192,192,70421,1,2,0:0:0:0:
320,192,70520,1,2,0:0:0:0:
448,192,70618,1,2,0:0:0:0:
64,192,70717,1,2,0:0:0:0:
192,192,70816,1,2,0:0:0:0:
320,192,70914,1,2,0:0:0:0:
192,192,71013,1,4,0:0:0:0:
475,192,71013,1,4,0:0:0:0:
51,192,71013,1,4,0:0:0:0:
320,192,71309,1,2,0:0:0:0:
109,192,71309,1,2,0:0:0:0:
475,192,71605,1,2,0:0:0:0:
192,192,71605,1,2,0:0:0:0:
192,192,71901,128,2,72197:0:0:0:0:
475,192,71901,128,2,72197:0:0:0:0:
320,192,71901,1,2,0:0:0:0:
64,192,72197,1,2,0:0:0:0:
192,192,72395,1,2,0:0:0:0:
320,192,72592,1,4,0:0:0:0:
64,192,72592,1,4,0:0:0:0:
448,192,72592,1,4,0:0:0:0:
402,192,72888,1,2,0:0:0:0:
192,192,72888,1,2,0:0:0:0:
256,192,73184,1,2,0:0:0:0:
36,192,73184,1,2,0:0:0:0:
51,192,73480,128,2,73776:0:0:0:0:
320,192,73480,128,2,73776:0:0:0:0:
192,192,73480,1,2,0:0:0:0:
448,192,73776,1,2,0:0:0:0:
320,192,73974,1,2,0:0:0:0:
192,192,74171,1,4,0:0:0:0:
448,192,74171,1,4,0:0:0:0:
64,192,74171,1,4,0:0:0:0:
320,192,74270,1,8,0:0:0:0:
192,192,74368,1,8,0:0:0:0:
320,192,74467,1,8,0:0:0:0:
192,192,74566,1,8,0:0:0:0:
320,192,74664,1,8,0:0:0:0:
192,192,74763,1,8,0:0:0:0:
320,192,74862,1,8,0:0:0:0:
192,192,74961,1,12,0:0:0:0:
448,192,74961,1,4,0:0:0:0:
64,192,74961,1,0,0:0:0:0:
320,192,75059,1,8,0:0:0:0:
192,192,75158,1,8,0:0:0:0:
320,192,75257,1,8,0:0:0:0:
192,192,75355,1,8,0:0:0:0:
320,192,75454,1,8,0:0:0:0:
192,192,75553,1,8,0:0:0:0:
320,192,75651,1,8,0:0:0:0:
36,192,75750,1,4,0:0:0:0:
460,192,75750,1,4,0:0:0:0:
192,192,75750,1,4,0:0:0:0:
320,192,75947,1,2,0:0:0:0:
192,192,76046,1,2,0:0:0:0:
64,192,76145,1,2,0:0:0:0:
192,192,76243,1,2,0:0:0:0:
320,192,76342,1,2,0:0:0:0:
448,192,76441,1,2,0:0:0:0:
64,192,76539,1,2,0:0:0:0:
192,192,76605,1,2,0:0:0:0:
320,192,76671,1,2,0:0:0:0:
448,192,76737,1,2,0:0:0:0:
192,192,76803,1,2,0:0:0:0:
320,192,76934,1,2,0:0:0:0:
448,192,77033,1,2,0:0:0:0:
256,192,77132,1,2,0:0:0:0:
182,192,77230,1,2,0:0:0:0:
51,192,77329,1,2,0:0:0:0:
320,192,77526,128,0,77921:0:0:0:0:
402,192,77526,128,0,78118:0:0:0:0:
192,192,77526,1,0,0:0:0:0:
153,192,77921,128,0,78118:0:0:0:0:
64,192,77921,1,0,0:0:0:0:
36,192,78118,128,0,78316:0:0:0:0:
320,192,78118,1,0,0:0:0:0:
192,192,78316,128,0,78513:0:0:0:0:
448,192,78316,128,0,78513:0:0:0:0:
64,192,78513,1,0,0:0:0:0:
320,192,78513,128,0,78711:0:0:0:0:
153,192,78711,128,0,78908:0:0:0:0:
448,192,78711,1,0,0:0:0:0:
256,192,78908,1,2,0:0:0:0:
51,192,79105,128,0,79500:0:0:0:0:
192,192,79105,128,0,79500:0:0:0:0:
448,192,79105,1,0,0:0:0:0:
475,192,79500,1,8,0:0:0:0:
256,192,79500,1,8,0:0:0:0:
182,192,79697,1,8,0:0:0:0:
448,192,79697,1,8,0:0:0:0:
51,192,79895,1,8,0:0:0:0:
448,192,79895,1,8,0:0:0:0:
182,192,80092,1,8,0:0:0:0:
448,192,80092,1,8,0:0:0:0:
256,192,80289,1,8,0:0:0:0:
460,192,80289,1,8,0:0:0:0:
358,192,80487,1,8,0:0:0:0:
153,192,80487,1,8,0:0:0:0:
51,192,80684,128,0,81079:0:0:0:0:
320,192,80684,128,0,81079:0:0:0:0:
153,192,81079,128,0,81276:0:0:0:0:
448,192,81079,1,0,0:0:0:0:
448,192,81276,128,0,81474:0:0:0:0:
64,192,81276,1,0,0:0:0:0:
153,192,81474,128,0,81671:0:0:0:0:
320,192,81474,1,0,0:0:0:0:
448,192,81671,128,0,81868:0:0:0:0:
64,192,81671,1,0,0:0:0:0:
192,192,81868,128,0,82066:0:0:0:0:
320,192,81868,1,0,0:0:0:0:
64,192,82066,1,2,0:2:0:0:
192,192,82263,128,0,82658:0:0:0:0:
320,192,82263,128,0,82658:0:0:0:0:
64,192,82658,128,0,82855:0:0:0:0:
448,192,82658,1,0,0:0:0:0:
320,192,82855,1,0,0:0:0:0:
192,192,82855,128,0,83053:0:0:0:0:
64,192,83053,1,0,0:0:0:0:
320,192,83053,128,0,83250:0:0:0:0:
460,192,83250,1,0,0:0:0:0:
192,192,83250,1,0,0:0:0:0:
320,192,83349,1,0,0:0:0:0:
64,192,83349,1,0,0:0:0:0:
475,192,83447,1,0,0:0:0:0:
192,192,83447,1,0,0:0:0:0:
358,192,83546,1,0,0:0:0:0:
64,192,83546,1,0,0:0:0:0:
475,192,83645,1,4,0:0:0:0:
192,192,83645,1,4,0:0:0:0:
64,192,83842,1,2,0:0:0:6:
192,192,83941,1,2,0:0:0:6:
320,192,84039,1,2,0:0:0:6:
448,192,84138,1,2,0:0:0:6:
320,192,84237,1,2,0:0:0:6:
192,192,84336,1,2,0:0:0:6:
64,192,84434,1,2,0:0:0:0:
448,192,84632,1,2,0:0:0:6:
320,192,84730,1,2,0:0:0:6:
192,192,84829,1,2,0:0:0:6:
64,192,84928,1,2,0:0:0:6:
192,192,85026,1,2,0:0:0:0:
358,192,85125,1,2,0:0:0:0:
36,192,85224,1,4,0:0:0:0:
475,192,85224,1,4,0:0:0:0:
192,192,85224,1,4,0:0:0:0:
320,192,85421,1,2,0:0:0:6:
448,192,85520,1,2,0:0:0:6:
192,192,85618,1,2,0:0:0:6:
64,192,85717,1,2,0:0:0:6:
192,192,85816,1,2,0:0:0:6:
320,192,85914,1,2,0:0:0:6:
448,192,86013,1,2,0:0:0:0:
192,192,86211,1,2,0:0:0:6:
64,192,86309,1,2,0:0:0:6:
320,192,86408,1,2,0:0:0:6:
448,192,86507,1,2,0:0:0:6:
256,192,86605,1,2,0:0:0:0:
153,192,86704,1,2,0:0:0:0:
475,192,86803,1,4,0:0:0:0:
36,192,86803,1,4,0:0:0:0:
320,192,86803,1,4,0:0:0:0:
192,192,87000,1,2,0:0:0:0:
320,192,87099,1,2,0:0:0:0:
182,192,87197,1,2,0:0:0:0:
448,192,87296,1,2,0:0:0:0:
256,192,87395,1,2,0:0:0:0:
192,192,87493,1,2,0:0:0:0:
36,192,87592,1,4,0:0:0:0:
320,192,87592,1,4,0:0:0:0:
448,192,87592,1,0,0:0:0:0:
192,192,87789,1,2,0:0:0:0:
320,192,87888,1,2,0:0:0:0:
192,192,87987,1,2,0:0:0:0:
64,192,88086,1,2,0:0:0:0:
192,192,88184,1,2,0:0:0:0:
320,192,88283,1,2,0:0:0:0:
64,192,88382,128,4,88875:0:0:0:1:
475,192,88382,128,4,88875:0:0:0:1:
192,192,88382,128,4,88875:0:0:0:1:
192,192,89171,128,2,89763:0:0:0:0:
448,192,89171,128,2,89763:0:0:0:0:
448,192,89961,128,2,90553:0:0:0:0:
51,192,90750,5,2,0:0:0:0:
182,192,91145,1,2,0:0:0:0:
320,192,91145,1,2,0:0:0:0:
448,192,91539,5,0,0:0:0:0:
64,192,91539,1,0,0:0:0:0:
192,192,91539,1,0,0:0:0:0:
320,192,91638,1,0,0:0:0:0:
192,192,91737,1,2,0:0:0:0:
320,192,91836,1,0,0:0:0:0:
64,192,91934,1,8,0:0:0:0:
448,192,91934,1,8,0:0:0:0:
192,192,92033,1,0,0:0:0:0:
320,192,92132,1,0,0:0:0:0:
64,192,92230,1,0,0:0:0:0:
448,192,92329,1,0,0:0:0:0:
192,192,92329,1,0,0:0:0:0:
320,192,92428,1,0,0:0:0:0:
64,192,92526,1,2,0:0:0:0:
192,192,92625,1,0,0:0:0:0:
320,192,92724,1,0,0:0:0:0:
64,192,92724,1,0,0:0:0:0:
192,192,92822,1,0,0:0:0:0:
448,192,92921,1,2,0:0:0:0:
320,192,93020,1,0,0:0:0:0:
192,192,93118,1,0,0:0:0:0:
448,192,93118,1,0,0:0:0:0:
64,192,93217,1,0,0:0:0:0:
320,192,93316,1,2,0:0:0:0:
448,192,93414,1,0,0:0:0:0:
64,192,93513,1,0,0:0:0:0:
192,192,93513,1,0,0:0:0:0:
320,192,93612,1,0,0:0:0:0:
64,192,93711,1,2,0:0:0:0:
192,192,93809,1,0,0:0:0:0:
448,192,93908,1,0,0:0:0:0:
320,192,93908,1,0,0:0:0:0:
192,192,94007,1,0,0:0:0:0:
320,192,94105,1,2,0:0:0:0:
448,192,94204,1,0,0:0:0:0:
192,192,94303,1,0,0:0:0:0:
64,192,94303,1,0,0:0:0:0:
320,192,94401,1,0,0:0:0:0:
64,192,94500,1,2,0:0:0:0:
192,192,94599,1,0,0:0:0:0:
448,192,94697,1,0,0:0:0:0:
320,192,94697,1,0,0:0:0:0:
192,192,94796,1,0,0:0:0:0:
448,192,94895,1,2,0:0:0:0:
64,192,94993,1,0,0:0:0:0:
320,192,95092,1,0,0:0:0:0:
192,192,95092,1,0,0:0:0:0:
448,192,95191,1,0,0:0:0:0:
64,192,95289,1,2,0:0:0:0:
320,192,95388,1,0,0:0:0:0:
192,192,95487,1,0,0:0:0:0:
64,192,95487,1,0,0:0:0:0:
448,192,95586,1,0,0:0:0:0:
320,192,95684,1,2,0:0:0:0:
192,192,95783,1,0,0:0:0:0:
448,192,95882,1,0,0:0:0:0:
320,192,95882,1,0,0:0:0:0:
64,192,95980,1,0,0:0:0:0:
320,192,96079,1,2,0:0:0:0:
192,192,96178,1,0,0:0:0:0:
448,192,96276,1,0,0:0:0:0:
320,192,96276,1,0,0:0:0:0:
64,192,96375,1,0,0:0:0:0:
192,192,96474,1,2,0:0:0:0:
320,192,96572,1,0,0:0:0:0:
192,192,96671,1,0,0:0:0:0:
64,192,96671,1,0,0:0:0:0:
448,192,96770,1,0,0:0:0:0:
320,192,96868,1,2,0:0:0:0:
192,192,96967,1,0,0:0:0:0:
320,192,97066,1,0,0:0:0:0:
448,192,97066,1,0,0:0:0:0:
64,192,97263,1,8,0:0:0:0:
192,192,97362,1,0,0:0:0:2:
51,192,97461,1,8,0:0:0:0:
320,192,97559,1,0,0:0:0:2:
192,192,97658,1,8,0:0:0:0:
320,192,97757,1,0,0:0:0:2:
475,192,97855,1,4,0:0:0:0:
36,192,97855,1,4,0:0:0:0:
192,192,97855,1,4,0:0:0:0:
320,192,98053,1,0,0:0:0:2:
448,192,98151,1,0,0:0:0:2:
192,192,98250,1,8,0:0:0:0:
320,192,98349,1,0,0:0:0:2:
64,192,98447,1,0,0:0:0:2:
192,192,98546,1,0,0:0:0:2:
36,192,98645,1,0,0:0:0:0:
475,192,98645,1,0,0:0:0:0:
320,192,98645,1,0,0:0:0:0:
192,192,98842,1,0,0:0:0:2:
320,192,98941,1,0,0:0:0:2:
64,192,99039,1,8,0:0:0:0:
192,192,99138,1,0,0:0:0:2:
320,192,99237,1,8,0:0:0:0:
448,192,99336,1,0,0:0:0:2:
192,192,99434,1,4,0:0:0:0:
32,192,99434,1,4,0:0:0:0:
320,192,99434,1,4,0:0:0:0:
448,192,99632,1,0,0:0:0:2:
358,192,99730,1,0,0:0:0:2:
448,192,99829,1,8,0:0:0:0:
192,192,99928,1,0,0:0:0:2:
256,192,100026,1,0,0:0:0:2:
153,192,100125,1,0,0:0:0:2:
36,192,100224,1,0,0:0:0:0:
475,192,100224,1,0,0:0:0:0:
320,192,100224,1,0,0:0:0:0:
192,192,100421,1,0,0:0:0:2:
448,192,100520,1,0,0:0:0:2:
64,192,100618,1,8,0:0:0:0:
320,192,100717,1,0,0:0:0:2:
192,192,100816,1,8,0:0:0:0:
320,192,100914,1,0,0:0:0:2:
480,192,101013,1,4,0:0:0:0:
32,192,101013,1,4,0:0:0:0:
192,192,101013,1,4,0:0:0:0:
320,192,101211,1,8,0:0:0:0:
64,192,101309,1,0,0:0:0:2:
448,192,101408,1,8,0:0:0:0:
192,192,101507,1,0,0:0:0:2:
320,192,101605,1,8,0:0:0:0:
192,192,101704,1,0,0:0:0:2:
480,192,101803,1,0,0:0:0:0:
32,192,101803,1,0,0:0:0:0:
320,192,101803,1,0,0:0:0:0:
448,192,102000,1,8,0:0:0:0:
320,192,102099,1,0,0:0:0:2:
153,192,102197,1,8,0:0:0:0:
64,192,102296,1,0,0:0:0:2:
153,192,102395,1,8,0:0:0:0:
320,192,102493,1,0,0:0:0:2:
64,192,102592,1,4,0:0:0:0:
448,192,102592,1,4,0:0:0:0:
192,192,102592,1,0,0:0:0:0:
320,192,102691,1,8,0:0:0:0:
192,192,102789,1,8,0:0:0:0:
320,192,102888,1,8,0:0:0:0:
192,192,102987,1,8,0:0:0:0:
448,192,103086,1,8,0:0:0:0:
64,192,103184,1,8,0:0:0:0:
320,192,103283,1,8,0:0:0:0:
192,192,103382,1,12,0:0:0:0:
448,192,103480,1,8,0:0:0:0:
64,192,103579,1,8,0:0:0:0:
320,192,103678,1,8,0:0:0:0:
192,192,103776,1,8,0:0:0:0:
448,192,103875,1,8,0:0:0:0:
64,192,103974,1,8,0:0:0:0:
192,192,104072,1,8,0:0:0:0:
448,192,104171,1,4,0:0:0:0:
320,192,104171,1,4,0:0:0:0:
64,192,104171,1,4,0:0:0:0:
192,192,104368,1,2,0:0:0:0:
320,192,104467,1,2,0:0:0:0:
64,192,104566,1,2,0:0:0:0:
192,192,104664,1,2,0:0:0:0:
256,192,104763,1,2,0:0:0:0:
448,192,104862,1,2,0:0:0:0:
64,192,104961,1,2,0:0:0:0:
192,192,105059,1,2,0:0:0:0:
256,192,105158,1,2,0:0:0:0:
448,192,105257,1,2,0:0:0:0:
448,192,105355,1,2,0:0:0:0:
320,192,105454,1,2,0:0:0:0:
192,192,105553,1,2,0:0:0:0:
64,192,105651,1,2,0:0:0:0:
402,192,105750,1,2,0:0:0:0:
192,192,105849,1,2,0:0:0:0:
320,192,105947,1,2,0:0:0:0:
448,192,106046,1,2,0:0:0:0:
64,192,106145,1,2,0:0:0:0:
320,192,106243,1,2,0:0:0:0:
192,192,106342,1,2,0:0:0:0:
36,192,106441,1,2,0:0:0:0:
320,192,106539,1,2,0:0:0:0:
448,192,106638,1,2,0:0:0:0:
358,192,106737,1,2,0:0:0:0:
192,192,106836,1,2,0:0:0:0:
64,192,106934,1,2,0:0:0:0:
448,192,107033,1,2,0:0:0:0:
192,192,107132,1,2,0:0:0:0:
320,192,107230,1,2,0:0:0:0:
64,192,107329,1,2,0:0:0:0:
192,192,107428,1,2,0:0:0:0:
448,192,107526,1,2,0:0:0:0:
320,192,107592,1,2,0:0:0:0:
192,192,107658,1,0,0:0:0:0:
64,192,107724,1,2,0:0:0:0:
320,192,107822,1,2,0:0:0:0:
192,192,107921,1,2,0:0:0:0:
448,192,108020,1,2,0:0:0:0:
64,192,108118,1,2,0:0:0:0:
192,192,108217,1,2,0:0:0:0:
320,192,108316,1,2,0:0:0:0:
448,192,108414,1,2,0:0:0:0:
448,192,108513,1,2,0:0:0:0:
320,192,108612,1,2,0:0:0:0:
192,192,108711,1,2,0:0:0:0:
36,192,108809,1,2,0:0:0:0:
320,192,108908,1,2,0:0:0:0:
192,192,109007,1,2,0:0:0:0:
64,192,109105,1,2,0:0:0:0:
320,192,109204,1,2,0:0:0:0:
192,192,109303,1,2,0:0:0:0:
64,192,109401,1,2,0:0:0:0:
320,192,109500,1,2,0:0:0:0:
192,192,109599,1,2,0:0:0:0:
320,192,109697,1,2,0:0:0:0:
192,192,109796,1,2,0:0:0:0:
64,192,109895,1,2,0:0:0:0:
320,192,109993,1,2,0:0:0:0:
192,192,110092,1,2,0:0:0:0:
320,192,110191,1,2,0:0:0:0:
192,192,110289,1,2,0:0:0:0:
320,192,110388,1,2,0:0:0:0:
36,192,110487,1,4,0:0:0:0:
475,192,110487,1,4,0:0:0:0:
192,192,110487,1,4,0:0:0:0:
320,192,110684,1,2,0:0:0:0:
192,192,110783,1,2,0:0:0:0:
320,192,110882,1,2,0:0:0:0:
448,192,110980,1,2,0:0:0:0:
192,192,111079,1,2,0:0:0:0:
320,192,111178,1,2,0:0:0:0:
64,192,111276,1,2,0:0:0:0:
192,192,111375,1,2,0:0:0:0:
320,192,111474,1,2,0:0:0:0:
448,192,111572,1,2,0:0:0:0:
448,192,111671,1,2,0:0:0:0:
320,192,111770,1,2,0:0:0:0:
192,192,111868,1,2,0:0:0:0:
64,192,111967,1,0,0:0:0:0:
448,192,112066,1,4,0:0:0:0:
192,192,112066,1,4,0:0:0:0:
320,192,112066,1,4,0:0:0:0:
64,192,112164,1,2,0:0:0:0:
192,192,112263,1,2,0:0:0:0:
448,192,112362,1,2,0:0:0:0:
64,192,112461,1,2,0:0:0:0:
256,192,112559,1,2,0:0:0:0:
192,192,112658,1,2,0:0:0:0:
64,192,112757,1,2,0:0:0:0:
192,192,112855,1,2,0:0:0:0:
320,192,112954,1,2,0:0:0:0:
192,192,113053,1,2,0:0:0:0:
320,192,113151,1,2,0:0:0:0:
448,192,113250,1,2,0:0:0:0:
64,192,113349,1,2,0:0:0:0:
192,192,113447,1,2,0:0:0:0:
320,192,113546,1,2,0:0:0:0:
64,192,113645,1,4,0:0:0:0:
448,192,113645,1,4,0:0:0:0:
192,192,113743,1,2,0:0:0:0:
320,192,113842,1,2,0:0:0:0:
64,192,113941,1,2,0:0:0:0:
192,192,114039,1,2,0:0:0:0:
320,192,114138,1,2,0:0:0:0:
64,192,114237,1,2,0:0:0:0:
192,192,114336,1,2,0:0:0:0:
320,192,114434,1,4,0:0:0:0:
448,192,114434,1,4,0:0:0:0:
64,192,114533,1,2,0:0:0:0:
192,192,114632,1,2,0:0:0:0:
320,192,114730,1,2,0:0:0:0:
192,192,114829,1,2,0:0:0:0:
448,192,114829,1,2,0:0:0:0:
153,192,115026,1,2,0:0:0:0:
448,192,115026,1,2,0:0:0:0:
51,192,115224,1,2,0:0:0:0:
153,192,115289,1,2,0:0:0:0:
256,192,115355,1,2,0:0:0:0:
448,192,115421,1,2,0:0:0:0:
192,192,115520,1,2,0:0:0:0:
51,192,115618,1,2,0:0:0:0:
358,192,115717,1,2,0:0:0:0:
153,192,115816,1,2,0:0:0:0:
256,192,115914,1,2,0:0:0:0:
448,192,116013,1,2,0:0:0:0:
320,192,116079,1,2,0:0:0:0:
192,192,116145,1,2,0:0:0:0:
64,192,116211,1,2,0:0:0:0:
192,192,116276,1,2,0:0:0:0:
320,192,116342,1,2,0:0:0:0:
64,192,116408,1,2,0:0:0:0:
192,192,116474,1,2,0:0:0:0:
358,192,116539,1,2,0:0:0:0:
64,192,116605,1,2,0:0:0:0:
192,192,116671,1,2,0:0:0:0:
358,192,116737,1,2,0:0:0:0:
480,192,116803,1,4,0:0:0:0:
32,192,116803,1,4,0:0:0:0:
192,192,116803,1,4,0:0:0:0:
256,192,117099,1,2,0:0:0:0:
192,192,117197,1,2,0:0:0:0:
109,192,117296,1,2,0:0:0:0:
460,192,117395,1,2,0:0:0:0:
256,192,117493,1,2,0:0:0:0:
192,192,117592,1,2,0:0:0:0:
358,192,117789,1,2,0:0:0:0:
192,192,117888,1,2,0:0:0:0:
448,192,117987,1,2,0:0:0:0:
320,192,118086,1,2,0:0:0:0:
64,192,118184,1,2,0:0:0:0:
192,192,118283,1,2,0:0:0:0:
448,192,118382,1,2,0:0:0:0:
320,192,118480,1,2,0:0:0:0:
192,192,118579,1,2,0:0:0:0:
51,192,118678,1,2,0:0:0:0:
358,192,118776,1,2,0:0:0:0:
153,192,118875,1,2,0:0:0:0:
448,192,118974,1,2,0:0:0:0:
358,192,119072,1,2,0:0:0:0:
64,192,119171,1,2,0:0:0:0:
192,192,119237,1,2,0:0:0:0:
256,192,119303,1,2,0:0:0:0:
448,192,119368,1,2,0:0:0:0:
51,192,119467,1,2,0:0:0:0:
182,192,119566,1,2,0:0:0:0:
320,192,119664,1,2,0:0:0:0:
109,192,119763,1,2,0:0:0:0:
329,192,119862,1,2,0:0:0:0:
36,192,119961,1,2,0:0:0:0:
448,192,120059,1,2,0:0:0:0:
109,192,120158,1,2,0:0:0:0:
358,192,120257,1,2,0:0:0:0:
192,192,120355,1,2,0:0:0:0:
460,192,120454,1,2,0:0:0:0:
358,192,120553,1,2,0:0:0:0:
192,192,120651,1,2,0:0:0:0:
51,192,120750,1,2,0:0:0:0:
153,192,120816,1,2,0:0:0:0:
256,192,120882,1,2,0:0:0:0:
448,192,120947,1,2,0:0:0:0:
256,192,121013,1,2,0:0:0:0:
192,192,121079,1,2,0:0:0:0:
36,192,121145,1,2,0:0:0:0:
358,192,121243,1,2,0:0:0:0:
192,192,121342,1,2,0:0:0:0:
460,192,121441,1,2,0:0:0:0:
256,192,121539,1,2,0:0:0:0:
192,192,121638,1,2,0:0:0:0:
109,192,121737,1,2,0:0:0:0:
192,192,121836,1,2,0:0:0:0:
320,192,121934,1,2,0:0:0:0:
192,192,122033,1,2,0:0:0:0:
64,192,122132,1,2,0:0:0:0:
448,192,122461,1,2,0:0:0:0:
320,192,122526,1,2,0:0:0:0:
153,192,122592,1,2,0:0:0:0:
64,192,122658,1,2,0:0:0:0:
448,192,122724,1,2,0:0:0:0:
320,192,122789,1,2,0:0:0:0:
192,192,122855,1,2,0:0:0:0:
64,192,122921,1,2,0:0:0:0:
192,192,122987,1,2,0:0:0:0:
320,192,123053,1,2,0:0:0:0:
32,192,123118,5,4,0:0:0:0:
480,192,123118,1,4,0:0:0:0:
192,192,123118,1,4,0:0:0:0:
320,192,123217,1,2,0:0:0:0:
448,192,123316,1,2,0:0:0:0:
192,192,123414,1,2,0:0:0:0:
320,192,123513,1,2,0:0:0:0:
448,192,123612,1,2,0:0:0:0:
192,192,123711,1,2,0:0:0:0:
320,192,123809,1,2,0:0:0:0:
64,192,123908,1,2,0:0:0:0:
320,192,124007,1,2,0:0:0:0:
192,192,124105,1,2,0:0:0:0:
256,192,124204,1,2,0:0:0:0:
51,192,124303,1,2,0:0:0:0:
192,192,124368,1,2,0:0:0:0:
256,192,124434,1,2,0:0:0:0:
448,192,124500,1,2,0:0:0:0:
320,192,124599,1,2,0:0:0:0:
51,192,124697,1,4,0:0:0:0:
448,192,124697,1,4,0:0:0:0:
192,192,124697,1,4,0:0:0:0:
358,192,124796,1,2,0:0:0:0:
448,192,124895,1,2,0:0:0:0:
192,192,124993,1,2,0:0:0:0:
320,192,125092,1,2,0:0:0:0:
448,192,125191,1,2,0:0:0:0:
64,192,125289,1,2,0:0:0:0:
192,192,125355,1,2,0:0:0:0:
320,192,125421,1,2,0:0:0:0:
448,192,125487,1,2,0:0:0:0:
64,192,125586,1,2,0:0:0:0:
320,192,125684,1,2,0:0:0:0:
192,192,125783,1,2,0:0:0:0:
448,192,125882,1,2,0:0:0:0:
64,192,125980,1,2,0:0:0:0:
192,192,126079,1,2,0:0:0:0:
320,192,126178,1,2,0:0:0:0:
475,192,126276,1,4,0:0:0:0:
64,192,126276,1,4,0:0:0:0:
320,192,126342,1,2,0:0:0:0:
448,192,126408,1,2,0:0:0:0:
36,192,126474,1,2,0:0:0:0:
192,192,126539,1,2,0:0:0:0:
64,192,126605,1,2,0:0:0:0:
448,192,126671,1,2,0:0:0:0:
320,192,126737,1,2,0:0:0:0:
448,192,126803,1,2,0:0:0:0:
36,192,126868,1,2,0:0:0:0:
192,192,126934,1,2,0:0:0:0:
64,192,127000,1,2,0:0:0:0:
475,192,127066,1,4,0:0:0:0:
192,192,127066,1,4,0:0:0:0:
320,192,127132,1,0,0:0:0:0:
448,192,127197,1,0,0:0:0:0:
36,192,127263,1,0,0:0:0:0:
192,192,127329,1,0,0:0:0:0:
64,192,127395,1,0,0:0:0:0:
448,192,127461,1,0,0:0:0:0:
320,192,127526,1,0,0:0:0:0:
192,192,127592,1,0,0:0:0:0:
448,192,127658,1,0,0:0:0:0:
320,192,127724,1,0,0:0:0:0:
192,192,127789,1,0,0:0:0:0:
36,192,127855,1,4,0:0:0:0:
460,192,127855,1,4,0:0:0:0:
320,192,127855,1,4,0:0:0:0:
448,192,128053,128,2,128250:0:0:0:0:
192,192,128053,128,0,128250:0:0:0:0:
64,192,128250,128,2,128447:0:0:0:0:
320,192,128250,1,2,0:0:0:0:
320,192,128447,128,2,128645:0:0:0:0:
192,192,128447,1,2,0:0:0:0:
192,192,128645,128,2,128842:0:0:0:0:
448,192,128645,1,2,0:0:0:0:
64,192,128842,128,2,129039:0:0:0:0:
320,192,128842,1,2,0:0:0:0:
192,192,129039,128,2,129237:0:0:0:0:
448,192,129039,1,2,0:0:0:0:
64,192,129237,1,2,0:0:0:0:
329,192,129237,128,2,129434:0:0:0:0:
51,192,129434,128,2,129829:0:0:0:0:
475,192,129434,128,2,129829:0:0:0:0:
192,192,129434,1,0,1:0:0:0:
192,192,129829,1,8,0:0:0:0:
320,192,129928,1,0,0:0:0:0:
448,192,130026,1,0,0:0:0:0:
320,192,130125,1,0,0:0:0:0:
192,192,130224,1,0,0:0:0:0:
64,192,130322,1,0,0:0:0:0:
192,192,130421,1,0,2:0:0:0:
320,192,130520,1,0,0:0:0:0:
448,192,130618,1,8,1:0:0:0:
64,192,130618,1,8,1:0:0:0:
320,192,130717,1,0,0:0:0:0:
192,192,130816,1,0,0:0:0:0:
64,192,130914,1,0,0:0:0:0:
320,192,131013,1,0,0:0:0:0:
448,192,131112,1,0,0:0:0:0:
192,192,131211,1,0,0:0:0:0:
320,192,131309,1,0,0:0:0:0:
448,192,131408,1,8,1:0:0:0:
64,192,131408,1,8,1:0:0:0:
192,192,131507,1,0,0:0:0:0:
320,192,131605,1,0,0:0:0:0:
192,192,131704,1,0,0:0:0:0:
320,192,131803,1,0,0:0:0:0:
64,192,131901,1,0,0:0:0:0:
192,192,132000,1,0,0:0:0:0:
320,192,132099,1,0,0:0:0:0:
192,192,132197,1,8,1:0:0:0:
448,192,132197,1,8,1:0:0:0:
64,192,132296,1,0,0:0:0:0:
192,192,132395,1,0,0:0:0:0:
320,192,132493,1,0,0:0:0:0:
448,192,132592,1,0,0:0:0:0:
192,192,132691,1,0,0:0:0:0:
320,192,132790,1,0,0:0:0:0:
192,192,132888,1,0,0:0:0:0:
448,192,132987,1,8,1:0:0:0:
320,192,132987,1,8,1:0:0:0:
192,192,133086,1,0,0:0:0:0:
64,192,133184,1,0,0:0:0:0:
192,192,133283,1,0,0:0:0:0:
320,192,133382,1,0,0:0:0:0:
448,192,133480,1,0,0:0:0:0:
320,192,133579,1,0,0:0:0:0:
192,192,133678,1,0,0:0:0:0:
64,192,133776,1,8,1:0:0:0:
448,192,133776,1,8,1:0:0:0:
192,192,133875,1,0,0:0:0:0:
320,192,133974,1,0,0:0:0:0:
448,192,134072,1,0,0:0:0:0:
320,192,134171,1,0,0:0:0:0:
448,192,134270,1,0,0:0:0:0:
320,192,134368,1,0,0:0:0:0:
192,192,134467,1,0,0:0:0:0:
448,192,134566,1,8,1:0:0:0:
64,192,134566,1,8,1:0:0:0:
448,192,134961,1,0,1:0:0:0:
320,192,134961,1,0,1:0:0:0:
192,192,135158,1,0,0:0:0:0:
64,192,135355,1,8,0:0:0:0:
448,192,135355,1,8,0:0:0:0:
320,192,135454,1,0,0:0:0:0:
64,192,135553,1,8,0:0:0:0:
448,192,135553,1,8,0:0:0:0:
192,192,135651,1,0,0:0:0:0:
480,192,135750,1,4,0:0:0:0:
32,192,135750,1,4,0:0:0:0:
256,192,135750,1,4,0:0:0:0:
192,192,135849,1,0,0:0:0:0:
320,192,135947,1,0,0:0:0:0:
448,192,136046,1,0,0:0:0:0:
64,192,136145,1,8,1:0:0:0:
320,192,136145,1,8,1:0:0:0:
192,192,136243,1,0,0:0:0:0:
64,192,136342,1,0,0:0:0:0:
192,192,136441,1,0,0:0:0:0:
320,192,136539,1,0,0:0:0:0:
448,192,136638,1,0,0:0:0:0:
320,192,136737,1,0,0:0:0:0:
192,192,136836,1,0,0:0:0:0:
448,192,136934,1,8,1:0:0:0:
64,192,136934,1,8,1:0:0:0:
192,192,137033,1,0,0:0:0:0:
320,192,137132,1,0,0:0:0:0:
192,192,137230,1,0,0:0:0:0:
64,192,137329,1,0,0:0:0:0:
320,192,137329,1,4,0:0:0:0:
448,192,137329,1,4,0:0:0:0:
192,192,137428,1,0,0:0:0:0:
320,192,137526,1,0,0:0:0:0:
192,192,137625,1,0,0:0:0:0:
64,192,137724,1,8,1:0:0:0:
448,192,137724,1,8,1:0:0:0:
320,192,137822,1,0,0:0:0:0:
192,192,137921,1,0,0:0:0:0:
448,192,138020,1,0,0:0:0:0:
320,192,138118,1,0,0:0:0:0:
64,192,138217,1,0,0:0:0:0:
192,192,138316,1,0,0:0:0:0:
320,192,138414,1,0,0:0:0:0:
448,192,138513,1,8,1:0:0:0:
64,192,138513,1,8,1:0:0:0:
192,192,138645,1,0,2:0:0:0:
320,192,138645,1,0,2:0:0:0:
64,192,138776,1,0,2:0:0:0:
192,192,138776,1,0,2:0:0:0:
192,192,138908,1,0,1:0:0:0:
320,192,138908,1,0,1:0:0:0:
448,192,138908,1,0,1:0:0:0:
448,192,139303,1,8,1:0:0:0:
64,192,139303,1,8,1:0:0:0:
192,192,139435,1,0,2:0:0:0:
320,192,139435,1,0,2:0:0:0:
448,192,139566,1,0,2:0:0:0:
320,192,139566,1,0,2:0:0:0:
320,192,139697,1,0,1:0:0:0:
64,192,139697,1,0,1:0:0:0:
192,192,139697,1,0,1:0:0:0:
448,192,140092,1,8,1:0:0:0:
64,192,140092,1,8,1:0:0:0:
192,192,140224,1,0,2:0:0:0:
320,192,140224,1,0,2:0:0:0:
64,192,140355,1,0,2:0:0:0:
448,192,140355,1,0,2:0:0:0:
320,192,140487,1,4,0:0:0:0:
192,192,140487,1,4,0:0:0:0:
64,192,140586,1,8,0:0:0:0:
320,192,140684,1,8,0:0:0:0:
192,192,140783,1,8,0:0:0:0:
448,192,140882,1,8,0:0:0:0:
64,192,140980,1,8,0:0:0:0:
320,192,141079,1,8,0:0:0:0:
192,192,141178,1,8,0:0:0:0:
448,192,141276,1,8,0:0:0:0:
64,192,141375,1,8,0:0:0:0:
320,192,141474,1,8,0:0:0:0:
192,192,141572,1,8,0:0:0:0:
448,192,141671,1,8,0:0:0:0:
64,192,141770,1,8,0:0:0:0:
192,192,141868,1,8,0:0:0:0:
320,192,141967,1,8,0:0:0:0:
480,192,142066,1,4,0:0:0:0:
51,192,142066,1,4,0:0:0:0:
192,192,142066,1,4,0:0:0:0:
182,192,142197,1,2,0:0:0:0:
256,192,142329,1,2,0:0:0:0:
64,192,142461,1,2,0:0:0:0:
192,192,142592,1,2,0:0:0:0:
329,192,142724,1,2,0:0:0:0:
192,192,142855,1,2,0:0:0:0:
256,192,142987,1,2,0:0:0:0:
475,192,143118,1,2,0:0:0:0:
358,192,143250,1,2,0:0:0:0:
192,192,143382,1,2,0:0:0:0:
36,192,143497,1,2,0:0:0:0:
329,192,143645,1,2,0:0:0:0:
182,192,143776,1,2,0:0:0:0:
320,192,143908,1,2,0:0:0:0:
51,192,144039,1,2,0:0:0:0:
358,192,144171,1,2,0:0:0:0:
192,192,144303,1,2,0:0:0:0:
448,192,144434,1,2,0:0:0:0:
358,192,144566,1,2,0:0:0:0:
64,192,144697,1,2,0:0:0:0:
153,192,144829,1,2,0:0:0:0:
358,192,144961,1,2,0:0:0:0:
448,192,145092,1,2,0:0:0:0:
64,192,145224,1,2,0:0:0:0:
256,192,145322,1,2,0:0:0:0:
64,192,145421,1,2,0:0:0:0:
320,192,145520,1,2,0:0:0:0:
64,192,145618,1,2,0:0:0:0:
192,192,145750,1,2,0:0:0:0:
320,192,145882,1,2,0:0:0:0:
448,192,146013,1,2,0:0:0:0:
51,192,146145,1,2,0:0:0:0:
153,192,146276,1,2,0:0:0:0:
256,192,146408,1,2,0:0:0:0:
402,192,146539,1,2,0:0:0:0:
320,192,146671,1,2,0:0:0:0:
64,192,146803,1,2,0:0:0:0:
192,192,146901,1,2,0:0:0:0:
320,192,147000,1,2,0:0:0:0:
448,192,147099,1,2,0:0:0:0:
320,192,147197,1,2,0:0:0:0:
192,192,147263,1,2,0:0:0:0:
64,192,147329,1,2,0:0:0:0:
448,192,147395,1,2,0:0:0:0:
320,192,147461,1,2,0:0:0:0:
192,192,147526,1,2,0:0:0:0:
64,192,147592,1,2,0:0:0:0:
153,192,147789,1,2,0:0:0:0:
448,192,147789,1,2,0:0:0:0:
320,192,147987,1,2,0:0:0:0:
192,192,148086,1,2,0:0:0:0:
320,192,148184,1,2,0:0:0:0:
192,192,148283,1,2,0:0:0:0:
448,192,148382,1,4,0:0:0:0:
36,192,148382,1,4,0:0:0:0:
320,192,148382,1,4,0:0:0:0:
320,192,148645,1,2,0:0:0:0:
192,192,148645,1,2,0:0:0:0:
192,192,148908,1,2,0:0:0:0:
64,192,148908,1,2,0:0:0:0:
448,192,149270,128,2,149368:0:0:0:0:
192,192,149270,128,2,149368:0:0:0:0:
64,192,149368,128,2,149763:0:0:0:0:
320,192,149368,128,2,149566:0:0:0:0:
192,192,149566,128,2,149763:0:0:0:0:
448,192,149763,128,2,149961:0:0:0:0:
320,192,149763,128,2,149961:0:0:0:0:
64,192,149961,5,4,0:0:0:0:
192,192,149961,1,4,0:0:0:0:
320,192,150224,1,2,0:0:0:0:
192,192,150224,1,2,0:0:0:0:
448,192,150487,1,2,0:0:0:0:
320,192,150487,1,2,0:0:0:0:
448,192,150849,128,2,150947:0:0:0:0:
192,192,150849,128,2,150947:0:0:0:0:
64,192,150947,128,2,151342:0:0:0:0:
320,192,150947,128,2,151145:0:0:0:0:
192,192,151145,128,2,151342:0:0:0:0:
448,192,151342,128,2,151540:0:0:0:0:
320,192,151342,128,2,151540:0:0:0:0:
64,192,151540,5,4,0:0:0:0:
192,192,151540,1,4,0:0:0:0:
358,192,151638,1,8,0:0:0:0:
64,192,151737,1,8,0:0:0:0:
320,192,151836,1,8,0:0:0:0:
64,192,151934,1,8,0:0:0:0:
358,192,152033,1,8,0:0:0:0:
64,192,152132,1,8,0:0:0:0:
256,192,152230,1,8,0:0:0:0:
192,192,152329,1,4,0:0:0:0:
475,192,152329,1,4,0:0:0:0:
64,192,152329,1,4,0:0:0:0:
320,192,152428,1,8,0:0:0:0:
192,192,152526,1,8,0:0:0:0:
320,192,152625,1,8,0:0:0:0:
192,192,152724,1,8,0:0:0:0:
320,192,152822,1,8,0:0:0:0:
192,192,152921,1,8,0:0:0:0:
320,192,153020,1,8,0:0:0:0:
64,192,153118,128,4,153711:0:0:0:0:
475,192,153118,128,4,153710:0:0:0:0:
192,192,153118,1,0,0:0:0:0:
192,192,153711,128,2,153809:0:0:0:0:
320,192,153809,128,2,153908:0:0:0:0:
448,192,153908,128,2,154105:0:0:0:0:
460,192,154697,128,0,155882:0:0:0:0:
36,192,154697,1,0,0:0:0:0:
320,192,154697,1,0,0:0:0:0:
192,192,154796,1,0,0:0:0:0:
256,192,154895,1,0,0:0:0:0:
320,192,155092,1,0,0:0:0:0:
192,192,155191,1,0,0:0:0:0:
64,192,155289,1,0,0:0:0:0:
36,192,155487,1,0,0:0:0:0:
192,192,155586,1,0,0:0:0:0:
256,192,155684,1,0,0:0:0:0:
64,192,155882,128,0,156276:0:0:0:0:
192,192,155882,1,0,0:0:0:0:
320,192,155980,1,0,0:0:0:0:
448,192,156079,1,0,0:0:0:0:
460,192,156276,128,0,157066:0:0:0:0:
320,192,156276,1,0,0:0:0:0:
192,192,156375,1,0,0:0:0:0:
64,192,156474,1,0,0:0:0:0:
64,192,156671,1,0,0:0:0:0:
192,192,156770,1,0,0:0:0:0:
320,192,156868,1,0,0:0:0:0:
64,192,157066,128,0,157855:0:0:0:0:
192,192,157066,1,0,0:0:0:0:
320,192,157164,1,0,0:0:0:0:
448,192,157263,1,0,0:0:0:0:
448,192,157461,1,0,0:0:0:0:
320,192,157559,1,0,0:0:0:0:
192,192,157658,1,0,0:0:0:0:
448,192,157855,128,0,159039:0:0:0:0:
320,192,157855,1,0,0:0:0:0:
192,192,157954,1,0,0:0:0:0:
64,192,158053,1,0,0:0:0:0:
320,192,158250,1,0,0:0:0:0:
64,192,158349,1,0,0:0:0:0:
192,192,158546,1,0,0:0:0:0:
64,192,158645,1,0,0:0:0:0:
192,192,158743,1,0,0:0:0:0:
320,192,158842,1,0,0:0:0:0:
192,192,159039,128,0,159237:0:0:0:0:
320,192,159039,1,0,0:0:0:0:
320,192,159237,128,0,159434:0:0:0:0:
64,192,159237,1,0,0:0:0:0:
448,192,159434,128,0,160618:0:0:0:0:
192,192,159434,1,0,0:0:0:0:
64,192,159533,1,0,0:0:0:0:
192,192,159632,1,0,0:0:0:0:
64,192,159829,1,0,0:0:0:0:
192,192,159928,1,0,0:0:0:0:
64,192,160026,1,0,0:0:0:0:
320,192,160224,1,0,0:0:0:0:
192,192,160322,1,0,0:0:0:0:
320,192,160421,1,0,0:0:0:0:
192,192,160618,1,2,0:0:0:0:
64,192,160717,1,2,0:0:0:0:
192,192,160816,1,2,0:0:0:0:
320,192,160914,1,2,0:0:0:0:
475,192,161013,128,4,163776:0:0:0:0:
64,192,161013,128,4,163776:0:0:0:0:
192,192,161013,1,4,0:0:0:0:
192,192,161408,1,8,0:0:0:0:
256,192,161507,1,0,0:0:0:2:
153,192,161605,1,2,0:0:0:0:
320,192,161803,1,8,0:0:0:2:
192,192,161901,1,0,0:0:0:2:
358,192,162000,1,2,0:0:0:0:
192,192,162197,1,8,0:0:0:0:
256,192,162296,1,0,0:0:0:2:
153,192,162395,1,2,0:0:0:0:
320,192,162592,1,8,0:0:0:0:
192,192,162691,1,0,0:0:0:2:
358,192,162789,1,2,0:0:0:0:
192,192,162987,1,8,0:0:0:0:
256,192,163086,1,0,0:0:0:2:
153,192,163184,1,2,0:0:0:0:
256,192,163382,1,8,0:0:0:0:
192,192,163480,1,2,0:0:0:0:
320,192,163776,128,2,163974:0:0:0:0:
192,192,163974,128,2,164171:0:0:0:0:
64,192,164171,128,2,165750:0:0:0:0:
448,192,164171,1,8,0:0:0:0:
320,192,164270,1,2,0:0:0:0:
448,192,164368,1,0,0:0:0:0:
192,192,164566,1,8,0:0:0:0:
320,192,164664,1,2,0:0:0:0:
448,192,164862,1,8,0:0:0:0:
320,192,164961,1,2,0:0:0:0:
192,192,165158,1,8,0:0:0:0:
320,192,165257,1,2,0:0:0:0:
448,192,165454,1,8,0:0:0:0:
192,192,165553,1,0,0:0:0:0:
320,192,165651,1,0,0:0:0:0:
460,192,165750,128,8,166539:0:0:0:0:
192,192,165750,128,2,165947:0:0:0:0:
320,192,166145,128,2,166342:0:0:0:0:
320,192,166539,1,0,0:0:0:0:
192,192,166638,1,2,0:0:0:0:
64,192,166737,1,2,0:0:0:0:
192,192,166836,1,2,0:0:0:0:
320,192,166934,1,2,0:0:0:0:
448,192,167033,1,2,0:0:0:0:
320,192,167132,1,2,0:0:0:0:
192,192,167230,1,2,0:0:0:0:
320,192,167329,1,4,0:0:0:0:
64,192,167329,1,4,0:0:0:0:
448,192,167329,1,4,0:0:0:0:
192,192,167428,1,0,0:0:0:0:
320,192,167526,1,0,0:0:0:0:
448,192,167724,1,8,0:0:0:0:
64,192,167724,1,0,0:0:0:0:
320,192,167822,1,0,0:0:0:0:
192,192,167921,1,0,0:0:0:0:
64,192,168118,1,8,0:0:0:0:
448,192,168118,1,0,0:0:0:0:
192,192,168217,1,0,0:0:0:0:
320,192,168316,1,0,0:0:0:0:
448,192,168513,1,8,0:0:0:0:
64,192,168513,1,0,0:0:0:0:
320,192,168612,1,0,0:0:0:0:
192,192,168711,1,0,0:0:0:0:
64,192,168908,1,8,0:0:0:0:
448,192,168908,1,0,0:0:0:0:
192,192,169007,1,0,0:0:0:0:
320,192,169105,1,0,0:0:0:0:
448,192,169303,1,8,0:0:0:0:
64,192,169303,1,0,0:0:0:0:
192,192,169401,1,0,0:0:0:0:
320,192,169500,1,0,0:0:0:0:
64,192,169697,1,8,0:0:0:0:
448,192,169697,1,0,0:0:0:0:
320,192,169796,1,0,0:0:0:0:
192,192,169895,1,0,0:0:0:0:
153,192,170092,128,2,170289:0:0:0:0:
448,192,170092,1,2,0:0:0:0:
256,192,170289,128,2,170487:0:0:0:0:
448,192,170487,128,2,170882:0:0:0:0:
192,192,170487,1,0,0:0:0:0:
64,192,170586,1,0,0:0:0:0:
192,192,170684,1,0,0:0:0:0:
64,192,170882,128,2,171276:0:0:0:0:
320,192,170882,1,0,0:0:0:0:
448,192,170980,1,0,0:0:0:0:
320,192,171079,1,0,0:0:0:0:
448,192,171276,128,2,171671:0:0:0:0:
192,192,171276,1,0,0:0:0:0:
64,192,171375,1,0,0:0:0:0:
192,192,171474,1,0,0:0:0:0:
320,192,171671,128,2,172066:0:0:0:0:
64,192,171671,1,0,0:0:0:0:
192,192,171770,1,0,0:0:0:0:
64,192,171868,1,0,0:0:0:0:
192,192,172066,128,2,172461:0:0:0:0:
448,192,172066,1,0,0:0:0:0:
320,192,172164,1,0,0:0:0:0:
448,192,172263,1,0,0:0:0:0:
64,192,172461,128,2,172855:0:0:0:0:
320,192,172461,1,0,0:0:0:0:
448,192,172559,1,0,0:0:0:0:
320,192,172658,1,0,0:0:0:0:
475,192,172855,1,2,0:0:0:0:
320,192,172954,1,2,0:0:0:0:
36,192,173053,1,2,0:0:0:0:
192,192,173151,1,2,0:0:0:0:
402,192,173250,1,2,0:0:0:0:
256,192,173349,1,2,0:0:0:0:
182,192,173447,1,2,0:0:0:0:
320,192,173546,1,2,0:0:0:0:
448,192,173645,128,4,177592:0:0:0:0:
64,192,173645,128,4,176803:0:0:0:0:
192,192,173645,1,4,0:0:0:0:
256,192,173842,1,8,0:0:0:0:
192,192,174039,1,8,0:0:0:0:
320,192,174039,1,8,0:0:0:0:
320,192,174237,1,0,0:0:0:0:
192,192,174237,1,0,0:0:0:0:
358,192,174434,1,8,0:0:0:0:
192,192,174533,1,8,0:0:0:0:
192,192,174829,1,8,0:0:0:0:
320,192,174829,1,8,0:0:0:0:
192,192,175026,1,0,0:0:0:0:
320,192,175026,1,0,0:0:0:0:
256,192,175224,1,8,0:0:0:0:
192,192,175421,1,8,0:0:0:0:
320,192,175618,1,8,0:0:0:0:
192,192,175618,1,8,0:0:0:0:
320,192,175816,1,0,0:0:0:0:
192,192,175816,1,0,0:0:0:0:
329,192,176013,1,8,0:0:0:0:
192,192,176112,1,8,0:0:0:0:
192,192,176408,1,8,0:0:0:0:
320,192,176408,1,8,0:0:0:0:
192,192,176605,1,0,0:0:0:0:
320,192,176605,1,0,0:0:0:0:
320,192,176803,1,8,0:0:0:0:
192,192,176901,1,8,0:0:0:0:
320,192,177000,1,8,0:0:0:0:
192,192,177099,1,8,0:0:0:0:
64,192,177197,1,8,0:0:0:0:
192,192,177296,1,8,0:0:0:0:
320,192,177395,1,4,0:0:0:0:
192,192,177493,1,8,0:0:0:0:
320,192,177592,1,8,0:0:0:0:
64,192,177592,128,4,178678:0:0:0:0:
192,192,177691,1,8,0:0:0:0:
320,192,177789,1,8,0:0:0:0:
192,192,177888,1,8,0:0:0:0:
320,192,177987,1,8,0:0:0:0:
448,192,178086,1,8,0:0:0:0:
192,192,178184,1,8,0:0:0:0:
256,192,178283,1,8,0:0:0:0:
448,192,178382,1,4,0:0:0:0:
192,192,178480,1,8,0:0:0:0:
320,192,178579,1,8,0:0:0:0:
448,192,178678,128,0,178776:0:0:0:0:
192,192,178776,128,0,178875:0:0:0:0:
320,192,178875,128,0,178974:0:0:0:0:
64,192,178974,128,0,179072:0:0:0:0:
448,192,179072,128,0,179171:0:0:0:0:
192,192,179171,128,0,179270:0:0:0:0:
320,192,179270,128,0,179368:0:0:0:0:
448,192,179368,128,0,179467:0:0:0:0:
192,192,179467,128,0,179566:0:0:0:0:
320,192,179566,128,0,179664:0:0:0:0:
64,192,179664,128,0,179763:0:0:0:0:
192,192,179763,128,0,179862:0:0:0:0:
320,192,179862,128,0,179961:0:0:0:0:
64,192,179961,128,4,186375:0:0:0:0:
448,192,179961,128,4,186375:0:0:0:0:
192,192,179961,1,4,0:0:0:0:
