osu file format v13

[General]
AudioFilename: L Ascension Act2 by ICE.mp3
AudioLeadIn: 0
PreviewTime: 64162
Countdown: 0
SampleSet: Soft
StackLeniency: 0.9
Mode: 3
LetterboxInBreaks: 0
SpecialStyle: 0
WidescreenStoryboard: 1

[Editor]
Bookmarks: 1693,20032,39580,46342,51774,64258,83999,91695,97598,103791,117001,117049,128130,142211,154791
DistanceSpacing: 0.8
BeatDivisor: 4
GridSize: 8
TimelineZoom: 1.5

[Metadata]
Title:L2 - Ascension : Act 2 (Liberation)
TitleUnicode:L青 - Liberation
Artist:Ice
ArtistUnicode:Ice
Creator:LordRaika
Version:Liberation (7K Insane)
Source:Cytus
Tags:Iceloki Instrumental Piano Violin CoroQuetz Okoratu Fullerene- lZenxl CLSW Expew Kurokami DjNightmare
BeatmapID:317289
BeatmapSetID:123760

[Difficulty]
HPDrainRate:8
CircleSize:7
OverallDifficulty:8
ApproachRate:5
SliderMultiplier:2.99999990463257
SliderTickRate:4

[Events]
//Background and Video events
0,0,"L2.jpg",0,0
//Break Periods
//Storyboard Layer 0 (Background)
//Storyboard Layer 1 (Fail)
//Storyboard Layer 2 (Pass)
//Storyboard Layer 3 (Foreground)
Sprite,Foreground,Centre,"Resource\My Icon Insane.png",320,240 M,0,-38,,617,403 S,0,-38,,0.7678357 F,0,-38,179961,1 F,0,179961,187165,1,0
Sprite,Foreground,Centre,"Resource\lZenxl.png",320,240 F,0,179961,180355,0,1 M,0,180355,,567,258 S,0,180355,,0.7789087 F,0,180355,186671,1 F,0,186671,187165,1,0
Sprite,Foreground,Centre,"Resource\LordRaika.png",320,240 F,0,179961,180355,0,1 M,0,180355,,573,179 S,0,180355,,0.7789087 F,0,180355,186671,1 F,0,186671,187165,1,0
//Storyboard Sound Samples
Sample,1540,0,"C#4S_Db4S.wav",50
Sample,8645,0,"G4S.wav",40
Sample,8645,0,"G3S.wav",50
Sample,20487,0,"F4S.wav",40
Sample,20487,0,"G#4S_Ab4S.wav",40
Sample,22066,0,"A#3S_Bb3S.wav",40
Sample,22066,0,"C#4S_Db4S.wav",40
Sample,22066,0,"F3S.wav",40
Sample,22066,0,"G5S.wav",50
Sample,22855,0,"A#5S_Bb5S.wav",50
Sample,23645,0,"C4S.wav",33
Sample,23645,0,"G4S.wav",33
Sample,23645,0,"E4S.wav",33
Sample,23645,0,"A#4S_Bb4S.wav",33
Sample,26803,0,"F4S.wav",60
//Background Colour Transformations
3,100,163,162,255

[TimingPoints]
1540,394.736842105263,4,2,1,5,1,0
1540,-142.857142857143,4,2,0,5,0,0
7855,-166.666666666667,4,2,0,5,0,0
8646,-142.857142857143,4,2,0,5,0,0
9434,-166.666666666667,4,2,0,5,0,0
11023,-131.578947368421,4,2,0,5,0,0
19896,-107.52688172043,4,2,0,5,0,0
20487,-107.52688172043,4,1,0,12,0,0
20586,-107.52688172043,4,2,0,5,0,0
21868,-107.52688172043,4,2,0,5,0,0
22066,-107.52688172043,4,1,0,12,0,0
22164,-107.52688172043,4,2,0,5,0,0
23645,-107.52688172043,4,1,0,9,0,0
24434,-166.666666666667,4,1,0,18,0,0
24484,-113.636363636364,4,2,1,5,0,0
25224,-133.333333333333,4,1,0,36,0,0
25273,-113.636363636364,4,2,0,5,0,0
26754,-100,4,1,2,18,0,0
39435,-133.333333333333,4,1,0,9,0,0
39485,-100,4,2,0,18,0,0
52067,-133.333333333333,4,1,0,18,0,0
52116,-100,4,2,0,8,0,0
64697,-151.515151515152,4,1,0,12,0,0
64748,-100,4,2,0,5,0,0
71013,-151.515151515152,4,1,0,12,0,0
71063,-100,4,2,0,5,0,0
72592,-151.515151515152,4,1,0,12,0,0
72642,-100,4,2,0,5,0,0
74171,-151.515151515152,4,1,0,12,0,0
74221,-100,4,2,0,5,0,0
75750,-151.515151515152,4,1,0,12,0,0
75800,-100,4,2,0,5,0,0
77329,-119.047619047619,4,2,0,5,0,0
77428,-108.695652173913,4,2,1,5,0,0
77526,-100,4,1,0,12,0,1
78809,-108.695652173913,4,2,1,5,0,1
78908,-119.047619047619,4,2,0,22,0,1
79007,-108.695652173913,4,2,1,5,0,1
79106,-100,4,1,2,9,0,1
80388,-108.695652173913,4,2,1,5,0,1
80487,-119.047619047619,4,3,0,20,0,1
80586,-108.695652173913,4,2,1,5,0,1
80684,-100,4,1,0,15,0,1
81967,-108.695652173913,4,2,1,5,0,1
82066,-119.047619047619,4,1,0,5,0,1
82165,-108.695652173913,4,2,1,5,0,1
82263,-100,4,1,0,11,0,1
83254,-103.092783505155,4,1,0,9,0,1
83300,-100,4,2,1,5,0,1
83350,-103.092783505155,4,1,0,9,0,1
83399,-100,4,2,1,5,0,1
83448,-103.092783505155,4,1,0,9,0,1
83498,-100,4,2,1,5,0,1
83547,-103.092783505155,4,1,0,9,0,1
83596,-100,4,2,1,5,0,1
83646,-100,4,1,0,36,0,1
83743,-100,4,2,0,5,0,1
85224,-151.515151515152,4,1,0,12,0,1
85266,-100,4,2,0,5,0,1
86803,-151.515151515152,4,1,0,12,0,1
86843,-100,4,2,0,5,0,1
87592,-151.515151515152,4,1,0,12,0,1
87642,-100,4,2,0,5,0,1
88382,-153.846153846154,4,2,1,5,0,0
89171,-138.888888888889,4,2,0,9,0,0
89961,-126.582278481013,4,2,0,9,0,0
90751,-116.279069767442,4,2,0,12,0,0
91145,-107.52688172043,4,2,0,12,0,0
91540,-151.515151515152,4,1,0,12,0,0
91589,-100,4,2,0,5,0,0
97263,-100,4,2,0,33,0,1
97856,-166.666666666667,4,1,1,18,0,1
97906,-100,4,2,0,33,0,1
98646,-166.666666666667,4,1,0,18,0,1
98695,-100,4,2,0,33,0,1
99435,-166.666666666667,4,1,0,18,0,1
99485,-100,4,2,0,33,0,1
100225,-166.666666666667,4,1,0,18,0,1
100274,-100,4,2,0,33,0,1
101014,-166.666666666667,4,1,0,18,0,1
101064,-100,4,2,0,33,0,1
101804,-270.27027027027,4,1,0,18,0,1
101853,-100,4,2,0,33,0,1
102593,-270.27027027027,4,1,0,18,0,1
102642,-100,4,2,0,18,0,1
103382,-100,4,2,0,18,0,1
104172,-151.515151515152,4,1,0,9,0,1
104221,-100,4,2,0,5,0,1
110487,-166.666666666667,4,1,0,12,0,1
110537,-100,4,2,0,5,0,1
112066,-166.666666666667,4,1,0,12,0,1
112116,-100,4,2,0,5,0,1
113646,-166.666666666667,4,1,0,14,0,1
113695,-100,4,2,0,5,0,1
114435,-166.666666666667,4,1,0,14,0,1
114485,-100,4,2,0,5,0,1
116803,-166.666666666667,4,1,0,12,0,1
116853,-100,4,2,0,5,0,1
123118,-166.666666666667,4,1,0,12,0,1
123169,-100,4,2,0,5,0,1
124697,-166.666666666667,4,1,0,18,0,1
124748,-100,4,2,0,5,0,1
126276,-129.87012987013,4,1,0,18,0,1
126326,-100,4,2,0,5,0,1
127067,-129.87012987013,4,1,0,28,0,1
127116,-100,4,2,0,5,0,1
127855,-142.857142857143,4,1,0,12,0,0
127905,-100,4,2,0,5,0,0
135751,-151.515151515152,4,1,0,10,0,0
135800,-100,4,2,0,5,0,0
137330,-151.515151515152,4,1,0,18,0,0
137379,-100,4,2,0,5,0,0
138909,-151.515151515152,4,1,0,18,0,0
138958,-100,4,2,0,5,0,0
139700,-151.515151515152,4,1,0,18,0,0
139748,-100,4,2,0,5,0,0
140487,-125,4,1,0,18,0,1
140520,-100,4,2,0,5,0,1
142067,-151.515151515152,4,1,0,18,0,1
142116,-100,4,2,0,5,0,1
148382,-151.515151515152,4,1,0,12,0,1
148432,-100,4,2,0,5,0,1
149961,-151.515151515152,4,1,0,12,0,1
150011,-100,4,2,0,5,0,1
151540,-161.290322580645,4,1,0,18,0,1
151590,-100,4,2,0,5,0,1
152330,-161.290322580645,4,1,0,18,0,1
152373,-100,4,2,0,5,0,1
153119,-142.857142857143,4,1,0,9,0,0
153168,-142.857142857143,4,2,0,5,0,0
153908,-121.951219512195,4,2,0,5,0,0
154007,-107.52688172043,4,2,1,5,0,0
154105,-90.0900900900901,4,2,1,5,0,0
154303,-100,4,2,1,5,0,0
154401,-111.111111111111,4,2,1,5,0,0
154500,-120.481927710843,4,2,1,5,0,0
154698,-100,4,1,0,7,0,0
160619,-100,4,2,0,5,0,0
161013,-105.263157894737,4,1,0,12,0,0
161112,-100,4,2,0,20,0,0
166590,-100,4,2,0,5,0,0
167329,-105.263157894737,4,1,0,12,0,0
167428,-100,4,2,0,10,0,0
173646,-100,4,1,0,18,0,0
176803,-100,4,1,0,20,0,0
178678,-105.263157894737,4,2,0,5,0,0
179123,-114.942528735632,4,2,0,5,0,0
179517,-126.582278481013,4,2,0,5,0,0
179898,-166.666666666667,4,1,0,18,0,0
180009,-200,4,2,1,5,0,0
180258,-250,4,2,1,5,0,0
180751,-333.333333333333,4,2,1,5,0,0

[Colours]
Combo1 : 3,111,241
Combo2 : 2,21,253

[HitObjects]
160,192,1540,5,2,0:0:0:55:C#5S_Db5S.wav
480,192,1540,1,2,0:0:0:50:C#3S_Db3S.wav
96,192,1934,1,0,0:0:0:55:C5S.wav
160,192,2329,1,0,0:0:0:55:C#5S_Db5S.wav
224,192,2724,1,0,0:0:0:60:D#5S_Eb5S.wav
329,192,3118,128,0,3908:0:0:0:60:F5S.wav
402,192,3908,1,0,0:0:0:70:G5S.wav
475,192,4303,1,0,0:0:0:70:G#5S_Ab5S.wav
329,192,4697,1,2,0:0:0:50:D#4S_Eb4S.wav
160,192,4697,1,2,0:0:0:50:D#3S_Eb3S.wav
96,192,4697,1,0,0:0:0:38:G5S.wav
402,192,4697,1,0,0:0:0:38:G5S.wav
36,192,5487,1,0,0:0:0:60:C5S.wav
182,192,6276,1,0,0:0:0:38:C6S.wav
109,192,6276,1,2,0:0:0:50:E3S.wav
329,192,6276,1,2,0:0:0:33:E4S.wav
475,192,6276,1,0,0:0:0:38:C6S.wav
402,192,6671,1,0,0:0:0:70:A#5S_Bb5S.wav
352,192,7066,1,0,0:0:0:70:G#5S_Ab5S.wav
288,192,7461,1,0,0:0:0:70:G5S.wav
182,192,7855,128,0,8645:0:0:0:50:F3S.wav
416,192,7855,128,0,8645:0:0:0:50:F4S.wav
352,192,7855,128,2,8645:0:0:0:35:G#5S_Ab5S.wav
96,192,7855,128,2,8645:0:0:0:35:G#5S_Ab5S.wav
224,192,8908,1,2,0:0:0:70:G5S.wav
160,192,9171,1,2,0:0:0:70:F5S.wav
36,192,9434,128,2,11013:0:0:0:40:G#4S_Ab4S.wav
96,192,9434,128,0,11013:0:0:0:50:G#3S_Ab3S.wav
256,192,9434,128,0,11013:0:0:0:38:C5S.wav
329,192,9434,128,2,11013:0:0:0:38:C5S.wav
480,192,11013,1,2,0:0:0:33:A4S_s.wav
182,192,11013,1,2,0:0:0:33:A4S_s.wav
109,192,11211,1,2,0:0:0:33:F4S_s.wav
402,192,11211,1,2,0:0:0:33:F4S_s.wav
352,192,11408,1,2,0:0:0:33:C4S_s.wav
36,192,11408,1,2,0:0:0:33:C4S_s.wav
109,192,11605,1,2,0:0:0:33:A3S_s.wav
402,192,11605,1,2,0:0:0:33:A3S_s.wav
480,192,11803,1,2,0:0:0:33:F4S_s.wav
182,192,11803,1,2,0:0:0:33:F4S_s.wav
109,192,12000,1,2,0:0:0:33:C4S_s.wav
416,192,12000,1,2,0:0:0:33:C4S_s.wav
475,192,12197,1,2,0:0:0:33:A3S_s.wav
182,192,12197,1,2,0:0:0:33:A3S_s.wav
109,192,12395,1,2,0:0:0:33:F3S_s.wav
402,192,12395,1,2,0:0:0:33:F3S_s.wav
329,192,12592,1,0,0:0:0:28:F2S.wav
36,192,12592,1,0,0:0:0:28:F2S.wav
224,192,13382,1,2,0:0:0:40:D#4S_Eb4S.wav
36,192,13382,1,0,0:0:0:40:C4S.wav
475,192,13382,1,2,0:0:0:70:C5S.wav
96,192,13382,1,0,0:0:0:40:F3S.wav
352,192,13645,1,0,0:0:0:50:C#5S_Db5S.wav
416,192,13908,1,0,0:0:0:50:D#5S_Eb5S.wav
160,192,14171,1,0,0:0:0:38:C#5S_Db5S.wav
288,192,14171,1,2,0:0:0:50:C#4S_Db4S.wav
352,192,14171,1,0,0:0:0:38:C#5S_Db5S.wav
36,192,14171,1,2,0:0:0:50:A#3S_Bb3S.wav
480,192,14566,1,0,0:0:0:75:C6S.wav
416,192,14961,1,0,0:0:0:70:A#5S_Bb5S.wav
352,192,15355,1,0,0:0:0:70:G#5S_Ab5S.wav
352,192,15750,1,0,0:0:0:39:G#5S_Ab5S.wav
32,192,15750,1,2,0:0:0:50:C4S.wav
416,192,15750,1,2,0:0:0:40:E4S.wav
109,192,15750,1,0,0:0:0:39:G#5S_Ab5S.wav
288,192,16145,1,0,0:0:0:70:G5S.wav
288,192,16803,1,0,0:0:0:70:G5S.wav
352,192,17066,1,0,0:0:0:70:G#5S_Ab5S.wav
182,192,17329,1,0,0:0:0:39:A#5S_Bb5S.wav
96,192,17329,1,2,0:0:0:50:C4S.wav
32,192,17329,1,2,0:0:0:50:F3S.wav
416,192,17329,1,0,0:0:0:39:A#5S_Bb5S.wav
480,192,17724,1,0,0:0:0:70:C#6S_Db6S.wav
416,192,18118,1,0,0:0:0:70:C6S.wav
96,192,18513,1,0,0:0:0:70:G5S.wav
480,192,18908,1,2,0:0:0:50:C4S.wav
329,192,18908,1,0,0:0:0:39:A#5S_Bb5S.wav
32,192,18908,1,2,0:0:0:50:F3S.wav
256,192,18908,1,0,0:0:0:39:A#5S_Bb5S.wav
160,192,19303,1,0,0:0:0:70:G#5S_Ab5S.wav
475,192,19895,1,2,0:0:0:50:C6S.wav
32,192,19896,128,2,20093:0:0:0:50:C5S.wav
402,192,20092,1,2,0:0:0:50:F6S.wav
96,192,20093,128,2,20290:0:0:0:50:F5S.wav
329,192,20289,1,2,0:0:0:50:G6S.wav
160,192,20289,128,2,20487:0:0:0:50:G5S.wav
256,192,20487,128,4,20882:0:0:0:50:G#5S_Ab5S.wav
32,192,20487,1,4,0:0:0:40:C#4S_Db4S.wav
480,192,20487,1,4,0:0:0:50:G#6S_Ab6S.wav
182,192,20882,128,2,21079:0:0:0:50:G6S.wav
329,192,20882,1,2,0:0:0:50:G5S.wav
402,192,21079,1,2,0:0:0:50:F5S.wav
109,192,21079,128,2,21276:0:0:0:50:F6S.wav
475,192,21276,128,2,21671:0:0:0:50:C6S.wav
32,192,21277,128,2,21672:0:0:0:50:C5S.wav
402,192,21671,128,2,21868:0:0:0:50:F6S.wav
96,192,21671,128,0,21868:0:0:0:50:F5S.wav
160,192,21868,1,2,0:0:0:10:soft-hitwhistle.wav
329,192,21868,1,2,0:0:0:10:soft-hitwhistle.wav
256,192,22066,1,4,0:0:0:0:
480,192,22066,1,4,0:0:0:50:G6S.wav
32,192,22066,1,4,0:0:0:0:
160,192,22461,1,2,0:0:0:50:G#5S_Ab5S.wav
352,192,22461,1,2,0:0:0:50:G#6S_Ab6S.wav
256,192,22855,128,2,25224:0:0:0:50:A#6S_Bb6S.wav
352,192,23250,128,2,23645:0:0:0:50:C#7S_Db7S.wav
160,192,23250,128,2,23645:0:0:0:50:C#6S_Db6S.wav
416,192,23447,1,2,0:0:0:10:soft-hitwhistle.wav
96,192,23447,1,2,0:0:0:10:soft-hitwhistle.wav
416,192,23645,128,4,25224:0:0:0:50:C7S.wav
32,192,23645,1,4,0:0:0:0:
480,192,23645,1,4,0:0:0:0:
96,192,23645,128,4,25224:0:0:0:50:C6S.wav
36,192,24434,1,4,0:0:0:0:
475,192,24434,1,4,0:0:0:0:
182,192,25224,1,4,0:0:0:0:
256,192,25273,1,2,0:0:0:0:
329,192,25322,1,2,0:0:0:0:
182,192,25421,1,2,0:0:0:0:
402,192,25520,1,2,0:0:0:0:
109,192,25618,1,2,0:0:0:0:
475,192,25717,1,2,0:0:0:0:
36,192,25816,1,2,0:0:0:0:
402,192,25865,1,2,0:0:0:0:
109,192,25914,1,2,0:0:0:0:
329,192,25964,1,2,0:0:0:0:
182,192,26013,1,2,0:0:0:0:
256,192,26063,1,2,0:0:0:0:
329,192,26112,1,2,0:0:0:0:
402,192,26161,1,2,0:0:0:0:
182,192,26260,1,2,0:0:0:0:
36,192,26342,1,2,0:0:0:0:
475,192,26408,1,2,0:0:0:0:
402,192,26474,1,2,0:0:0:0:
329,192,26539,1,2,0:0:0:0:
256,192,26605,1,2,0:0:0:0:
182,192,26671,1,2,0:0:0:0:
109,192,26737,1,2,0:0:0:0:
36,192,26803,1,4,0:0:0:0:
475,192,26803,1,4,0:0:0:60:F5S.wav
329,192,26901,1,0,0:0:0:0:
109,192,27000,1,2,0:0:0:0:
402,192,27099,1,0,0:0:0:0:
182,192,27197,1,8,0:0:0:0:
475,192,27296,1,0,0:0:0:0:
109,192,27395,1,2,0:0:0:0:
329,192,27493,1,0,0:0:0:0:
182,192,27592,1,8,0:0:0:0:
402,192,27691,1,0,0:0:0:0:
109,192,27789,1,2,0:0:0:0:
329,192,27888,1,0,0:0:0:0:
182,192,27987,1,8,0:0:0:0:
475,192,28086,1,0,0:0:0:0:
256,192,28184,1,2,0:0:0:0:
36,192,28283,1,0,0:0:0:0:
402,192,28382,1,8,0:0:0:0:
182,192,28480,1,0,0:0:0:0:
329,192,28579,1,2,0:0:0:0:
109,192,28678,1,0,0:0:0:0:
256,192,28776,1,8,0:0:0:0:
475,192,28875,1,0,0:0:0:0:
182,192,28974,1,2,0:0:0:0:
402,192,29072,1,0,0:0:0:0:
36,192,29171,1,8,0:0:0:0:
256,192,29270,1,0,0:0:0:0:
475,192,29368,1,2,0:0:0:0:
109,192,29467,1,0,0:0:0:0:
329,192,29566,1,8,0:0:0:0:
182,192,29664,1,0,0:0:0:0:
402,192,29763,1,2,0:0:0:0:
256,192,29862,1,0,0:0:0:0:
109,192,29961,1,8,0:0:0:0:
329,192,30059,1,0,0:0:0:0:
182,192,30158,1,2,0:0:0:0:
475,192,30257,1,0,0:0:0:0:
256,192,30355,1,8,0:0:0:0:
36,192,30454,1,0,0:0:0:0:
402,192,30553,1,2,0:0:0:0:
182,192,30651,1,0,0:0:0:0:
329,192,30750,1,8,0:0:0:0:
109,192,30849,1,0,0:0:0:0:
402,192,30947,1,2,0:0:0:0:
182,192,31046,1,0,0:0:0:0:
329,192,31145,1,8,0:0:0:0:
256,192,31243,1,0,0:0:0:0:
36,192,31342,1,2,0:0:0:0:
402,192,31441,1,0,0:0:0:0:
182,192,31539,1,8,0:0:0:0:
475,192,31638,1,0,0:0:0:0:
109,192,31737,1,2,0:0:0:0:
329,192,31836,1,0,0:0:0:0:
256,192,31934,1,8,0:0:0:0:
402,192,32033,1,0,0:0:0:0:
182,192,32132,1,2,0:0:0:0:
329,192,32230,1,0,0:0:0:0:
109,192,32329,1,8,0:0:0:0:
475,192,32428,1,0,0:0:0:0:
182,192,32526,1,2,0:0:0:0:
109,192,32724,1,8,0:0:0:0:
402,192,32724,1,8,0:0:0:0:
256,192,32724,1,0,0:0:0:0:
36,192,32921,1,8,0:0:0:0:
256,192,32921,1,0,0:0:0:0:
475,192,32921,1,8,0:0:0:0:
109,192,33118,1,8,0:0:0:0:
402,192,33118,1,8,0:0:0:0:
256,192,33118,1,0,0:0:0:0:
182,192,33316,1,2,0:0:0:0:
329,192,33414,1,0,0:0:0:0:
109,192,33513,1,8,0:0:0:0:
256,192,33612,1,0,0:0:0:0:
402,192,33711,1,2,0:0:0:0:
182,192,33809,1,0,0:0:0:0:
329,192,33908,1,8,0:0:0:0:
36,192,34007,1,0,0:0:0:0:
402,192,34105,1,2,0:0:0:0:
182,192,34204,1,0,0:0:0:0:
475,192,34303,1,8,0:0:0:0:
256,192,34401,1,0,0:0:0:0:
109,192,34500,1,2,0:0:0:0:
329,192,34599,1,0,0:0:0:0:
182,192,34697,1,8,0:0:0:0:
402,192,34796,1,0,0:0:0:0:
109,192,34895,1,2,0:0:0:0:
329,192,34993,1,0,0:0:0:0:
475,192,35092,1,8,0:0:0:0:
256,192,35191,1,0,0:0:0:0:
182,192,35289,1,2,0:0:0:0:
402,192,35388,1,0,0:0:0:0:
36,192,35487,1,8,0:0:0:0:
256,192,35586,1,0,0:0:0:0:
475,192,35684,1,2,0:0:0:0:
109,192,35783,1,0,0:0:0:0:
329,192,35882,1,8,0:0:0:0:
36,192,35980,1,0,0:0:0:0:
402,192,36079,1,2,0:0:0:0:
182,192,36178,1,0,0:0:0:0:
256,192,36276,1,8,0:0:0:0:
109,192,36375,1,0,0:0:0:0:
329,192,36474,1,2,0:0:0:0:
182,192,36572,1,0,0:0:0:0:
475,192,36671,1,8,0:0:0:0:
256,192,36770,1,0,0:0:0:0:
109,192,36868,1,2,0:0:0:0:
329,192,36967,1,0,0:0:0:0:
36,192,37066,1,8,0:0:0:0:
402,192,37164,1,0,0:0:0:0:
182,192,37263,1,2,0:0:0:0:
329,192,37362,1,0,0:0:0:0:
109,192,37461,1,8,0:0:0:0:
256,192,37559,1,0,0:0:0:0:
475,192,37658,1,2,0:0:0:0:
182,192,37757,1,0,0:0:0:0:
402,192,37855,1,8,0:0:0:0:
36,192,37954,1,0,0:0:0:0:
329,192,38053,1,2,0:0:0:0:
109,192,38151,1,0,0:0:0:0:
402,192,38250,1,8,0:0:0:0:
182,192,38349,1,0,0:0:0:0:
402,192,38645,1,8,0:0:0:0:
109,192,38645,1,8,0:0:0:0:
402,192,38842,1,8,0:0:0:0:
109,192,38842,1,8,0:0:0:0:
109,192,39039,1,8,0:0:0:0:
402,192,39039,1,8,0:0:0:0:
109,192,39237,1,8,0:0:0:0:
402,192,39237,1,8,0:0:0:0:
36,192,39434,1,4,0:0:0:0:
475,192,39434,1,4,0:0:0:1:
160,192,39434,1,4,0:0:0:1:
329,192,39434,1,4,0:0:0:1:
182,192,39730,1,2,0:0:0:0:
329,192,39829,1,8,0:0:0:0:
402,192,39928,1,0,0:0:0:8:soft-sliderslide.wav
109,192,40026,1,2,0:0:0:0:
475,192,40224,1,8,0:0:0:0:
36,192,40322,1,2,0:0:0:0:
402,192,40322,1,0,0:0:0:8:soft-sliderslide.wav
109,192,40618,1,2,0:0:0:0:
329,192,40618,1,8,0:0:0:0:
402,192,40717,1,0,0:0:0:8:soft-sliderslide.wav
36,192,40816,1,2,0:0:0:0:
475,192,41013,1,8,0:0:0:0:
109,192,41013,1,2,0:0:0:0:
402,192,41112,1,0,0:0:0:8:soft-sliderslide.wav
36,192,41309,1,2,0:0:0:0:
329,192,41408,1,8,0:0:0:0:
402,192,41507,1,0,0:0:0:8:soft-sliderslide.wav
109,192,41605,1,2,0:0:0:0:
475,192,41803,1,8,0:0:0:0:
36,192,41901,1,2,0:0:0:0:
402,192,41901,1,0,0:0:0:8:soft-sliderslide.wav
109,192,42197,1,2,0:0:0:0:
329,192,42197,1,8,0:0:0:0:
402,192,42296,1,0,0:0:0:8:soft-sliderslide.wav
36,192,42395,1,2,0:0:0:0:
475,192,42592,1,8,0:0:0:0:
109,192,42592,1,2,0:0:0:0:
402,192,42691,1,0,0:0:0:8:soft-sliderslide.wav
182,192,42888,1,2,0:0:0:0:
329,192,42987,1,8,0:0:0:0:
402,192,43086,1,0,0:0:0:8:soft-sliderslide.wav
109,192,43184,1,2,0:0:0:0:
475,192,43382,1,8,0:0:0:0:
402,192,43480,1,0,0:0:0:8:soft-sliderslide.wav
36,192,43480,1,2,0:0:0:0:
109,192,43776,1,2,0:0:0:0:
329,192,43776,1,8,0:0:0:0:
402,192,43875,1,0,0:0:0:8:soft-sliderslide.wav
36,192,43974,1,2,0:0:0:0:
475,192,44171,1,8,0:0:0:0:
109,192,44171,1,2,0:0:0:0:
402,192,44270,1,0,0:0:0:8:soft-sliderslide.wav
182,192,44467,1,2,0:0:0:0:
329,192,44566,1,8,0:0:0:0:
402,192,44664,1,0,0:0:0:8:soft-sliderslide.wav
109,192,44763,1,2,0:0:0:0:
475,192,44961,1,8,0:0:0:0:
402,192,45059,5,8,0:0:0:8:soft-sliderslide.wav
36,192,45059,1,2,0:0:0:0:
109,192,45355,1,8,0:0:0:0:
256,192,45355,1,2,0:0:0:0:
402,192,45355,1,0,0:0:0:8:soft-sliderslide.wav
256,192,45552,1,2,0:0:0:0:
109,192,45552,1,8,0:0:0:0:
402,192,45552,1,0,0:0:0:8:soft-sliderslide.wav
256,192,45749,1,2,0:0:0:0:
402,192,45749,1,0,0:0:0:8:soft-sliderslide.wav
109,192,45749,1,8,0:0:0:0:
329,192,46046,1,2,0:0:0:0:
182,192,46145,1,8,0:0:0:0:
109,192,46243,1,0,0:0:0:8:soft-sliderslide.wav
402,192,46342,1,2,0:0:0:0:
36,192,46539,1,8,0:0:0:0:
475,192,46638,1,2,0:0:0:0:
109,192,46638,1,0,0:0:0:8:soft-sliderslide.wav
182,192,46934,1,8,0:0:0:0:
402,192,46934,1,2,0:0:0:0:
109,192,47033,1,0,0:0:0:8:soft-sliderslide.wav
475,192,47132,1,2,0:0:0:0:
36,192,47329,1,8,0:0:0:0:
402,192,47329,1,2,0:0:0:0:
109,192,47428,1,0,0:0:0:8:soft-sliderslide.wav
475,192,47625,1,2,0:0:0:0:
182,192,47724,1,8,0:0:0:0:
109,192,47822,1,0,0:0:0:8:soft-sliderslide.wav
402,192,47921,1,2,0:0:0:0:
36,192,48118,1,8,0:0:0:0:
475,192,48217,1,2,0:0:0:0:
109,192,48217,1,0,0:0:0:8:soft-sliderslide.wav
402,192,48513,1,2,0:0:0:0:
182,192,48513,1,8,0:0:0:0:
109,192,48612,1,0,0:0:0:8:soft-sliderslide.wav
475,192,48711,1,2,0:0:0:0:
402,192,48908,1,2,0:0:0:0:
36,192,48908,1,8,0:0:0:0:
109,192,49007,1,0,0:0:0:8:soft-sliderslide.wav
329,192,49204,1,2,0:0:0:0:
182,192,49303,1,8,0:0:0:0:
109,192,49401,1,0,0:0:0:8:soft-sliderslide.wav
402,192,49500,1,2,0:0:0:0:
36,192,49697,1,8,0:0:0:0:
475,192,49796,1,2,0:0:0:0:
109,192,49796,1,0,0:0:0:8:soft-sliderslide.wav
402,192,50092,1,2,0:0:0:0:
182,192,50092,1,8,0:0:0:0:
109,192,50191,1,0,0:0:0:8:soft-sliderslide.wav
475,192,50289,1,2,0:0:0:0:
402,192,50487,1,2,0:0:0:0:
36,192,50487,1,8,0:0:0:0:
109,192,50586,1,0,0:0:0:8:soft-sliderslide.wav
329,192,50783,1,2,0:0:0:0:
182,192,50882,1,8,0:0:0:0:
109,192,50980,1,0,0:0:0:8:soft-sliderslide.wav
402,192,51079,1,2,0:0:0:0:
256,192,51474,1,2,0:0:0:0:
182,192,51671,128,2,52066:0:0:0:6:
329,192,51671,1,2,0:0:0:0:
109,192,51868,128,2,52065:0:0:0:3:
402,192,51868,1,2,0:0:0:0:
36,192,52066,128,4,52658:0:0:0:3:
475,192,52066,1,4,0:0:0:0:
109,192,52362,128,2,52658:0:0:0:2:
402,192,52362,1,2,0:0:0:0:
182,192,52658,1,2,0:0:0:0:
475,192,52658,128,2,52954:0:0:0:3:
109,192,52954,128,2,53250:0:0:0:6:
256,192,52954,1,2,0:0:0:0:
182,192,53250,1,2,0:0:0:0:
402,192,53250,128,2,53645:0:0:0:6:
36,192,53447,1,2,0:0:0:0:
329,192,53447,128,2,53645:0:0:0:0:
109,192,53645,1,2,0:0:0:0:
256,192,53645,128,2,53941:0:0:0:0:
402,192,53941,1,2,0:0:0:0:
109,192,53941,128,2,54237:0:0:0:0:
475,192,54237,128,2,54533:0:0:0:0:
182,192,54237,1,2,0:0:0:0:
329,192,54533,128,2,55224:0:0:0:0:
36,192,54533,1,2,0:0:0:0:
109,192,54829,1,2,0:0:0:0:
402,192,54829,128,2,55224:0:0:0:0:
182,192,55026,1,2,0:0:0:0:
475,192,55026,128,2,55224:0:0:0:0:
36,192,55224,1,2,0:0:0:0:
256,192,55224,128,2,55520:0:0:0:0:
402,192,55520,1,2,0:0:0:0:
36,192,55520,128,2,56112:0:0:0:0:
475,192,55816,1,2,0:0:0:0:
182,192,55816,128,2,56112:0:0:0:0:
329,192,56112,128,2,56408:0:0:0:0:
109,192,56112,1,2,0:0:0:0:
402,192,56408,1,2,0:0:0:0:
182,192,56408,128,2,56803:0:0:0:0:
402,192,56605,1,2,0:0:0:0:
109,192,56605,128,2,56803:0:0:0:0:
36,192,56803,128,2,57099:0:0:0:0:
475,192,56803,128,2,57395:0:0:0:0:
109,192,57099,128,2,57395:0:0:0:0:
402,192,57099,128,2,57395:0:0:0:0:
182,192,57395,128,2,57987:0:0:0:0:
329,192,57395,128,2,57987:0:0:0:0:
402,192,57987,1,2,0:0:0:0:
109,192,58086,1,2,0:0:0:3:
329,192,58184,1,2,0:0:0:0:
182,192,58283,1,2,0:0:0:0:
36,192,58382,128,2,58678:0:0:0:0:
475,192,58382,128,2,58678:0:0:0:0:
256,192,58382,1,2,0:0:0:0:
109,192,58678,128,2,58974:0:0:0:6:
402,192,58678,128,2,59270:0:0:0:0:
36,192,58974,128,2,59270:0:0:0:0:
475,192,58974,128,2,59270:0:0:0:0:
182,192,59270,128,2,59763:0:0:0:0:
329,192,59270,128,2,59566:0:0:0:0:
402,192,59566,1,2,0:0:0:0:
109,192,59566,128,2,59763:0:0:0:0:
475,192,59763,1,2,0:0:0:0:
36,192,59763,128,2,59961:0:0:0:0:
402,192,59961,1,2,0:0:0:0:
109,192,59961,128,2,60158:0:0:0:0:
329,192,60158,1,2,0:0:0:0:
182,192,60158,128,2,60355:0:0:0:0:
36,192,60355,1,2,0:0:0:0:
475,192,60355,128,2,60553:0:0:0:0:
402,192,60553,1,2,0:0:0:0:
109,192,60553,128,2,60849:0:0:0:0:
256,192,60849,128,2,61145:0:0:0:0:
36,192,60849,1,2,0:0:0:0:
182,192,61145,1,2,0:0:0:0:
329,192,61145,128,2,61539:0:0:0:0:
109,192,61342,1,2,0:0:0:0:
402,192,61342,128,2,61540:0:0:0:0:
36,192,61539,1,2,0:0:0:0:
475,192,61539,128,2,61835:0:0:0:0:
109,192,61836,128,2,62428:0:0:0:0:
402,192,61836,1,2,0:0:0:0:
182,192,62132,128,2,62428:0:0:0:0:
329,192,62132,1,2,0:0:0:0:
256,192,62428,128,2,62724:0:0:0:0:
402,192,62428,1,2,0:0:0:0:
329,192,62724,128,2,63118:0:0:0:0:
182,192,62724,1,2,0:0:0:0:
402,192,62921,128,2,63119:0:0:0:0:
109,192,62921,1,2,0:0:0:0:
475,192,63118,128,2,63907:0:0:0:0:
36,192,63118,1,2,0:0:0:0:
182,192,63414,1,2,0:0:0:0:
109,192,63711,1,2,0:0:0:0:
36,192,63908,1,2,0:0:0:0:
256,192,64105,1,2,0:0:0:1:
182,192,64303,1,2,0:0:0:6:
352,192,64303,1,2,0:0:0:0:
109,192,64500,1,2,0:0:0:0:
402,192,64500,1,2,0:0:0:0:
475,192,64697,1,4,0:0:0:0:
36,192,64697,1,4,0:0:0:0:
256,192,64697,1,4,0:0:0:0:
182,192,64993,1,2,0:0:0:6:
329,192,64993,1,2,0:0:0:0:
109,192,65289,1,2,0:0:0:0:
402,192,65289,1,2,0:0:0:0:
182,192,65586,1,2,0:0:0:0:
329,192,65586,1,2,0:0:0:0:
402,192,65882,1,2,0:0:0:6:
109,192,65882,1,2,0:0:0:0:
475,192,66079,1,2,0:0:0:0:
36,192,66079,1,2,0:0:0:0:
329,192,66276,1,2,0:0:0:3:
182,192,66276,1,2,0:0:0:0:
109,192,66572,1,2,0:0:0:6:
402,192,66572,1,2,0:0:0:0:
256,192,66572,1,2,0:0:0:0:
109,192,66868,128,2,67164:0:0:0:0:
256,192,66868,128,2,67164:0:0:0:0:
402,192,66868,128,2,67164:0:0:0:0:
329,192,67164,1,2,0:0:0:0:
36,192,67164,1,2,0:0:0:6:
109,192,67461,1,2,0:0:0:6:
402,192,67461,1,2,0:0:0:0:
182,192,67658,1,2,0:0:0:0:
475,192,67658,1,2,0:0:0:0:
36,192,67855,1,2,0:0:0:3:
329,192,67954,1,2,0:0:0:0:
109,192,68053,1,2,0:0:0:0:
402,192,68151,1,2,0:0:0:0:
182,192,68250,1,2,0:0:0:0:
475,192,68349,1,2,0:0:0:0:
402,192,68447,1,2,0:0:0:0:
329,192,68546,1,2,0:0:0:0:
256,192,68645,1,2,0:0:0:0:
182,192,68743,1,2,0:0:0:0:
109,192,68842,1,2,0:0:0:0:
36,192,68941,1,2,0:0:0:0:
182,192,69039,1,2,0:0:0:0:
329,192,69138,1,2,0:0:0:0:
109,192,69237,1,2,0:0:0:0:
402,192,69336,1,2,0:0:0:0:
36,192,69434,1,2,0:0:0:0:
475,192,69533,1,2,0:0:0:0:
109,192,69632,1,2,0:0:0:0:
402,192,69730,1,2,0:0:0:0:
182,192,69829,1,2,0:0:0:0:
329,192,69928,1,2,0:0:0:0:
256,192,70026,1,2,0:0:0:0:
402,192,70421,1,2,0:0:0:0:
182,192,70520,1,2,0:0:0:0:
329,192,70618,1,2,0:0:0:0:
109,192,70717,1,2,0:0:0:0:
402,192,70816,1,2,0:0:0:0:
182,192,70914,1,2,0:0:0:0:
256,192,71013,1,4,0:0:0:0:
475,192,71013,1,4,0:0:0:0:
36,192,71013,1,4,0:0:0:0:
402,192,71309,1,2,0:0:0:0:
109,192,71309,1,2,0:0:0:0:
182,192,71605,1,2,0:0:0:0:
475,192,71605,1,2,0:0:0:0:
36,192,71605,1,2,0:0:0:0:
329,192,71605,1,2,0:0:0:0:
182,192,71901,128,2,72197:0:0:0:0:
475,192,71901,128,2,72197:0:0:0:0:
329,192,71901,1,2,0:0:0:0:
36,192,71901,1,2,0:0:0:0:
329,192,72197,1,2,0:0:0:0:
36,192,72197,1,2,0:0:0:0:
402,192,72395,1,2,0:0:0:0:
109,192,72395,1,2,0:0:0:0:
475,192,72592,1,4,0:0:0:0:
182,192,72592,1,4,0:0:0:0:
256,192,72592,1,4,0:0:0:0:
402,192,72888,1,2,0:0:0:0:
109,192,72888,1,2,0:0:0:0:
182,192,73184,1,2,0:0:0:0:
475,192,73184,1,2,0:0:0:0:
329,192,73184,1,2,0:0:0:0:
36,192,73184,1,2,0:0:0:0:
182,192,73480,128,2,73777:0:0:0:0:
475,192,73480,128,2,73777:0:0:0:0:
329,192,73480,1,2,0:0:0:0:
36,192,73480,1,2,0:0:0:0:
36,192,73776,1,2,0:0:0:0:
329,192,73776,1,2,0:0:0:0:
109,192,73974,1,2,0:0:0:0:
402,192,73974,1,2,0:0:0:0:
182,192,74171,1,4,0:0:0:0:
475,192,74171,1,4,0:0:0:0:
256,192,74171,1,4,0:0:0:0:
36,192,74467,1,2,0:0:0:0:
329,192,74467,1,2,0:0:0:0:
475,192,74763,128,2,75059:0:0:0:0:
182,192,74763,128,2,75059:0:0:0:0:
329,192,74763,1,2,0:0:0:0:
36,192,74763,1,2,0:0:0:0:
329,192,75059,128,2,75355:0:0:0:0:
36,192,75059,128,2,75355:0:0:0:0:
475,192,75355,1,2,0:0:0:0:
182,192,75355,1,2,0:0:0:0:
402,192,75553,1,2,0:0:0:0:
109,192,75553,1,2,0:0:0:0:
36,192,75750,1,4,0:0:0:0:
329,192,75750,1,4,0:0:0:0:
256,192,75750,1,4,0:0:0:0:
402,192,75947,1,2,0:0:0:0:
109,192,76046,1,2,0:0:0:0:
329,192,76145,1,2,0:0:0:0:
182,192,76243,1,2,0:0:0:0:
256,192,76342,1,2,0:0:0:0:
475,192,76441,1,2,0:0:0:0:
182,192,76539,1,2,0:0:0:0:
402,192,76605,1,2,0:0:0:0:
109,192,76671,1,2,0:0:0:0:
329,192,76737,1,2,0:0:0:0:
36,192,76803,1,2,0:0:0:0:
402,192,76934,1,2,0:0:0:0:
329,192,77033,1,2,0:0:0:0:
256,192,77132,1,2,0:0:0:0:
182,192,77230,1,2,0:0:0:0:
109,192,77329,1,2,0:0:0:0:
256,192,77526,128,0,77921:0:0:0:0:
402,192,77526,128,0,77921:0:0:0:0:
109,192,77526,128,0,77921:0:0:0:0:
182,192,77921,128,0,78118:0:0:0:0:
475,192,77921,1,0,0:0:0:0:
329,192,78118,128,0,78316:0:0:0:0:
36,192,78118,128,0,78316:0:0:0:0:
475,192,78316,128,0,78513:0:0:0:0:
182,192,78316,1,0,0:0:0:0:
329,192,78513,128,0,78711:0:0:0:0:
36,192,78513,128,0,78711:0:0:0:0:
109,192,78711,128,0,78908:0:0:0:0:
402,192,78711,1,0,0:0:0:0:
182,192,78908,1,2,0:0:0:0:
475,192,78908,1,2,0:0:0:0:
109,192,79105,128,0,79500:0:0:0:0:
256,192,79105,128,0,79500:0:0:0:0:
402,192,79105,128,0,79500:0:0:0:0:
475,192,79500,1,8,0:0:0:0:
36,192,79500,1,8,0:0:0:0:
182,192,79697,1,8,0:0:0:0:
329,192,79697,1,8,0:0:0:0:
109,192,79895,1,8,0:0:0:0:
402,192,79895,1,8,0:0:0:0:
182,192,80092,1,8,0:0:0:0:
329,192,80092,1,8,0:0:0:0:
109,192,80289,1,8,0:0:0:0:
402,192,80289,1,8,0:0:0:0:
475,192,80487,1,8,0:0:0:0:
36,192,80487,1,8,0:0:0:0:
402,192,80684,128,0,81079:0:0:0:0:
256,192,80684,128,0,81079:0:0:0:0:
109,192,80684,128,0,81079:0:0:0:0:
329,192,81079,128,0,81276:0:0:0:0:
182,192,81079,128,0,81276:0:0:0:0:
402,192,81276,128,0,81474:0:0:0:0:
109,192,81276,1,0,0:0:0:0:
329,192,81474,128,0,81671:0:0:0:0:
182,192,81474,128,0,81671:0:0:0:0:
109,192,81671,128,0,81868:0:0:0:0:
402,192,81671,1,0,0:0:0:0:
475,192,81868,128,0,82066:0:0:0:0:
36,192,81868,1,0,0:0:0:0:
256,192,82066,1,2,0:2:0:0:
109,192,82263,128,0,82658:0:0:0:0:
402,192,82263,128,0,82658:0:0:0:0:
329,192,82658,1,0,0:0:0:0:
182,192,82658,128,0,82855:0:0:0:0:
402,192,82855,1,0,0:0:0:0:
109,192,82855,128,0,83053:0:0:0:0:
475,192,83053,1,0,0:0:0:0:
182,192,83053,128,0,83250:0:0:0:0:
329,192,83250,1,0,0:0:0:0:
109,192,83250,128,0,83447:0:0:0:0:
402,192,83349,1,0,0:0:0:0:
329,192,83447,1,0,0:0:0:0:
36,192,83447,128,0,83645:0:0:0:0:
402,192,83546,1,0,0:0:0:0:
475,192,83645,1,4,0:0:0:0:
256,192,83842,1,2,0:0:0:6:
36,192,83941,1,2,0:0:0:6:
329,192,84039,1,2,0:0:0:6:
109,192,84138,1,2,0:0:0:6:
402,192,84237,1,2,0:0:0:6:
182,192,84336,1,2,0:0:0:6:
475,192,84434,1,2,0:0:0:0:
475,192,84632,1,2,0:0:0:6:
402,192,84730,1,2,0:0:0:6:
329,192,84829,1,2,0:0:0:6:
256,192,84928,1,2,0:0:0:6:
182,192,85026,1,2,0:0:0:0:
109,192,85125,1,2,0:0:0:0:
36,192,85224,1,4,0:0:0:0:
475,192,85224,1,4,0:0:0:0:
329,192,85224,1,4,0:0:0:0:
256,192,85421,1,2,0:0:0:6:
475,192,85520,1,2,0:0:0:6:
182,192,85618,1,2,0:0:0:6:
402,192,85717,1,2,0:0:0:6:
109,192,85816,1,2,0:0:0:6:
329,192,85914,1,2,0:0:0:6:
36,192,86013,1,2,0:0:0:0:
36,192,86211,1,2,0:0:0:6:
109,192,86309,1,2,0:0:0:6:
182,192,86408,1,2,0:0:0:6:
256,192,86507,1,2,0:0:0:6:
329,192,86605,1,2,0:0:0:0:
402,192,86704,1,2,0:0:0:0:
475,192,86803,1,4,0:0:0:0:
36,192,86803,1,4,0:0:0:0:
182,192,86803,1,4,0:0:0:0:
109,192,87000,1,2,0:0:0:0:
256,192,87099,1,2,0:0:0:0:
182,192,87197,1,2,0:0:0:0:
329,192,87296,1,2,0:0:0:0:
256,192,87395,1,2,0:0:0:0:
402,192,87493,1,2,0:0:0:0:
36,192,87592,1,4,0:0:0:0:
475,192,87592,1,4,0:0:0:0:
182,192,87592,1,4,0:0:0:0:
402,192,87789,1,2,0:0:0:0:
256,192,87888,1,2,0:0:0:0:
329,192,87986,1,2,0:0:0:0:
182,192,88085,1,2,0:0:0:0:
256,192,88184,1,2,0:0:0:0:
109,192,88282,1,2,0:0:0:0:
182,192,88382,128,4,88875:0:0:0:1:
475,192,88382,128,4,88875:0:0:0:1:
36,192,88382,128,4,88875:0:0:0:1:
329,192,88382,128,4,88875:0:0:0:0:
402,192,89171,128,2,89763:0:0:0:0:
109,192,89171,128,2,89763:0:0:0:0:
256,192,89171,128,0,89763:0:0:0:0:
329,192,89961,128,2,90553:0:0:0:0:
182,192,89961,128,2,90553:0:0:0:0:
256,192,90750,5,2,0:0:0:0:
109,192,91145,1,2,0:0:0:0:
402,192,91145,1,2,0:0:0:0:
32,192,91539,5,0,0:0:0:0:
480,192,91539,1,0,0:0:0:0:
288,192,91539,1,0,0:0:0:0:
36,192,92132,1,2,0:0:0:0:
256,192,92132,1,2,0:0:0:0:
109,192,92230,1,2,0:0:0:0:
329,192,92230,1,2,0:0:0:0:
402,192,92329,1,2,0:0:0:0:
182,192,92329,1,2,0:0:0:0:
256,192,92526,1,2,0:0:0:0:
475,192,92526,1,2,0:0:0:0:
402,192,92724,1,2,0:0:0:0:
182,192,92724,1,2,0:0:0:0:
109,192,92921,1,2,0:0:0:0:
329,192,92921,1,2,0:0:0:0:
256,192,93118,1,2,0:0:0:0:
36,192,93118,1,2,0:0:0:0:
475,192,93711,1,2,0:0:0:0:
182,192,93711,1,2,0:0:0:0:
182,192,93909,1,2,0:0:0:0:
475,192,93909,1,2,0:0:0:0:
402,192,94106,1,2,0:0:0:0:
109,192,94106,1,2,0:0:0:0:
329,192,94303,1,2,0:0:0:0:
36,192,94303,1,2,0:0:0:0:
109,192,94500,1,2,0:0:0:0:
402,192,94500,1,2,0:0:0:0:
475,192,94697,1,2,0:0:0:0:
182,192,94697,1,2,0:0:0:0:
36,192,95289,1,2,0:0:0:0:
329,192,95289,1,2,0:0:0:0:
402,192,95388,1,2,0:0:0:0:
109,192,95388,1,2,0:0:0:0:
475,192,95487,1,2,0:0:0:0:
182,192,95487,1,2,0:0:0:0:
109,192,95684,1,2,0:0:0:0:
402,192,95684,1,2,0:0:0:0:
36,192,95882,1,2,0:0:0:0:
329,192,95882,1,2,0:0:0:0:
182,192,96079,128,2,96277:0:0:0:0:
475,192,96079,128,2,96277:0:0:0:0:
109,192,96276,128,2,96473:0:0:0:0:
402,192,96276,128,2,96473:0:0:0:0:
109,192,96868,128,2,97065:0:0:0:0:
402,192,96868,128,2,97065:0:0:0:0:
182,192,97066,128,2,97263:0:0:0:0:
475,192,97066,128,2,97263:0:0:0:0:
329,192,97263,1,8,0:0:0:0:
402,192,97362,1,0,0:0:0:2:
329,192,97461,1,8,0:0:0:0:
402,192,97559,1,0,0:0:0:2:
329,192,97658,1,8,0:0:0:0:
402,192,97757,1,0,0:0:0:2:
475,192,97855,1,4,0:0:0:0:
36,192,97855,1,4,0:0:0:0:
182,192,98053,1,0,0:0:0:2:
109,192,98151,1,0,0:0:0:2:
182,192,98250,1,8,0:0:0:0:
109,192,98349,1,0,0:0:0:2:
182,192,98447,1,0,0:0:0:2:
109,192,98546,1,0,0:0:0:2:
36,192,98645,1,0,0:0:0:0:
475,192,98645,1,0,0:0:0:0:
402,192,98842,1,0,0:0:0:2:
182,192,98941,1,0,0:0:0:2:
329,192,99039,1,8,0:0:0:0:
109,192,99138,1,0,0:0:0:2:
402,192,99237,1,8,0:0:0:0:
182,192,99336,1,0,0:0:0:2:
329,192,99434,1,4,0:0:0:0:
109,192,99434,1,4,0:0:0:0:
36,192,99632,1,0,0:0:0:2:
109,192,99730,1,0,0:0:0:2:
182,192,99829,1,8,0:0:0:0:
475,192,99928,1,0,0:0:0:2:
402,192,100026,1,0,0:0:0:2:
329,192,100125,1,0,0:0:0:2:
109,192,100224,1,0,0:0:0:0:
256,192,100224,1,0,0:0:0:0:
36,192,100421,1,0,0:0:0:2:
109,192,100520,1,0,0:0:0:2:
182,192,100618,1,8,0:0:0:0:
256,192,100717,1,0,0:0:0:2:
329,192,100816,1,8,0:0:0:0:
402,192,100914,1,0,0:0:0:2:
480,192,101013,1,4,0:0:0:0:
182,192,101013,1,4,0:0:0:0:
475,192,101211,1,8,0:0:0:0:
402,192,101309,1,0,0:0:0:2:
329,192,101408,1,8,0:0:0:0:
256,192,101507,1,0,0:0:0:2:
182,192,101605,1,8,0:0:0:0:
109,192,101704,1,0,0:0:0:2:
329,192,101803,1,0,0:0:0:0:
32,192,101803,1,0,0:0:0:0:
402,192,102000,1,8,0:0:0:0:
96,192,102099,1,0,0:0:0:2:
329,192,102197,1,8,0:0:0:0:
182,192,102296,1,0,0:0:0:2:
402,192,102395,1,8,0:0:0:0:
109,192,102493,1,0,0:0:0:2:
32,192,102592,1,4,0:0:0:0:
480,192,102592,1,4,0:0:0:0:
402,192,102789,1,2,0:0:0:0:
109,192,102888,1,2,0:0:0:0:
475,192,102987,1,2,0:0:0:0:
36,192,103086,1,2,0:0:0:0:
402,192,103184,1,2,0:0:0:0:
109,192,103283,1,2,0:0:0:0:
182,192,103382,128,2,103777:0:0:0:0:
329,192,103382,128,2,103777:0:0:0:0:
109,192,103776,1,2,0:0:0:0:
402,192,103776,1,2,0:0:0:0:
480,192,104171,1,4,0:0:0:0:
32,192,104171,1,4,0:0:0:0:
182,192,104171,1,4,0:0:0:0:
329,192,104171,1,4,0:0:0:0:
109,192,104368,1,2,0:0:0:0:
402,192,104467,1,2,0:0:0:0:
182,192,104566,1,2,0:0:0:0:
329,192,104664,1,2,0:0:0:0:
109,192,104763,1,2,0:0:0:0:
402,192,104862,1,2,0:0:0:0:
36,192,104961,1,2,0:0:0:0:
109,192,105059,1,2,0:0:0:0:
182,192,105158,1,2,0:0:0:0:
256,192,105257,1,2,0:0:0:0:
475,192,105355,1,2,0:0:0:0:
402,192,105454,1,2,0:0:0:0:
329,192,105553,1,2,0:0:0:0:
36,192,105651,1,2,0:0:0:0:
402,192,105750,1,2,0:0:0:0:
109,192,105849,1,2,0:0:0:0:
475,192,105947,1,2,0:0:0:0:
182,192,106046,1,2,0:0:0:0:
402,192,106145,1,2,0:0:0:0:
109,192,106243,1,2,0:0:0:0:
329,192,106342,1,2,0:0:0:0:
36,192,106441,1,2,0:0:0:0:
256,192,106539,1,2,0:0:0:0:
109,192,106638,1,2,0:0:0:0:
182,192,106737,1,2,0:0:0:0:
256,192,106836,1,2,0:0:0:0:
329,192,106934,1,2,0:0:0:0:
402,192,107033,1,2,0:0:0:0:
182,192,107132,1,2,0:0:0:0:
475,192,107230,1,2,0:0:0:0:
109,192,107329,1,2,0:0:0:0:
402,192,107428,1,2,0:0:0:0:
36,192,107526,1,2,0:0:0:0:
329,192,107625,1,2,0:0:0:0:
109,192,107724,1,2,0:0:0:0:
402,192,107822,1,2,0:0:0:0:
182,192,107921,1,2,0:0:0:0:
475,192,108020,1,2,0:0:0:0:
256,192,108118,1,2,0:0:0:0:
329,192,108217,1,2,0:0:0:0:
402,192,108316,1,2,0:0:0:0:
475,192,108414,1,2,0:0:0:0:
256,192,108513,1,2,0:0:0:0:
182,192,108612,1,2,0:0:0:0:
109,192,108711,1,2,0:0:0:0:
36,192,108809,1,2,0:0:0:0:
329,192,108908,1,2,0:0:0:0:
256,192,109007,1,2,0:0:0:0:
182,192,109105,1,2,0:0:0:0:
329,192,109204,1,2,0:0:0:0:
256,192,109303,1,2,0:0:0:0:
182,192,109401,1,2,0:0:0:0:
402,192,109500,1,2,0:0:0:0:
109,192,109599,1,2,0:0:0:0:
329,192,109697,1,2,0:0:0:0:
256,192,109796,1,2,0:0:0:0:
182,192,109895,1,2,0:0:0:0:
402,192,109993,1,2,0:0:0:0:
109,192,110092,1,2,0:0:0:0:
402,192,110191,1,2,0:0:0:0:
109,192,110289,1,2,0:0:0:0:
402,192,110388,1,2,0:0:0:0:
36,192,110487,1,4,0:0:0:0:
475,192,110487,1,4,0:0:0:0:
329,192,110487,1,4,0:0:0:0:
256,192,110684,1,2,0:0:0:0:
182,192,110783,1,2,0:0:0:0:
109,192,110882,1,2,0:0:0:0:
36,192,110980,1,2,0:0:0:0:
182,192,111079,1,2,0:0:0:0:
329,192,111178,1,2,0:0:0:0:
475,192,111276,1,2,0:0:0:0:
402,192,111375,1,2,0:0:0:0:
329,192,111474,1,2,0:0:0:0:
256,192,111572,1,2,0:0:0:0:
36,192,111671,1,2,0:0:0:0:
109,192,111770,1,2,0:0:0:0:
182,192,111868,1,2,0:0:0:0:
256,192,111967,1,0,0:0:0:0:
36,192,112066,1,4,0:0:0:0:
475,192,112066,1,4,0:0:0:0:
182,192,112066,1,4,0:0:0:0:
402,192,112164,1,2,0:0:0:0:
329,192,112263,1,2,0:0:0:0:
36,192,112362,1,2,0:0:0:0:
109,192,112461,1,2,0:0:0:0:
182,192,112559,1,2,0:0:0:0:
475,192,112658,1,2,0:0:0:0:
109,192,112757,1,2,0:0:0:0:
402,192,112855,1,2,0:0:0:0:
182,192,112954,1,2,0:0:0:0:
329,192,113053,1,2,0:0:0:0:
109,192,113151,1,2,0:0:0:0:
402,192,113250,1,2,0:0:0:0:
256,192,113349,1,2,0:0:0:0:
475,192,113447,1,2,0:0:0:0:
402,192,113546,1,2,0:0:0:0:
36,192,113645,1,4,0:0:0:0:
329,192,113645,1,4,0:0:0:0:
109,192,113743,1,2,0:0:0:0:
402,192,113743,1,2,0:0:0:0:
182,192,113842,1,2,0:0:0:0:
475,192,113842,1,2,0:0:0:0:
36,192,113941,1,2,0:0:0:0:
329,192,113941,1,2,0:0:0:0:
109,192,114039,1,2,0:0:0:0:
402,192,114039,1,2,0:0:0:0:
182,192,114138,1,2,0:0:0:0:
475,192,114138,1,2,0:0:0:0:
329,192,114237,1,2,0:0:0:0:
36,192,114237,1,2,0:0:0:0:
402,192,114336,1,2,0:0:0:0:
109,192,114336,1,2,0:0:0:0:
475,192,114434,1,4,0:0:0:0:
182,192,114434,1,4,0:0:0:0:
36,192,114533,1,2,0:0:0:0:
329,192,114533,1,2,0:0:0:0:
109,192,114632,1,2,0:0:0:0:
402,192,114632,1,2,0:0:0:0:
182,192,114730,1,2,0:0:0:0:
475,192,114730,1,2,0:0:0:0:
36,192,114829,1,2,0:0:0:0:
329,192,114829,1,2,0:0:0:0:
36,192,115026,1,2,0:0:0:0:
329,192,115026,1,2,0:0:0:0:
256,192,115224,1,2,0:0:0:0:
329,192,115289,1,2,0:0:0:0:
402,192,115355,1,2,0:0:0:0:
475,192,115421,1,2,0:0:0:0:
182,192,115520,1,2,0:0:0:0:
109,192,115618,1,2,0:0:0:0:
36,192,115717,1,2,0:0:0:0:
182,192,115816,1,2,0:0:0:0:
329,192,115914,1,2,0:0:0:0:
475,192,116013,1,2,0:0:0:0:
402,192,116079,1,2,0:0:0:0:
329,192,116145,1,2,0:0:0:0:
256,192,116211,1,2,0:0:0:0:
182,192,116276,1,2,0:0:0:0:
109,192,116342,1,2,0:0:0:0:
36,192,116408,1,2,0:0:0:0:
109,192,116474,1,2,0:0:0:0:
182,192,116539,1,2,0:0:0:0:
256,192,116605,1,2,0:0:0:0:
329,192,116671,1,2,0:0:0:0:
402,192,116737,1,2,0:0:0:0:
480,192,116803,1,4,0:0:0:0:
32,192,116803,1,4,0:0:0:0:
182,192,116803,1,4,0:0:0:0:
36,192,117099,1,2,0:0:0:0:
329,192,117197,1,2,0:0:0:0:
109,192,117296,1,2,0:0:0:0:
402,192,117395,1,2,0:0:0:0:
182,192,117493,1,2,0:0:0:0:
475,192,117592,1,2,0:0:0:0:
36,192,117789,1,2,0:0:0:0:
109,192,117888,1,2,0:0:0:0:
182,192,117987,1,2,0:0:0:0:
475,192,118086,1,2,0:0:0:0:
109,192,118184,1,2,0:0:0:0:
402,192,118283,1,2,0:0:0:0:
36,192,118382,1,2,0:0:0:0:
329,192,118480,1,2,0:0:0:0:
109,192,118579,1,2,0:0:0:0:
402,192,118678,1,2,0:0:0:0:
182,192,118776,1,2,0:0:0:0:
475,192,118875,1,2,0:0:0:0:
256,192,118974,1,2,0:0:0:0:
182,192,119072,1,2,0:0:0:0:
475,192,119171,1,2,0:0:0:0:
402,192,119237,1,2,0:0:0:0:
329,192,119303,1,2,0:0:0:0:
256,192,119368,1,2,0:0:0:0:
475,192,119467,1,2,0:0:0:0:
182,192,119566,1,2,0:0:0:0:
402,192,119664,1,2,0:0:0:0:
109,192,119763,1,2,0:0:0:0:
329,192,119862,1,2,0:0:0:0:
36,192,119961,1,2,0:0:0:0:
402,192,120059,1,2,0:0:0:0:
109,192,120158,1,2,0:0:0:0:
475,192,120257,1,2,0:0:0:0:
182,192,120355,1,2,0:0:0:0:
402,192,120454,1,2,0:0:0:0:
109,192,120553,1,2,0:0:0:0:
329,192,120651,1,2,0:0:0:0:
182,192,120750,1,2,0:0:0:0:
256,192,120816,1,2,0:0:0:0:
329,192,120882,1,2,0:0:0:0:
256,192,120947,1,2,0:0:0:0:
182,192,121013,1,2,0:0:0:0:
109,192,121079,1,2,0:0:0:0:
36,192,121145,1,2,0:0:0:0:
329,192,121243,1,2,0:0:0:0:
109,192,121342,1,2,0:0:0:0:
402,192,121441,1,2,0:0:0:0:
182,192,121539,1,2,0:0:0:0:
475,192,121638,1,2,0:0:0:0:
109,192,121737,1,2,0:0:0:0:
402,192,121836,1,2,0:0:0:0:
36,192,121934,1,2,0:0:0:0:
256,192,122033,1,2,0:0:0:0:
475,192,122132,1,2,0:0:0:0:
36,192,122461,1,2,0:0:0:0:
109,192,122526,1,2,0:0:0:0:
182,192,122592,1,2,0:0:0:0:
256,192,122658,1,2,0:0:0:0:
329,192,122724,1,2,0:0:0:0:
402,192,122789,1,2,0:0:0:0:
475,192,122855,1,2,0:0:0:0:
256,192,122921,1,2,0:0:0:0:
329,192,122987,1,2,0:0:0:0:
402,192,123053,1,2,0:0:0:0:
32,192,123118,5,4,0:0:0:0:
480,192,123118,1,4,0:0:0:0:
256,192,123118,1,4,0:0:0:0:
182,192,123217,1,2,0:0:0:0:
329,192,123316,1,2,0:0:0:0:
109,192,123414,1,2,0:0:0:0:
256,192,123513,1,2,0:0:0:0:
402,192,123612,1,2,0:0:0:0:
182,192,123711,1,2,0:0:0:0:
329,192,123809,1,2,0:0:0:0:
182,192,123908,1,2,0:0:0:0:
329,192,124007,1,2,0:0:0:0:
402,192,124105,1,2,0:0:0:0:
475,192,124204,1,2,0:0:0:0:
182,192,124303,1,2,0:0:0:0:
109,192,124368,1,2,0:0:0:0:
36,192,124434,1,2,0:0:0:0:
329,192,124500,1,2,0:0:0:0:
402,192,124599,1,2,0:0:0:0:
475,192,124697,1,4,0:0:0:0:
256,192,124697,1,4,0:0:0:0:
36,192,124796,1,2,0:0:0:0:
329,192,124895,1,2,0:0:0:0:
109,192,124993,1,2,0:0:0:0:
402,192,125092,1,2,0:0:0:0:
182,192,125191,1,2,0:0:0:0:
475,192,125289,1,2,0:0:0:0:
402,192,125355,1,2,0:0:0:0:
329,192,125421,1,2,0:0:0:0:
256,192,125487,1,2,0:0:0:0:
36,192,125586,1,2,0:0:0:0:
329,192,125684,1,2,0:0:0:0:
109,192,125783,1,2,0:0:0:0:
402,192,125882,1,2,0:0:0:0:
182,192,125980,1,2,0:0:0:0:
329,192,126079,1,2,0:0:0:0:
109,192,126178,1,2,0:0:0:0:
475,192,126276,1,4,0:0:0:0:
36,192,126276,1,4,0:0:0:0:
402,192,126342,1,2,0:0:0:0:
329,192,126408,1,2,0:0:0:0:
36,192,126474,1,2,0:0:0:0:
109,192,126539,1,2,0:0:0:0:
182,192,126605,1,2,0:0:0:0:
475,192,126671,1,2,0:0:0:0:
402,192,126737,1,2,0:0:0:0:
329,192,126803,1,2,0:0:0:0:
36,192,126868,1,2,0:0:0:0:
109,192,126934,1,2,0:0:0:0:
182,192,127000,1,2,0:0:0:0:
475,192,127066,1,4,0:0:0:0:
402,192,127132,1,0,0:0:0:0:
329,192,127197,1,0,0:0:0:0:
36,192,127263,1,0,0:0:0:0:
109,192,127329,1,0,0:0:0:0:
182,192,127395,1,0,0:0:0:0:
475,192,127461,1,0,0:0:0:0:
402,192,127526,1,0,0:0:0:0:
329,192,127592,1,0,0:0:0:0:
256,192,127658,1,0,0:0:0:0:
182,192,127724,1,0,0:0:0:0:
109,192,127789,1,0,0:0:0:0:
36,192,127855,1,4,0:0:0:0:
402,192,127855,1,4,0:0:0:0:
329,192,127855,1,4,0:0:0:0:
182,192,128053,128,2,128250:0:0:0:0:
475,192,128053,1,2,0:0:0:0:
109,192,128250,128,2,128448:0:0:0:0:
402,192,128250,1,2,0:0:0:0:
36,192,128447,128,2,128644:0:0:0:0:
329,192,128447,1,2,0:0:0:0:
109,192,128645,128,2,128842:0:0:0:0:
402,192,128645,1,2,0:0:0:0:
182,192,128842,1,2,0:0:0:0:
475,192,128842,128,2,129040:0:0:0:0:
109,192,129039,1,2,0:0:0:0:
402,192,129039,128,2,129236:0:0:0:0:
36,192,129237,1,2,0:0:0:0:
329,192,129237,128,2,129434:0:0:0:0:
182,192,129434,128,2,129829:0:0:0:0:
475,192,129434,128,0,129829:1:0:0:0:
329,192,130026,1,2,0:0:0:0:
36,192,130026,1,2,0:0:0:0:
402,192,130125,1,2,0:0:0:0:
109,192,130125,1,2,0:0:0:0:
475,192,130224,1,2,0:0:0:0:
182,192,130224,1,2,0:0:0:0:
402,192,130421,1,2,0:0:0:0:
109,192,130421,1,2,0:0:0:0:
329,192,130618,1,2,0:0:0:0:
36,192,130618,1,2,0:0:0:0:
109,192,130816,1,2,0:0:0:0:
402,192,130816,1,2,0:0:0:0:
475,192,131013,128,2,131408:0:0:0:0:
182,192,131013,128,2,131408:0:0:0:0:
329,192,131408,1,0,1:0:0:0:
36,192,131408,1,0,1:0:0:0:
182,192,131803,1,8,0:0:0:0:
256,192,131901,1,2,0:0:0:0:
329,192,132000,1,8,0:0:0:0:
402,192,132197,1,8,0:0:0:0:
109,192,132197,1,8,0:0:0:0:
256,192,132592,1,2,0:0:0:0:
36,192,132592,1,0,1:0:0:0:
475,192,132592,1,0,1:0:0:0:
480,192,133184,1,2,0:0:0:0:
182,192,133184,1,2,0:0:0:0:
109,192,133283,1,2,0:0:0:0:
402,192,133283,1,2,0:0:0:0:
36,192,133382,1,2,0:0:0:0:
329,192,133382,1,2,0:0:0:0:
109,192,133579,1,2,0:0:0:0:
402,192,133579,1,2,0:0:0:0:
160,192,133776,1,2,0:0:0:0:
475,192,133776,1,2,0:0:0:0:
402,192,133974,1,2,0:0:0:0:
109,192,133974,1,2,0:0:0:0:
36,192,134171,1,2,0:0:0:0:
329,192,134171,1,2,0:0:0:0:
416,192,134566,1,2,0:0:0:0:
96,192,134566,1,2,0:0:0:0:
256,192,134566,1,0,0:0:0:0:
475,192,135158,1,2,0:0:0:0:
36,192,135158,1,2,0:0:0:0:
402,192,135355,1,2,0:0:0:0:
109,192,135454,1,2,0:0:0:0:
329,192,135553,1,2,0:0:0:0:
182,192,135651,1,2,0:0:0:0:
480,192,135750,1,4,0:0:0:0:
32,192,135750,1,4,0:0:0:0:
256,192,135750,1,4,0:0:0:0:
329,192,136342,1,2,0:0:0:0:
36,192,136342,1,2,0:0:0:0:
402,192,136441,1,2,0:0:0:0:
109,192,136441,1,2,0:0:0:0:
475,192,136539,1,2,0:0:0:0:
182,192,136539,1,2,0:0:0:0:
402,192,136737,1,2,0:0:0:0:
109,192,136737,1,2,0:0:0:0:
182,192,136934,1,2,0:0:0:0:
475,192,136934,1,2,0:0:0:0:
109,192,137132,1,2,0:0:0:0:
402,192,137132,1,2,0:0:0:0:
475,192,137329,1,4,0:0:0:0:
182,192,137329,1,4,0:0:0:0:
402,192,137526,1,2,0:0:0:0:
109,192,137526,1,2,0:0:0:0:
36,192,137724,1,2,0:0:0:0:
329,192,137724,1,2,0:0:0:0:
109,192,137921,1,2,0:0:0:0:
402,192,137921,1,2,0:0:0:0:
475,192,138118,1,2,0:0:0:0:
182,192,138118,1,2,0:0:0:0:
475,192,138513,1,2,0:0:0:0:
182,192,138513,1,2,0:0:0:0:
402,192,138645,1,2,0:0:0:0:
109,192,138645,1,2,0:0:0:0:
329,192,138776,1,2,0:0:0:0:
36,192,138776,1,2,0:0:0:0:
182,192,138908,128,0,139105:0:0:0:0:
475,192,138908,128,0,139105:0:0:0:0:
36,192,139303,1,2,0:0:0:0:
329,192,139303,1,2,0:0:0:0:
109,192,139434,1,2,0:0:0:0:
402,192,139434,1,2,0:0:0:0:
475,192,139566,1,2,0:0:0:0:
182,192,139566,1,2,0:0:0:0:
329,192,139697,128,0,139894:0:0:0:0:
36,192,139697,128,0,139894:0:0:0:0:
475,192,140092,1,2,0:0:0:0:
182,192,140092,1,2,0:0:0:0:
402,192,140224,1,2,0:0:0:0:
109,192,140224,1,2,0:0:0:0:
329,192,140355,1,2,0:0:0:0:
36,192,140355,1,2,0:0:0:0:
475,192,140487,1,4,0:0:0:0:
182,192,140487,1,4,0:0:0:0:
402,192,140618,1,2,0:0:0:0:
329,192,140750,1,2,0:0:0:0:
256,192,140882,1,2,0:0:0:0:
182,192,141013,1,2,0:0:0:0:
109,192,141145,1,2,0:0:0:0:
36,192,141276,1,2,0:0:0:0:
109,192,141408,1,2,0:0:0:0:
182,192,141539,1,2,0:0:0:0:
256,192,141671,1,2,0:0:0:0:
329,192,141803,1,2,0:0:0:0:
402,192,141934,1,2,0:0:0:0:
480,192,142066,1,4,0:0:0:0:
109,192,142066,1,4,0:0:0:0:
182,192,142197,1,2,0:0:0:0:
256,192,142329,1,2,0:0:0:0:
182,192,142461,1,2,0:0:0:0:
256,192,142592,1,2,0:0:0:0:
329,192,142724,1,2,0:0:0:0:
402,192,142855,1,2,0:0:0:0:
182,192,142987,1,2,0:0:0:0:
475,192,143118,1,2,0:0:0:0:
109,192,143250,1,2,0:0:0:0:
402,192,143382,1,2,0:0:0:0:
36,192,143497,1,2,0:0:0:0:
329,192,143645,1,2,0:0:0:0:
182,192,143776,1,2,0:0:0:0:
402,192,143908,1,2,0:0:0:0:
109,192,144039,1,2,0:0:0:0:
475,192,144171,1,2,0:0:0:0:
36,192,144303,1,2,0:0:0:0:
402,192,144434,1,2,0:0:0:0:
109,192,144566,1,2,0:0:0:0:
329,192,144697,1,2,0:0:0:0:
182,192,144829,1,2,0:0:0:0:
475,192,144977,1,2,0:0:0:0:
256,192,145125,1,2,0:0:0:0:
36,192,145224,1,2,0:0:0:0:
329,192,145322,1,2,0:0:0:0:
109,192,145421,1,2,0:0:0:0:
402,192,145520,1,2,0:0:0:0:
182,192,145618,1,2,0:0:0:0:
475,192,145750,1,2,0:0:0:0:
36,192,145882,1,2,0:0:0:0:
109,192,146013,1,2,0:0:0:0:
182,192,146145,1,2,0:0:0:0:
256,192,146276,1,2,0:0:0:0:
329,192,146408,1,2,0:0:0:0:
402,192,146539,1,2,0:0:0:0:
475,192,146671,1,2,0:0:0:0:
36,192,146803,1,2,0:0:0:0:
109,192,146901,1,2,0:0:0:0:
182,192,147000,1,2,0:0:0:0:
256,192,147099,1,2,0:0:0:0:
475,192,147247,1,2,0:0:0:0:
402,192,147296,1,2,0:0:0:0:
329,192,147345,1,2,0:0:0:0:
475,192,147395,1,2,0:0:0:0:
402,192,147444,1,2,0:0:0:0:
329,192,147493,1,2,0:0:0:0:
109,192,147543,1,2,0:0:0:0:
182,192,147592,1,2,0:0:0:0:
36,192,147789,1,2,0:0:0:0:
475,192,147789,1,2,0:0:0:0:
329,192,147987,1,2,0:0:0:0:
182,192,147987,1,2,0:0:0:0:
109,192,148086,1,2,0:0:0:0:
402,192,148086,1,2,0:0:0:0:
182,192,148184,1,2,0:0:0:0:
329,192,148184,1,2,0:0:0:0:
109,192,148283,1,2,0:0:0:0:
402,192,148283,1,2,0:0:0:0:
475,192,148382,1,4,0:0:0:0:
36,192,148382,1,4,0:0:0:0:
256,192,148382,1,4,0:0:0:0:
402,192,148645,1,2,0:0:0:0:
109,192,148645,1,2,0:0:0:0:
182,192,148908,1,2,0:0:0:0:
329,192,148908,1,2,0:0:0:0:
475,192,149270,128,2,149368:0:0:0:0:
36,192,149270,128,2,149368:0:0:0:0:
109,192,149368,128,2,149566:0:0:0:0:
402,192,149368,128,2,149566:0:0:0:0:
329,192,149566,128,2,149763:0:0:0:0:
182,192,149566,128,2,149763:0:0:0:0:
109,192,149763,128,2,149961:0:0:0:0:
402,192,149763,128,2,149961:0:0:0:0:
32,192,149961,5,4,0:0:0:0:
480,192,149961,1,4,0:0:0:0:
256,192,149961,1,4,0:0:0:0:
109,192,150224,1,2,0:0:0:0:
402,192,150224,1,2,0:0:0:0:
182,192,150487,1,2,0:0:0:0:
329,192,150487,1,2,0:0:0:0:
329,192,150849,1,2,0:0:0:0:
36,192,150849,1,2,0:0:0:0:
109,192,150947,1,2,0:0:0:0:
402,192,150947,1,2,0:0:0:0:
109,192,151145,1,2,0:0:0:0:
402,192,151145,1,2,0:0:0:0:
475,192,151342,1,2,0:0:0:0:
182,192,151342,1,2,0:0:0:0:
402,192,151539,1,4,0:0:0:0:
109,192,151539,1,4,0:0:0:0:
475,192,151638,1,2,0:0:0:0:
36,192,151737,1,2,0:0:0:0:
402,192,151836,1,2,0:0:0:0:
109,192,151934,1,2,0:0:0:0:
329,192,152033,1,2,0:0:0:0:
182,192,152132,1,2,0:0:0:0:
256,192,152230,1,2,0:0:0:0:
36,192,152329,1,4,0:0:0:0:
475,192,152329,1,4,0:0:0:0:
109,192,152724,1,2,0:0:0:0:
402,192,152724,1,2,0:0:0:0:
36,192,153118,128,4,153710:0:0:0:0:
475,192,153118,128,4,153710:0:0:0:0:
182,192,153118,1,4,0:0:0:0:
329,192,153118,1,4,0:0:0:0:
109,192,153711,1,2,0:0:0:0:
402,192,153711,1,2,0:0:0:0:
182,192,153809,1,2,0:0:0:0:
329,192,153809,1,2,0:0:0:0:
256,192,153908,1,2,0:0:0:0:
402,192,154697,128,0,155881:0:0:0:0:
36,192,154697,1,0,0:0:0:0:
109,192,154796,1,0,0:0:0:0:
182,192,154895,1,0,0:0:0:0:
36,192,155092,1,0,0:0:0:0:
109,192,155191,1,0,0:0:0:0:
182,192,155289,1,0,0:0:0:0:
36,192,155487,1,0,0:0:0:0:
109,192,155586,1,0,0:0:0:0:
182,192,155684,1,0,0:0:0:0:
329,192,155882,128,0,156277:0:0:0:0:
182,192,155882,1,0,0:0:0:0:
109,192,155980,1,0,0:0:0:0:
36,192,156079,1,0,0:0:0:0:
402,192,156276,128,0,157065:0:0:0:0:
36,192,156276,1,0,0:0:0:0:
109,192,156375,1,0,0:0:0:0:
182,192,156474,1,0,0:0:0:0:
36,192,156671,1,0,0:0:0:0:
109,192,156770,1,0,0:0:0:0:
182,192,156868,1,0,0:0:0:0:
475,192,157066,128,0,157855:0:0:0:0:
182,192,157066,1,0,0:0:0:0:
109,192,157164,1,0,0:0:0:0:
36,192,157263,1,0,0:0:0:0:
182,192,157461,1,0,0:0:0:0:
109,192,157559,1,0,0:0:0:0:
36,192,157658,1,0,0:0:0:0:
402,192,157855,128,0,159040:0:0:0:0:
36,192,157855,1,0,0:0:0:0:
109,192,157954,1,0,0:0:0:0:
182,192,158053,1,0,0:0:0:0:
36,192,158250,1,0,0:0:0:0:
182,192,158349,1,0,0:0:0:0:
109,192,158546,1,0,0:0:0:0:
36,192,158645,1,0,0:0:0:0:
109,192,158743,1,0,0:0:0:0:
182,192,158842,1,0,0:0:0:0:
36,192,159039,128,0,159236:0:0:0:0:
329,192,159039,128,0,159236:0:0:0:0:
402,192,159237,128,0,159434:0:0:0:0:
109,192,159237,128,0,159434:0:0:0:0:
475,192,159434,128,0,160619:0:0:0:0:
182,192,159434,128,0,160619:0:0:0:0:
329,192,159829,128,0,160027:0:0:0:0:
109,192,160224,128,0,160421:0:0:0:0:
36,192,160618,1,2,0:0:0:0:
329,192,160618,1,2,0:0:0:0:
96,192,160717,1,2,0:0:0:0:
416,192,160717,1,2,0:0:0:0:
182,192,160816,1,2,0:0:0:0:
329,192,160816,1,2,0:0:0:0:
109,192,160914,1,2,0:0:0:0:
402,192,160914,1,2,0:0:0:0:
475,192,161013,128,4,163776:0:0:0:0:
36,192,161013,128,4,163776:0:0:0:0:
256,192,161013,1,4,0:0:0:0:
256,192,161408,1,8,0:0:0:0:
182,192,161507,1,0,0:0:0:2:
329,192,161507,1,0,0:0:0:2:
109,192,161605,1,0,0:0:0:2:
402,192,161605,1,2,0:0:0:0:
402,192,161803,1,8,0:0:0:0:
109,192,161803,1,0,0:0:0:2:
182,192,161901,1,0,0:0:0:2:
329,192,161901,1,0,0:0:0:2:
256,192,162000,1,2,0:0:0:0:
256,192,162197,1,8,0:0:0:0:
182,192,162296,1,0,0:0:0:2:
329,192,162296,1,0,0:0:0:2:
402,192,162395,1,2,0:0:0:0:
109,192,162395,1,0,0:0:0:2:
402,192,162592,1,8,0:0:0:0:
109,192,162592,1,0,0:0:0:2:
329,192,162691,1,0,0:0:0:2:
182,192,162691,1,0,0:0:0:2:
256,192,162789,1,2,0:0:0:0:
256,192,162987,1,8,0:0:0:0:
182,192,163086,1,0,0:0:0:2:
329,192,163086,1,0,0:0:0:2:
402,192,163184,1,2,0:0:0:0:
109,192,163184,1,0,0:0:0:2:
182,192,163382,1,0,0:0:0:2:
329,192,163382,1,8,0:0:0:0:
256,192,163480,1,2,0:0:0:0:
109,192,163776,128,2,163974:0:0:0:0:
402,192,163776,128,2,163974:0:0:0:0:
182,192,163974,128,2,164171:0:0:0:0:
329,192,163974,128,2,164171:0:0:0:0:
475,192,164171,1,8,0:0:0:0:
256,192,164171,128,2,165750:0:0:0:0:
402,192,164270,1,0,0:0:0:0:
329,192,164368,1,2,0:0:0:0:
36,192,164566,1,8,0:0:0:0:
109,192,164664,1,2,0:0:0:0:
475,192,164862,1,8,0:0:0:0:
402,192,164961,1,2,0:0:0:0:
36,192,165158,1,8,0:0:0:0:
109,192,165257,1,2,0:0:0:0:
475,192,165454,1,8,0:0:0:0:
36,192,165553,1,2,0:0:0:0:
402,192,165651,1,2,0:0:0:0:
182,192,165750,128,2,166539:0:0:0:0:
329,192,165750,128,8,166539:0:0:0:0:
475,192,165947,128,2,166144:0:0:0:0:
36,192,165947,128,2,166144:0:0:0:0:
36,192,166342,128,2,166540:0:0:0:0:
475,192,166342,128,2,166539:0:0:0:0:
256,192,166638,1,2,0:0:0:0:
109,192,166737,1,2,0:0:0:0:
402,192,166836,1,2,0:0:0:0:
182,192,166934,1,2,0:0:0:0:
329,192,167033,1,2,0:0:0:0:
109,192,167132,1,2,0:0:0:0:
402,192,167230,1,2,0:0:0:0:
256,192,167329,128,4,170092:0:0:0:0:
475,192,167329,1,4,0:0:0:0:
36,192,167329,1,4,0:0:0:0:
402,192,167724,128,2,167921:0:0:0:0:
36,192,167724,1,8,0:0:0:0:
109,192,168118,128,2,168315:0:0:0:0:
475,192,168118,1,8,0:0:0:0:
402,192,168513,128,2,168711:0:0:0:0:
36,192,168513,1,8,0:0:0:0:
109,192,168908,128,2,169105:0:0:0:0:
475,192,168908,1,8,0:0:0:0:
402,192,169303,128,2,169500:0:0:0:0:
36,192,169303,1,8,0:0:0:0:
109,192,169697,128,2,169894:0:0:0:0:
475,192,169697,1,8,0:0:0:0:
329,192,170092,128,2,170290:0:0:0:0:
36,192,170092,1,2,0:0:0:0:
402,192,170289,128,2,170486:0:0:0:0:
475,192,170487,128,2,170882:0:0:0:0:
182,192,170487,128,2,170684:0:0:0:0:
402,192,170882,128,2,171277:0:0:0:0:
109,192,170882,128,2,171079:0:0:0:0:
329,192,171276,128,2,171670:0:0:0:0:
36,192,171276,128,2,171473:0:0:0:0:
182,192,171671,128,2,172066:0:0:0:0:
475,192,171671,128,2,171869:0:0:0:0:
109,192,172066,128,2,172461:0:0:0:0:
402,192,172066,128,2,172263:0:0:0:0:
36,192,172461,128,2,172855:0:0:0:0:
329,192,172461,128,2,172658:0:0:0:0:
475,192,172855,1,2,0:0:0:0:
402,192,172954,1,2,0:0:0:0:
36,192,173053,1,2,0:0:0:0:
109,192,173151,1,2,0:0:0:0:
402,192,173250,1,2,0:0:0:0:
329,192,173349,1,2,0:0:0:0:
182,192,173447,1,2,0:0:0:0:
256,192,173546,1,2,0:0:0:0:
475,192,173645,128,4,178382:0:0:0:0:
36,192,173645,128,4,178382:0:0:0:0:
329,192,173645,1,8,0:0:0:0:
182,192,173842,1,8,0:0:0:0:
109,192,174039,1,8,0:0:0:0:
402,192,174039,1,8,0:0:0:0:
402,192,174237,1,0,0:0:0:0:
109,192,174237,1,0,0:0:0:0:
329,192,174434,1,8,0:0:0:0:
182,192,174533,1,8,0:0:0:0:
109,192,174829,1,8,0:0:0:0:
402,192,174829,1,8,0:0:0:0:
109,192,175026,1,0,0:0:0:0:
402,192,175026,1,0,0:0:0:0:
329,192,175224,1,8,0:0:0:0:
182,192,175421,1,8,0:0:0:0:
402,192,175618,1,8,0:0:0:0:
109,192,175618,1,8,0:0:0:0:
402,192,175816,1,0,0:0:0:0:
109,192,175816,1,0,0:0:0:0:
329,192,176013,1,8,0:0:0:0:
182,192,176112,1,8,0:0:0:0:
109,192,176408,1,8,0:0:0:0:
402,192,176408,1,8,0:0:0:0:
109,192,176605,1,0,0:0:0:0:
402,192,176605,1,0,0:0:0:0:
256,192,176803,1,8,0:0:0:0:
329,192,176901,1,8,0:0:0:0:
182,192,177000,1,8,0:0:0:0:
402,192,177099,1,8,0:0:0:0:
109,192,177197,1,8,0:0:0:0:
329,192,177296,1,8,0:0:0:0:
182,192,177395,1,8,0:0:0:0:
256,192,177493,1,8,0:0:0:0:
109,192,177592,1,4,0:0:0:0:
402,192,177592,1,4,0:0:0:0:
182,192,177691,1,8,0:0:0:0:
256,192,177789,1,8,0:0:0:0:
329,192,177888,1,8,0:0:0:0:
182,192,177987,1,8,0:0:0:0:
256,192,178086,1,8,0:0:0:0:
329,192,178184,1,8,0:0:0:0:
182,192,178283,1,8,0:0:0:0:
109,192,178382,1,4,0:0:0:0:
402,192,178382,1,4,0:0:0:0:
329,192,178480,1,8,0:0:0:0:
182,192,178579,1,8,0:0:0:0:
475,192,178678,1,2,0:0:0:0:
402,192,178776,1,2,0:0:0:0:
329,192,178875,1,2,0:0:0:0:
256,192,178974,1,2,0:0:0:0:
182,192,179072,1,2,0:0:0:0:
109,192,179171,1,2,0:0:0:0:
36,192,179270,1,2,0:0:0:0:
109,192,179368,1,2,0:0:0:0:
182,192,179467,1,2,0:0:0:0:
256,192,179566,1,2,0:0:0:0:
329,192,179664,1,2,0:0:0:0:
402,192,179763,1,2,0:0:0:0:
475,192,179862,1,2,0:0:0:0:
109,192,179961,128,4,186375:0:0:0:0:
402,192,179961,128,4,186375:0:0:0:0:
256,192,179961,128,4,186375:0:0:0:0:
182,192,179961,1,4,0:0:0:0:
329,192,179961,1,4,0:0:0:0:
