osu file format v13

[General]
AudioFilename: L Ascension Act2 by ICE.mp3
AudioLeadIn: 0
PreviewTime: 64162
Countdown: 0
SampleSet: Soft
StackLeniency: 0.9
Mode: 3
LetterboxInBreaks: 0
SpecialStyle: 0
WidescreenStoryboard: 1

[Editor]
Bookmarks: 1693,20032,39580,51774,64258,83999,91695,97598,103791,117001,117049,128130,142211,154791
DistanceSpacing: 0.8
BeatDivisor: 3
GridSize: 8
TimelineZoom: 1.5

[Metadata]
Title:L2 - Ascension : Act 2 (Liberation)
TitleUnicode:L青 - Liberation
Artist:Ice
ArtistUnicode:Ice
Creator:LordRaika
Version:Descension (7K Easy)
Source:Cytus
Tags:Iceloki Instrumental Piano Violin CoroQuetz Okoratu Fullerene- lZenxl CLSW Expew Kurokami DjNightmare
BeatmapID:449505
BeatmapSetID:123760

[Difficulty]
HPDrainRate:6
CircleSize:7
OverallDifficulty:6.5
ApproachRate:5
SliderMultiplier:2.99999990463257
SliderTickRate:4

[Events]
//Background and Video events
0,0,"L2.jpg",0,0
//Break Periods
//Storyboard Layer 0 (Background)
//Storyboard Layer 1 (Fail)
//Storyboard Layer 2 (Pass)
//Storyboard Layer 3 (Foreground)
Sprite,Foreground,Centre,"Resource\My Icon Easy.png",320,240 M,0,-38,,617,403 S,0,-38,,0.7678357 F,0,-38,179961,1 F,0,179961,187165,1,0
Sprite,Foreground,Centre,"Resource\lZenxl.png",320,240 F,0,179961,180355,0,1 M,0,180355,,567,258 S,0,180355,,0.7789087 F,0,180355,186671,1 F,0,186671,187165,1,0
Sprite,Foreground,Centre,"Resource\LordRaika.png",320,240 F,0,179961,180355,0,1 M,0,180355,,573,179 S,0,180355,,0.7789087 F,0,180355,186671,1 F,0,186671,187165,1,0
//Storyboard Sound Samples
Sample,1540,0,"C#4S_Db4S.wav",50
Sample,1540,0,"C#3S_Db3S.wav",50
Sample,4697,0,"D#3S_Eb3S.wav",50
Sample,4697,0,"D#4S_Eb4S.wav",50
Sample,6276,0,"E4S.wav",33
Sample,6276,0,"E3S.wav",50
Sample,7855,0,"F3S.wav",50
Sample,8645,0,"G3S.wav",50
Sample,8645,0,"G4S.wav",40
Sample,9434,0,"G#3S_Ab3S.wav",50
Sample,9434,0,"G#4S_Ab4S.wav",40
Sample,12592,0,"F2S.wav",55
Sample,13382,0,"F3S.wav",40
Sample,13382,0,"C4S.wav",40
Sample,13382,0,"D#4S_Eb4S.wav",40
Sample,14171,0,"C#4S_Db4S.wav",50
Sample,14171,0,"A#3S_Bb3S.wav",50
Sample,15750,0,"E4S.wav",40
Sample,17329,0,"F3S.wav",50
Sample,18908,0,"F3S.wav",50
Sample,19895,0,"C5S.wav",50
Sample,20092,0,"F5S.wav",50
Sample,20289,0,"G5S.wav",50
Sample,20487,0,"G#5S_Ab5S.wav",50
Sample,20487,0,"G#4S_Ab4S.wav",40
Sample,20487,0,"F4S.wav",40
Sample,20487,0,"C#4S_Db4S.wav",40
Sample,20882,0,"G5S.wav",50
Sample,21079,0,"F5S.wav",50
Sample,21276,0,"C5S.wav",50
Sample,21671,0,"F5S.wav",50
Sample,22066,0,"F3S.wav",40
Sample,22066,0,"A#3S_Bb3S.wav",40
Sample,22066,0,"C#4S_Db4S.wav",40
Sample,22066,0,"G5S.wav",50
Sample,22461,0,"G#5S_Ab5S.wav",50
Sample,22855,0,"A#5S_Bb5S.wav",50
Sample,23250,0,"C#6S_Db6S.wav",50
Sample,23645,0,"C4S.wav",33
Sample,23645,0,"E4S.wav",33
Sample,23645,0,"C6S.wav",50
Sample,23645,0,"G4S.wav",33
Sample,23645,0,"A#4S_Bb4S.wav",33
Sample,26803,0,"F4S.wav",60

[TimingPoints]
1540,394.736842105263,4,2,0,5,1,0
1540,-125,4,2,0,5,0,0
19896,-111.111111111111,4,2,0,5,0,0
26754,-100,4,1,2,15,0,0
39434,-100,4,1,0,18,0,0
39485,-100,4,1,2,15,0,0
51474,-100,4,1,2,15,0,0
52066,-100,4,1,0,18,0,0
52164,-100,4,2,0,20,0,0
57987,-100,4,1,2,18,0,0
58480,-100,4,2,0,18,0,0
64698,-100,4,1,0,36,0,0
64748,-100,4,2,0,18,0,0
67855,-100,4,1,0,30,0,0
70322,-100,4,2,1,5,0,0
70618,-100,4,1,0,36,0,0
71014,-100,4,1,0,18,0,0
71063,-100,4,2,0,22,0,0
72197,-100,4,1,0,36,0,0
72593,-100,4,1,0,18,0,0
72642,-100,4,2,0,22,0,0
73776,-100,4,1,0,36,0,0
74172,-100,4,1,0,18,0,0
74221,-100,4,1,0,36,0,0
74961,-100,4,1,0,18,0,0
75011,-100,4,1,0,36,0,0
75751,-181.818181818182,4,1,0,18,0,0
75800,-100,4,2,1,5,0,0
77527,-100,4,1,2,20,0,1
78908,-113.636363636364,4,2,1,5,0,1
79007,-106.382978723404,4,2,1,5,0,1
79106,-100,4,1,2,20,0,1
80487,-113.636363636364,4,2,1,5,0,1
80586,-106.382978723404,4,2,1,5,0,1
80684,-100,4,1,2,20,0,1
82066,-113.636363636364,4,2,1,5,0,1
82165,-106.382978723404,4,2,1,5,0,1
82263,-100,4,1,2,20,0,1
83646,-113.636363636364,4,1,2,20,0,1
83744,-100,4,2,1,5,0,1
86804,-106.382978723404,4,1,0,18,0,1
86843,-100,4,3,0,40,0,1
87592,-106.382978723404,4,1,0,18,0,1
87632,-100,4,3,0,40,0,1
88382,-106.382978723404,4,1,0,22,0,0
88422,-100,4,2,1,5,0,0
88678,-117.647058823529,4,2,1,5,0,0
88975,-111.111111111111,4,2,1,5,0,0
89172,-105.263157894737,4,1,0,14,0,0
89961,-100,4,1,0,18,0,0
91540,-125,4,1,0,26,0,0
91615,-100,4,2,0,18,0,0
97263,-100,4,3,0,36,0,1
97856,-100,4,1,0,20,0,1
97906,-100,4,3,0,36,0,1
98646,-100,4,1,0,20,0,1
98695,-100,4,3,0,36,0,1
99435,-100,4,1,0,20,0,1
99485,-100,4,3,0,36,0,1
100225,-100,4,1,0,20,0,1
100274,-100,4,3,0,36,0,1
101014,-100,4,1,0,20,0,1
101064,-100,4,3,0,36,0,1
101804,-100,4,1,0,20,0,1
101853,-100,4,3,0,36,0,1
102593,-100,4,1,0,20,0,1
102642,-100,4,2,0,11,0,1
104172,-133.333333333333,4,1,0,36,0,1
104221,-100,4,2,0,5,0,1
110488,-133.333333333333,4,1,0,18,0,1
110537,-100,4,2,0,5,0,1
112067,-133.333333333333,4,1,0,18,0,1
112116,-100,4,2,0,5,0,1
113646,-133.333333333333,4,1,0,18,0,1
113695,-100,4,2,0,5,0,1
114435,-133.333333333333,4,1,0,36,0,1
114485,-100,4,2,0,5,0,1
115224,-100,4,1,0,18,0,1
116804,-100,4,1,0,18,0,1
116853,-100,4,2,0,5,0,1
122724,-100,4,1,0,30,0,1
123118,-100,4,1,0,18,0,1
123169,-100,4,1,2,18,0,1
124303,-100,4,1,0,30,0,1
124698,-100,4,1,0,18,0,1
124748,-100,4,1,2,30,0,1
126276,-100,4,1,0,12,0,1
127856,-100,4,1,0,18,0,1
127900,-100,4,2,1,5,0,1
129435,-117.647058823529,4,1,0,18,0,0
129533,-100,4,1,0,25,0,0
135751,-100,4,1,0,36,0,0
135800,-100,4,1,0,25,0,0
137330,-100,4,1,0,18,0,0
137379,-100,4,1,0,25,0,0
138909,-100,4,1,0,18,0,0
138958,-100,4,1,0,25,0,0
139700,-100,4,1,0,18,0,0
139748,-100,4,1,0,25,0,0
140487,-100,4,1,0,18,0,0
140536,-100,4,2,1,5,0,0
142066,-100,4,1,0,36,0,0
142116,-100,4,1,0,25,0,0
146803,-100,4,2,0,5,0,0
147987,-100,4,1,0,25,0,0
148383,-100,4,1,0,18,0,0
148432,-100,4,2,0,10,0,0
149961,-100,4,1,0,36,0,0
150011,-100,4,2,0,10,0,0
151539,-100,4,1,0,36,0,0
151639,-100,4,2,0,10,0,0
152330,-100,4,1,0,36,0,0
152373,-100,4,2,0,10,0,0
153119,-100,4,1,0,12,0,0
153520,-100,4,2,0,22,0,0
154698,-100,4,2,0,5,0,1
161013,-100,4,1,0,5,0,1
161211,-100,4,2,0,25,0,1
173646,-100,4,1,2,50,0,1
176803,-100,4,1,0,36,0,1
176901,-100,4,3,0,30,0,1
177592,-100,4,1,0,36,0,1
177691,-100,4,3,0,30,0,1
178382,-100,4,1,0,36,0,1
178480,-100,4,3,0,30,0,1
178724,-100,4,2,0,5,0,1
179961,-100,4,1,0,30,0,0

[Colours]
Combo1 : 3,111,241
Combo2 : 2,21,253

[HitObjects]
182,192,1540,5,2,0:0:0:55:C#5S_Db5S.wav
96,192,1934,1,0,0:0:0:55:C5S.wav
160,192,2329,1,0,0:0:0:55:C#5S_Db5S.wav
224,192,2724,1,0,0:0:0:60:D#5S_Eb5S.wav
329,192,3118,1,0,0:0:0:60:F5S.wav
402,192,3908,1,0,0:0:0:70:G5S.wav
475,192,4303,1,0,0:0:0:70:G#5S_Ab5S.wav
402,192,4697,128,0,5487:0:0:0:75:G5S.wav
36,192,5487,1,0,0:0:0:60:C5S.wav
475,192,6276,1,2,0:0:0:75:C6S.wav
402,192,6671,1,0,0:0:0:70:A#5S_Bb5S.wav
329,192,7066,1,0,0:0:0:70:G#5S_Ab5S.wav
256,192,7460,1,0,0:0:0:70:G5S.wav
36,192,7855,1,2,0:0:0:50:F4S.wav
352,192,7855,128,2,8645:0:0:0:70:G#5S_Ab5S.wav
182,192,8908,1,2,0:0:0:70:G5S.wav
109,192,9171,1,2,0:0:0:70:F5S.wav
36,192,9434,128,2,11013:0:0:0:75:C5S.wav
475,192,11013,1,2,0:0:0:66:A4S_s.wav
352,192,11211,1,2,0:0:0:66:F4S_s.wav
182,192,11408,1,2,0:0:0:66:C4S_s.wav
36,192,11605,1,2,0:0:0:66:A3S_s.wav
475,192,11803,1,2,0:0:0:66:F4S_s.wav
329,192,12000,1,2,0:0:0:66:C4S_s.wav
182,192,12197,1,2,0:0:0:66:A3S_s.wav
36,192,12395,1,2,0:0:0:66:F3S_s.wav
109,192,13382,1,2,0:0:0:70:C5S.wav
182,192,13645,1,0,0:0:0:50:C#5S_Db5S.wav
256,192,13908,1,0,0:0:0:50:D#5S_Eb5S.wav
182,192,14171,1,2,0:0:0:75:C#5S_Db5S.wav
480,192,14566,1,0,0:0:0:75:C6S.wav
402,192,14961,1,0,0:0:0:70:A#5S_Bb5S.wav
352,192,15355,1,0,0:0:0:70:G#5S_Ab5S.wav
352,192,15750,1,2,0:0:0:77:G#5S_Ab5S.wav
36,192,15750,1,2,0:0:0:50:C4S.wav
288,192,16145,1,0,0:0:0:70:G5S.wav
256,192,16803,1,0,0:0:0:70:G5S.wav
352,192,17066,1,0,0:0:0:70:G#5S_Ab5S.wav
402,192,17329,1,2,0:0:0:77:A#5S_Bb5S.wav
96,192,17329,1,2,0:0:0:50:C4S.wav
480,192,17724,1,0,0:0:0:70:C#6S_Db6S.wav
416,192,18118,1,0,0:0:0:70:C6S.wav
36,192,18513,1,0,0:0:0:70:G5S.wav
475,192,18908,1,2,0:0:0:77:A#5S_Bb5S.wav
182,192,18908,1,2,0:0:0:50:C#4S_Db4S.wav
109,192,19303,1,0,0:0:0:70:G#5S_Ab5S.wav
36,192,19895,1,2,0:0:0:50:C6S.wav
182,192,20092,1,2,0:0:0:50:F6S.wav
358,192,20289,1,2,0:0:0:50:G6S.wav
51,192,20487,1,4,1:0:0:0:
480,192,20487,1,2,0:0:0:50:G#6S_Ab6S.wav
358,192,20882,1,2,0:0:0:50:G6S.wav
182,192,21079,1,2,0:0:0:50:F6S.wav
36,192,21276,1,2,0:0:0:50:C6S.wav
109,192,21671,1,0,0:0:0:50:F6S.wav
256,192,21868,1,0,0:0:0:20:soft-hitwhistle.wav
329,192,22066,1,4,1:0:0:0:
182,192,22066,128,2,22461:0:0:0:50:G6S.wav
288,192,22461,128,2,22855:0:0:0:50:G#6S_Ab6S.wav
352,192,22855,128,2,23250:0:0:0:50:A#6S_Bb6S.wav
416,192,23250,128,2,23645:0:0:0:50:C#7S_Db7S.wav
460,192,23645,128,2,24434:0:0:0:50:C7S.wav
51,192,23645,1,4,1:0:0:0:
51,192,24434,1,4,1:0:0:3:
460,192,25224,1,4,1:0:0:6:
51,192,25224,128,2,26803:0:0:0:0:
358,192,26803,1,12,0:0:0:0:
475,192,26803,1,0,0:0:0:60:F5S.wav
153,192,27197,1,8,0:0:0:0:
358,192,27592,1,8,0:0:0:0:
109,192,27987,1,8,0:0:0:0:
402,192,28382,1,8,0:0:0:0:
153,192,28776,1,8,0:0:0:0:
358,192,29171,1,8,0:0:0:0:
109,192,29566,1,8,0:0:0:0:
460,192,29961,1,8,0:0:0:0:
51,192,30355,1,8,0:0:0:0:
402,192,30750,1,8,0:0:0:0:
109,192,31145,1,8,0:0:0:0:
256,192,31539,1,8,0:0:0:0:
402,192,31934,1,8,0:0:0:0:
256,192,32329,1,8,0:0:0:0:
153,192,32724,1,8,0:0:0:0:
256,192,32921,1,8,0:0:0:0:
358,192,33118,1,8,0:0:0:0:
460,192,33513,1,8,0:0:0:0:
51,192,33908,1,8,0:0:0:0:
358,192,34303,1,8,0:0:0:0:
153,192,34698,1,8,0:0:0:0:
460,192,35092,1,8,0:0:0:0:
51,192,35487,1,8,0:0:0:0:
402,192,35882,1,8,0:0:0:0:
256,192,36276,1,8,0:0:0:0:
109,192,36671,1,8,0:0:0:0:
256,192,37066,1,8,0:0:0:0:
329,192,37461,1,8,0:0:0:0:
182,192,37855,1,8,0:0:0:0:
256,192,38250,1,8,0:0:0:0:
329,192,38645,1,8,0:0:0:0:
182,192,38842,1,8,0:0:0:0:
402,192,39039,1,8,0:0:0:0:
109,192,39237,1,8,0:0:0:0:
460,192,39434,1,4,0:0:0:0:
51,192,39434,1,4,0:0:0:0:
358,192,39829,1,8,0:0:0:0:
153,192,40224,1,8,0:0:0:0:
358,192,40618,1,8,0:0:0:0:
109,192,41013,1,8,0:0:0:0:
402,192,41408,1,8,0:0:0:0:
109,192,41803,1,8,0:0:0:0:
402,192,42197,1,8,0:0:0:0:
51,192,42592,1,8,0:0:0:0:
460,192,42987,1,8,0:0:0:0:
51,192,43382,1,8,0:0:0:0:
460,192,43776,1,8,0:0:0:0:
109,192,44171,1,8,0:0:0:0:
256,192,44566,1,8,0:0:0:0:
402,192,44961,1,8,0:0:0:0:
460,192,45355,1,8,0:0:0:0:
256,192,45553,1,8,0:0:0:0:
51,192,45750,1,8,0:0:0:0:
153,192,46145,1,8,0:0:0:0:
256,192,46540,1,8,0:0:0:0:
358,192,46934,1,8,0:0:0:0:
109,192,47329,1,8,0:0:0:0:
402,192,47724,1,8,0:0:0:0:
256,192,48118,1,8,0:0:0:0:
109,192,48513,1,8,0:0:0:0:
475,192,48908,1,8,0:0:0:0:
36,192,49303,1,8,0:0:0:0:
402,192,49697,1,8,0:0:0:0:
109,192,50092,1,8,0:0:0:0:
329,192,50487,1,8,0:0:0:0:
153,192,50882,1,8,0:0:0:0:
256,192,51079,128,2,51474:0:0:0:6:
153,192,51671,1,8,0:0:0:0:
256,192,51868,1,8,0:0:0:0:
358,192,52066,1,4,0:0:0:0:
153,192,52066,1,4,0:0:0:0:
51,192,52362,1,2,0:0:0:0:
460,192,52658,1,2,0:0:0:0:
109,192,52954,1,2,0:0:0:0:
460,192,53250,1,2,0:0:0:0:
358,192,53447,1,2,0:0:0:0:
182,192,53645,1,2,0:0:0:0:
51,192,53941,1,2,0:0:0:0:
460,192,54237,1,2,0:0:0:0:
182,192,54533,1,2,0:0:0:0:
329,192,54829,1,2,0:0:0:0:
402,192,55026,1,2,0:0:0:0:
460,192,55224,1,2,0:0:0:0:
329,192,55520,1,2,0:0:0:0:
153,192,55816,1,2,0:0:0:0:
51,192,56112,1,2,0:0:0:0:
182,192,56408,1,2,0:0:0:0:
329,192,56605,1,2,0:0:0:0:
475,192,56803,1,2,0:0:0:0:
256,192,57099,1,2,0:0:0:0:
36,192,57395,1,2,0:0:0:0:
329,192,57987,1,8,0:0:0:0:
256,192,58185,1,8,0:0:0:0:
182,192,58382,1,8,0:0:0:0:
256,192,58678,1,2,0:0:0:0:
358,192,58974,1,2,0:0:0:0:
402,192,59270,1,2,0:0:0:0:
36,192,59566,1,2,0:0:0:0:
109,192,59763,1,2,0:0:0:0:
182,192,59961,1,2,0:0:0:0:
358,192,60257,1,2,0:0:0:0:
460,192,60553,1,2,0:0:0:0:
51,192,60849,1,2,0:0:0:0:
402,192,61145,1,2,0:0:0:0:
256,192,61342,1,2,0:0:0:0:
109,192,61539,1,2,0:0:0:0:
460,192,61836,1,2,0:0:0:0:
182,192,62132,1,2,0:0:0:0:
51,192,62526,1,2,0:0:0:0:
153,192,62724,1,2,0:0:0:0:
329,192,62921,1,2,0:0:0:0:
475,192,63118,128,2,63711:0:0:0:0:
51,192,64105,1,2,0:0:0:0:
358,192,64303,1,2,0:0:0:0:
153,192,64500,1,2,0:0:0:0:
460,192,64697,1,4,0:0:0:0:
182,192,64993,1,2,0:0:0:0:
475,192,65289,1,2,0:0:0:0:
51,192,65586,1,2,0:0:0:0:
329,192,65882,1,2,0:0:0:0:
402,192,66079,1,2,0:0:0:0:
460,192,66276,1,2,0:0:0:0:
182,192,66572,1,2,0:0:0:0:
182,192,66868,1,2,0:0:0:0:
36,192,67164,1,2,0:0:0:0:
402,192,67461,1,2,0:0:0:0:
329,192,67658,1,2,0:0:0:0:
224,192,67855,128,0,70224:0:0:0:0:
109,192,68250,1,8,0:0:0:0:
402,192,68645,1,0,0:0:0:0:
109,192,69039,1,8,0:0:0:0:
402,192,69434,1,0,0:0:0:0:
109,192,69829,1,8,0:0:0:0:
475,192,70224,1,0,0:0:0:0:
256,192,70619,1,8,0:0:0:0:
256,192,70816,1,8,0:0:0:0:
51,192,71013,1,4,0:0:0:0:
460,192,71013,1,4,0:0:0:0:
358,192,71309,1,2,0:0:0:0:
153,192,71605,1,2,0:0:0:0:
153,192,71902,1,2,0:0:0:0:
256,192,72198,1,8,0:0:0:0:
256,192,72395,1,8,0:0:0:0:
51,192,72592,1,4,0:0:0:0:
460,192,72592,1,4,0:0:0:0:
153,192,72888,1,2,0:0:0:0:
358,192,73184,1,2,0:0:0:0:
358,192,73480,1,2,0:0:0:0:
256,192,73777,1,8,0:0:0:0:
256,192,73974,1,8,0:0:0:0:
109,192,74171,1,4,0:0:0:0:
402,192,74171,1,4,0:0:0:0:
153,192,74368,1,8,0:0:0:0:
256,192,74566,1,8,0:0:0:0:
358,192,74763,1,8,0:0:0:0:
109,192,74961,1,4,0:0:0:0:
402,192,74961,1,4,0:0:0:0:
358,192,75158,1,8,0:0:0:0:
256,192,75355,1,8,0:0:0:0:
153,192,75553,1,8,0:0:0:0:
402,192,75750,1,4,0:0:0:0:
109,192,75750,1,4,0:0:0:0:
51,192,77526,1,4,0:0:0:0:
460,192,77526,1,4,0:0:0:0:
153,192,77921,1,8,0:0:0:0:
358,192,78118,1,8,0:0:0:0:
51,192,78316,1,8,0:0:0:0:
460,192,78513,1,8,0:0:0:0:
256,192,78711,1,8,0:0:0:0:
153,192,79105,1,4,0:0:0:0:
358,192,79105,1,4,0:0:0:0:
51,192,79500,1,8,0:0:0:0:
460,192,79697,1,8,0:0:0:0:
153,192,79895,1,8,0:0:0:0:
358,192,80092,1,8,0:0:0:0:
288,192,80290,1,8,0:0:0:0:
460,192,80684,1,4,0:0:0:0:
51,192,80684,1,4,0:0:0:0:
109,192,81079,1,8,0:0:0:0:
153,192,81276,1,8,0:0:0:0:
256,192,81474,1,8,0:0:0:0:
358,192,81671,1,8,0:0:0:0:
402,192,81868,1,8,0:0:0:0:
51,192,82263,1,4,0:0:0:0:
460,192,82263,1,4,0:0:0:0:
402,192,82658,1,8,0:0:0:0:
358,192,82855,1,8,0:0:0:0:
256,192,83053,1,8,0:0:0:0:
153,192,83250,1,8,0:0:0:0:
109,192,83447,1,8,0:0:0:0:
36,192,83645,1,4,0:0:0:0:
460,192,83645,1,4,0:0:0:0:
402,192,83842,128,0,84434:0:0:0:0:
109,192,84632,128,0,85224:0:0:0:0:
256,192,85224,1,0,0:0:0:0:
460,192,85421,128,0,86013:0:0:0:0:
153,192,86211,128,0,86803:0:0:0:0:
460,192,86803,1,4,0:0:0:0:
51,192,86803,1,4,0:0:0:0:
358,192,87000,1,8,0:0:0:0:
358,192,87197,1,8,0:0:0:0:
358,192,87395,1,8,0:0:0:0:
51,192,87592,1,4,0:0:0:6:
460,192,87592,1,4,0:0:0:0:
153,192,87789,1,8,0:0:0:0:
153,192,87987,1,8,0:0:0:0:
153,192,88184,1,8,0:0:0:0:
460,192,88382,1,4,0:0:0:0:
51,192,88382,1,4,0:0:0:0:
358,192,89171,1,0,0:0:0:0:
153,192,89171,1,0,0:0:0:0:
402,192,89961,1,0,0:0:0:0:
109,192,89961,1,0,0:0:0:0:
36,192,90750,5,0,0:0:0:0:
256,192,91145,1,0,0:0:0:0:
460,192,91539,1,0,0:0:0:0:
51,192,91539,1,0,0:0:0:0:
460,192,92132,1,2,0:0:0:0:
256,192,92329,1,2,0:0:0:0:
402,192,92526,1,2,0:0:0:0:
109,192,92724,1,2,0:0:0:0:
256,192,92921,1,2,0:0:0:0:
36,192,93118,1,2,0:0:0:0:
256,192,93711,1,2,0:0:0:0:
256,192,93908,1,2,0:0:0:0:
460,192,94105,1,2,0:0:0:0:
329,192,94303,1,2,0:0:0:0:
153,192,94500,1,2,0:0:0:0:
51,192,94698,5,2,0:0:0:0:
460,192,95289,1,2,0:0:0:0:
402,192,95388,1,2,0:0:0:0:
329,192,95487,1,2,0:0:0:0:
51,192,95684,1,2,0:0:0:0:
182,192,95882,1,2,0:0:0:0:
475,192,96079,1,2,0:0:0:0:
460,192,96277,1,2,0:0:0:0:
475,192,96868,1,2,0:0:0:0:
460,192,97066,1,2,0:0:0:0:
153,192,97263,1,8,0:0:0:0:
358,192,97461,1,4,0:0:0:0:
153,192,97658,1,8,0:0:0:0:
51,192,97855,1,4,0:0:0:0:
460,192,97855,1,4,0:0:0:0:
402,192,98250,1,8,0:0:0:0:
460,192,98645,1,4,0:0:0:0:
51,192,98645,1,4,0:0:0:0:
256,192,99039,1,8,0:0:0:0:
256,192,99237,1,8,0:0:0:0:
51,192,99434,1,4,0:0:0:0:
460,192,99434,1,4,0:0:0:0:
109,192,99829,1,8,0:0:0:0:
32,192,100224,1,4,0:0:0:0:
460,192,100224,1,4,0:0:0:0:
256,192,100619,1,8,0:0:0:0:
256,192,100816,1,8,0:0:0:0:
402,192,101013,1,4,0:0:0:0:
109,192,101013,1,4,0:0:0:0:
329,192,101211,1,8,0:0:0:0:
256,192,101408,1,4,0:0:0:0:
182,192,101605,1,8,0:0:0:0:
109,192,101803,1,4,0:0:0:0:
402,192,101803,1,4,0:0:0:0:
182,192,102000,1,8,0:0:0:0:
256,192,102198,1,4,0:0:0:0:
329,192,102395,1,8,0:0:0:0:
402,192,102592,1,4,0:0:0:0:
109,192,102592,1,4,0:0:0:0:
475,192,102789,1,2,0:0:0:0:
402,192,102888,1,2,0:0:0:0:
329,192,102987,1,2,0:0:0:0:
256,192,103086,1,2,0:0:0:0:
182,192,103184,1,2,0:0:0:0:
109,192,103283,1,2,0:0:0:0:
36,192,103382,1,2,0:0:0:0:
51,192,103776,128,2,104961:0:0:0:0:
475,192,104171,1,4,0:0:0:0:
109,192,104961,128,2,105355:0:0:0:0:
182,192,105355,128,2,105750:0:0:0:0:
329,192,105750,128,2,106539:0:0:0:0:
460,192,106539,128,2,107329:0:0:0:0:
402,192,107329,128,2,108118:0:0:0:0:
329,192,108118,128,2,108513:0:0:0:0:
153,192,108513,128,2,108908:0:0:0:0:
51,192,108908,128,2,109697:0:0:0:0:
109,192,109697,128,2,110487:0:0:0:0:
256,192,110487,128,4,111276:0:0:0:0:
460,192,110487,1,4,0:0:0:0:
153,192,111276,128,2,111671:0:0:0:0:
109,192,111671,128,2,112066:0:0:0:0:
36,192,112066,128,4,112855:0:0:0:0:
460,192,112066,1,4,0:0:0:0:
329,192,112855,128,2,113250:0:0:0:0:
402,192,113250,128,2,113645:0:0:0:0:
460,192,113645,128,4,115224:0:0:0:0:
51,192,113645,1,4,0:0:0:0:
153,192,114434,1,4,0:0:0:0:
329,192,115224,1,4,0:0:0:0:
51,192,115224,128,4,116803:0:0:0:0:
153,192,116803,128,4,117987:0:0:0:0:
358,192,116803,1,4,0:0:0:0:
256,192,117987,128,2,119171:0:0:0:0:
402,192,119961,128,2,120947:0:0:0:0:
109,192,119961,1,2,0:0:0:0:
51,192,120947,1,2,0:0:0:0:
460,192,120947,128,2,121934:0:0:0:0:
51,192,121934,1,2,0:0:0:0:
256,192,122724,1,8,0:0:0:0:
256,192,122921,1,8,0:0:0:0:
51,192,123118,1,4,0:0:0:0:
460,192,123118,1,4,0:0:0:0:
358,192,123513,1,8,0:0:0:0:
153,192,123908,1,8,0:0:0:0:
256,192,124303,1,8,0:0:0:0:
256,192,124500,1,8,0:0:0:0:
402,192,124697,1,4,0:0:0:0:
109,192,124697,1,4,0:0:0:0:
256,192,125092,1,8,0:0:0:0:
256,192,125487,1,8,0:0:0:0:
256,192,125882,1,8,0:0:0:0:
256,192,126276,128,4,127855:0:0:0:0:
460,192,126276,1,4,0:0:0:0:
51,192,126276,1,4,0:0:0:0:
51,192,127855,1,4,0:0:0:0:
460,192,127855,1,4,0:0:0:0:
153,192,128053,128,0,129434:0:0:0:0:
460,192,129434,1,4,0:0:0:0:
358,192,129434,1,4,0:0:0:0:
51,192,129829,1,8,0:0:0:0:
153,192,130224,1,0,0:0:0:0:
358,192,130421,1,0,0:0:0:0:
256,192,130618,1,8,0:0:0:0:
460,192,131013,1,0,0:0:0:0:
51,192,131408,1,8,0:0:0:0:
153,192,131803,1,0,0:0:0:0:
358,192,132000,1,0,0:0:0:0:
224,192,132197,1,8,0:0:0:0:
460,192,132592,1,0,0:0:0:0:
51,192,132987,1,8,0:0:0:0:
109,192,133382,1,0,0:0:0:0:
402,192,133579,1,0,0:0:0:0:
256,192,133776,1,8,0:0:0:0:
460,192,134171,1,0,0:0:0:0:
51,192,134566,1,8,0:0:0:0:
153,192,134961,1,0,0:0:0:0:
256,192,135355,1,8,0:0:0:0:
256,192,135553,1,8,0:0:0:0:
460,192,135750,1,4,0:0:0:0:
51,192,136145,1,8,0:0:0:0:
109,192,136539,1,0,0:0:0:0:
402,192,136737,1,0,0:0:0:0:
256,192,136934,1,8,0:0:0:0:
460,192,137329,1,4,0:0:0:0:
358,192,137329,1,0,0:0:0:0:
51,192,137724,1,8,0:0:0:0:
153,192,138118,1,0,0:0:0:0:
358,192,138316,1,0,0:0:0:0:
224,192,138513,1,8,0:0:0:0:
256,192,138711,1,8,0:0:0:0:
358,192,138908,1,4,0:0:0:0:
153,192,138908,1,4,0:0:0:0:
256,192,139303,1,8,0:0:0:0:
109,192,139697,1,4,0:0:0:0:
402,192,139697,1,4,0:0:0:0:
256,192,140092,1,8,0:0:0:0:
36,192,140487,1,4,0:0:0:0:
475,192,140487,128,4,142066:0:0:0:0:
51,192,142066,1,4,0:0:0:0:
416,192,142461,1,8,0:0:0:0:
358,192,142855,1,0,0:0:0:0:
153,192,143053,1,0,0:0:0:0:
288,192,143250,1,8,0:0:0:0:
109,192,143645,1,0,0:0:0:0:
460,192,144039,1,8,0:0:0:0:
402,192,144434,1,0,0:0:0:0:
109,192,144632,1,0,0:0:0:0:
288,192,144829,1,8,0:0:0:0:
51,192,145224,1,0,0:0:0:0:
475,192,145618,1,8,0:0:0:0:
358,192,146013,1,0,0:0:0:0:
153,192,146211,1,0,0:0:0:0:
256,192,146408,1,8,0:0:0:0:
109,192,146803,1,2,0:0:0:0:
402,192,146803,128,2,147197:0:0:0:0:
460,192,147197,128,2,147592:0:0:0:0:
51,192,147197,1,2,0:0:0:0:
256,192,147987,1,8,0:0:0:0:
256,192,148184,1,8,0:0:0:0:
460,192,148382,1,4,0:0:0:0:
51,192,148382,1,4,0:0:0:0:
329,192,148645,1,2,0:0:0:0:
182,192,148908,1,2,0:0:0:0:
51,192,149270,128,2,149763:0:0:0:0:
256,192,149961,1,4,0:0:0:0:
475,192,150224,1,2,0:0:0:0:
256,192,150487,1,2,0:0:0:0:
51,192,150849,1,2,0:0:0:0:
358,192,151145,1,2,0:0:0:0:
153,192,151342,1,2,0:0:0:0:
460,192,151540,1,4,0:0:0:0:
36,192,151737,1,2,0:0:0:0:
402,192,151934,1,2,0:0:0:0:
109,192,152132,1,2,0:0:0:0:
256,192,152329,1,4,0:0:0:0:
358,192,152724,1,2,0:0:0:0:
153,192,152724,1,2,0:0:0:0:
460,192,153118,1,4,0:0:0:0:
51,192,153118,1,4,0:0:0:0:
153,192,153711,1,2,0:0:0:0:
256,192,153809,1,2,0:0:0:0:
358,192,153908,1,2,0:0:0:0:
256,192,154697,128,2,155882:0:0:0:0:
51,192,154697,1,2,0:0:0:0:
460,192,154697,1,2,0:0:0:0:
358,192,155882,128,2,156276:0:0:0:0:
153,192,155882,1,2,0:0:0:0:
402,192,156276,128,2,157066:0:0:0:0:
109,192,156276,1,2,0:0:0:0:
358,192,157066,128,2,157855:0:0:0:0:
153,192,157066,1,2,0:0:0:0:
256,192,157855,128,2,159039:0:0:0:0:
51,192,157855,1,2,0:0:0:0:
153,192,159039,1,2,0:0:0:0:
256,192,159237,1,2,0:0:0:0:
358,192,159434,128,2,160618:0:0:0:0:
256,192,160618,128,2,161013:0:0:0:0:
51,192,161013,1,0,0:0:0:0:
460,192,161013,1,0,0:0:0:0:
329,192,161408,1,8,0:0:0:0:
182,192,161803,1,2,0:0:0:0:
402,192,162197,1,8,0:0:0:0:
109,192,162592,1,2,0:0:0:0:
475,192,162987,1,8,0:0:0:0:
36,192,163382,1,2,0:0:0:0:
182,192,163776,1,2,0:0:0:0:
358,192,163974,1,2,0:0:0:0:
460,192,164171,128,2,165750:0:0:0:0:
51,192,164171,1,2,0:0:0:0:
329,192,165750,128,2,166638:0:0:0:0:
153,192,165750,1,2,0:0:0:0:
182,192,166638,128,2,167329:0:0:0:0:
36,192,167329,128,2,170092:0:0:0:0:
475,192,167329,1,2,0:0:0:0:
256,192,167724,1,8,0:0:0:0:
402,192,168118,1,2,0:0:0:0:
256,192,168513,1,8,0:0:0:0:
475,192,168908,1,2,0:0:0:0:
256,192,169303,1,8,0:0:0:0:
402,192,169697,1,2,0:0:0:0:
329,192,170092,1,2,0:0:0:0:
402,192,170289,1,2,0:0:0:0:
460,192,170487,1,2,0:0:0:0:
182,192,170882,1,2,0:0:0:0:
460,192,171276,1,2,0:0:0:0:
109,192,171671,1,2,0:0:0:0:
402,192,172066,1,2,0:0:0:0:
51,192,172461,1,2,0:0:0:0:
256,192,172855,128,2,173645:0:0:0:0:
460,192,173645,1,8,0:0:0:0:
51,192,173645,1,0,0:0:0:0:
153,192,173842,1,0,0:0:0:0:
460,192,174039,1,8,0:0:0:0:
358,192,174434,1,8,0:0:0:0:
109,192,174632,1,0,0:0:0:0:
329,192,174829,1,8,0:0:0:0:
460,192,175224,1,0,0:0:0:0:
153,192,175421,1,0,0:0:0:0:
460,192,175618,1,8,0:0:0:0:
358,192,176013,1,8,0:0:0:0:
182,192,176211,1,0,0:0:0:0:
329,192,176408,1,8,0:0:0:0:
51,192,176803,1,4,0:0:0:0:
460,192,177000,1,8,0:0:0:0:
51,192,177197,1,8,0:0:0:0:
460,192,177395,1,8,0:0:0:0:
109,192,177592,1,4,0:0:0:0:
402,192,177789,1,8,0:0:0:0:
109,192,177987,1,8,0:0:0:0:
402,192,178184,1,8,0:0:0:0:
153,192,178382,1,4,0:0:0:0:
358,192,178579,1,4,0:0:0:0:
256,192,178776,128,2,179960:0:0:0:0:
460,192,179961,1,4,0:0:0:0:
51,192,179961,1,4,0:0:0:0:
