osu file format v13

[General]
AudioFilename: L Ascension Act2 by ICE.mp3
AudioLeadIn: 0
PreviewTime: 64162
Countdown: 0
SampleSet: Soft
StackLeniency: 0.8
Mode: 0
LetterboxInBreaks: 0
WidescreenStoryboard: 1

[Editor]
Bookmarks: 1693,20032,39580,51774,64258,83999,91695,97598,103791,117001,117049,128130,142211,154791
DistanceSpacing: 0.8
BeatDivisor: 3
GridSize: 16
TimelineZoom: 1.1

[Metadata]
Title:L2 - Ascension : Act 2 (Liberation)
TitleUnicode:L青 - Liberation
Artist:Ice
ArtistUnicode:Ice
Creator:LordRaika
Version:Action (Normal)
Source:Cytus
Tags:Iceloki Instrumental Piano Violin CoroQuetz Okoratu Fullerene- lZenxl CLSW Expew Kurokami DjNightmare
BeatmapID:317290
BeatmapSetID:123760

[Difficulty]
HPDrainRate:4.5
CircleSize:3
OverallDifficulty:3.5
ApproachRate:5
SliderMultiplier:1.49999990463257
SliderTickRate:1

[Events]
//Background and Video events
0,0,"L2.jpg",0,0
//Break Periods
2,117003,125076
//Storyboard Layer 0 (Background)
//Storyboard Layer 1 (Fail)
//Storyboard Layer 2 (Pass)
//Storyboard Layer 3 (Foreground)
Sprite,Foreground,Centre,"Resource\My Icon Normal.png",320,240 M,0,-38,,617,403 S,0,-38,,0.7678357 F,0,-38,179961,1 F,0,179961,187165,1,0
Sprite,Foreground,Centre,"Resource\lZenxl.png",320,240 F,0,179961,180355,0,1 M,0,180355,,567,258 S,0,180355,,0.7789087 F,0,180355,186671,1 F,0,186671,187165,1,0
Sprite,Foreground,Centre,"Resource\LordRaika.png",320,240 F,0,179961,180355,0,1 M,0,180355,,573,179 S,0,180355,,0.7789087 F,0,180355,186671,1 F,0,186671,187165,1,0
//Storyboard Sound Samples
Sample,1540,0,"C#4S_Db4S.wav",50
Sample,1540,0,"C#3S_Db3S.wav",50
Sample,4697,0,"D#3S_Eb3S.wav",50
Sample,4697,0,"D#4S_Eb4S.wav",50
Sample,6276,0,"E4S.wav",33
Sample,6276,0,"E3S.wav",50
Sample,7855,0,"F3S.wav",50
Sample,7855,0,"F4S.wav",50
Sample,8645,0,"G3S.wav",50
Sample,8645,0,"G4S.wav",40
Sample,8908,0,"G5S.wav",70
Sample,9171,0,"F5S.wav",70
Sample,9434,0,"G#4S_Ab4S.wav",40
Sample,9434,0,"C5S.wav",75
Sample,9434,0,"G#3S_Ab3S.wav",50
Sample,11013,0,"A4S_s.wav",66
Sample,11211,0,"F4S_s.wav",66
Sample,11408,0,"C4S_s.wav",66
Sample,11605,0,"A3S_s.wav",66
Sample,11803,0,"F4S_s.wav",66
Sample,12000,0,"C4S_s.wav",66
Sample,12197,0,"A3S_s.wav",66
Sample,12395,0,"F3S_s.wav",66
Sample,12592,0,"F2S.wav",55
Sample,13382,0,"C5S.wav",70
Sample,13382,0,"C4S.wav",40
Sample,13382,0,"D#4S_Eb4S.wav",40
Sample,13382,0,"F3S.wav",40
Sample,13645,0,"C#5S_Db5S.wav",50
Sample,13908,0,"D#5S_Eb5S.wav",50
Sample,14171,0,"C#4S_Db4S.wav",50
Sample,14171,0,"A#3S_Bb3S.wav",50
Sample,14171,0,"C#5S_Db5S.wav",75
Sample,14566,0,"C6S.wav",75
Sample,14961,0,"A#5S_Bb5S.wav",70
Sample,15355,0,"G#5S_Ab5S.wav",70
Sample,15750,0,"E4S.wav",40
Sample,15750,0,"C4S.wav",50
Sample,16145,0,"G5S.wav",70
Sample,16145,0,"G5S.wav",70
Sample,16803,0,"G5S.wav",70
Sample,17066,0,"G#5S_Ab5S.wav",70
Sample,17329,0,"C4S.wav",50
Sample,17329,0,"F3S.wav",50
Sample,17329,0,"A#5S_Bb5S.wav",77
Sample,17724,0,"C#6S_Db6S.wav",70
Sample,17724,0,"C#6S_Db6S.wav",70
Sample,18513,0,"G5S.wav",70
Sample,18908,0,"C4S.wav",50
Sample,18908,0,"F3S.wav",50
Sample,19303,0,"G#5S_Ab5S.wav",70
Sample,19303,0,"G#5S_Ab5S.wav",70
Sample,19895,0,"C5S.wav",50
Sample,19895,0,"C6S.wav",50
Sample,20092,0,"F6S.wav",50
Sample,20092,0,"F5S.wav",50
Sample,20289,0,"G5S.wav",50
Sample,20289,0,"G6S.wav",50
Sample,20487,0,"G#4S_Ab4S.wav",40
Sample,20487,0,"G#6S_Ab6S.wav",50
Sample,20487,0,"G#5S_Ab5S.wav",50
Sample,20487,0,"C#4S_Db4S.wav",40
Sample,20487,0,"F4S.wav",40
Sample,20882,0,"G6S.wav",50
Sample,20882,0,"G5S.wav",50
Sample,21079,0,"F6S.wav",50
Sample,21079,0,"F5S.wav",50
Sample,21276,0,"C5S.wav",50
Sample,21276,0,"C6S.wav",50
Sample,21671,0,"F6S.wav",50
Sample,21671,0,"F5S.wav",50
Sample,22066,0,"G6S.wav",50
Sample,22066,0,"G5S.wav",50
Sample,22066,0,"F3S.wav",40
Sample,22066,0,"C#4S_Db4S.wav",40
Sample,22066,0,"A#3S_Bb3S.wav",40
Sample,22461,0,"G#6S_Ab6S.wav",50
Sample,22461,0,"G#5S_Ab5S.wav",50
Sample,22855,0,"A#6S_Bb6S.wav",50
Sample,22855,0,"A#5S_Bb5S.wav",50
Sample,23250,0,"C#7S_Db7S.wav",50
Sample,23250,0,"C#6S_Db6S.wav",50
Sample,23645,0,"C7S.wav",50
Sample,23645,0,"G4S.wav",33
Sample,23645,0,"C6S.wav",50
Sample,23645,0,"A#4S_Bb4S.wav",33
Sample,23645,0,"C4S.wav",33
Sample,23645,0,"E4S.wav",33
Sample,26803,0,"F5S.wav",60
Sample,26803,0,"F4S.wav",60
//Background Colour Transformations
3,100,163,162,255

[TimingPoints]
1540,394.736842105263,4,2,1,5,1,0
1541,-200,4,2,77,6,0,0
11013,-133.333333333333,4,2,77,6,0,0
19697,-133.333333333333,4,2,77,7,0,0
27197,-133.333333333333,4,1,3,30,0,0
38184,-133.333333333333,4,1,0,8,0,0
39434,-133.333333333333,4,1,0,30,0,0
50931,-133.333333333333,4,1,0,8,0,0
52066,-133.333333333333,4,1,0,30,0,0
56408,-133.333333333333,4,1,0,15,0,0
61145,-133.333333333333,4,1,0,30,0,0
67855,-121.951219512195,4,1,0,30,0,0
70026,-133.333333333333,4,1,0,30,0,0
77527,-133.333333333333,4,1,0,30,0,1
88382,-200,4,2,0,5,0,0
89270,-133.333333333333,4,1,0,15,0,0
91539,-133.333333333333,4,1,0,30,0,1
97263,-133.333333333333,4,1,0,25,0,1
104171,-133.333333333333,4,1,0,30,0,0
140487,-133.333333333333,4,1,0,10,0,0
142461,-133.333333333333,4,1,0,30,0,0
154698,-113.636363636364,4,1,0,22,0,1
179960,-250,4,2,1,5,0,0

[Colours]
Combo1 : 9,228,247
Combo2 : 217,0,217
Combo3 : 1,153,243
Combo4 : 255,0,0

[HitObjects]
256,208,1540,5,2,0:0:0:55:C#5S_Db5S.wav
184,152,1934,1,0,0:0:0:55:C5S.wav
256,96,2329,1,0,0:0:0:55:C#5S_Db5S.wav
338,54,2724,1,0,0:0:0:60:D#5S_Eb5S.wav
426,54,3118,1,0,0:0:0:60:F5S.wav
408,232,3908,5,0,0:0:0:70:G5S.wav
456,304,4303,1,0,0:0:0:70:G#5S_Ab5S.wav
376,336,4697,1,2,0:0:0:75:G5S.wav
192,336,5487,1,0,0:0:0:60:C5S.wav
120,168,6276,5,2,0:0:0:75:C6S.wav
176,96,6671,1,0,0:0:0:70:A#5S_Bb5S.wav
256,48,7066,1,0,0:0:0:70:G#5S_Ab5S.wav
328,104,7461,1,0,0:0:0:70:G5S.wav
384,176,7855,1,2,0:0:0:70:G#5S_Ab5S.wav
144,176,8908,6,0,P|192:160|241:181,1,99.9999936421713,0|0,0:0|0:0,0:0:0:0:
140,224,11013,6,0,P|200:272|256:208,1,168.749995708466,0|0,0:0|0:0,0:0:0:0:
268,174,11803,2,0,P|323:120|384:168,1,168.749995708466,0|0,0:0|0:0,0:0:0:0:
96,120,13382,6,0,P|25:191|107:281,2,224.999994277954,0|0|0,0:0|0:0|0:0,0:0:0:0:
256,192,15750,1,0,0:0:0:77:G#5S_Ab5S.wav
488,144,16803,6,0,P|537:200|468:226,1,149.999996185303,0|0,0:0|0:0,0:0:0:0:
312,192,18118,1,0,0:0:0:70:C6S.wav
128,192,18908,5,0,0:0:0:77:A#5S_Bb5S.wav
304,336,19895,6,0,B|256:304|256:304|296:256|296:256|256:224|256:224,1,168.749995708466,0|0,0:0|0:0,0:0:0:0:
216,152,20882,2,0,B|168:184|168:184|120:152|120:152|120:104|168:80|216:72,1,224.999994277954,0|0,0:0|0:0,0:0:0:0:
256,16,22066,5,4,0:0:0:0:
296,112,22461,6,0,B|344:80|344:80|392:112|392:112|392:160|344:184|296:192,1,224.999994277954,0|0,0:0|0:0,0:0:0:0:
256,248,23645,5,4,0:0:0:0:
256,72,24434,5,4,0:0:0:0:
256,192,25224,12,4,26803,0:0:0:0:
312,224,27197,5,8,0:0:0:0:
400,216,27592,1,0,0:0:0:0:
424,128,27987,1,8,0:0:0:0:
344,80,28382,6,0,P|278:109|258:169,1,112.499997138977,0|8,0:0|0:0,0:0:0:0:
344,168,29171,1,0,0:0:0:0:
336,256,29566,1,8,0:0:0:0:
248,280,29961,6,0,P|182:251|168:193,1,112.499997138977,0|8,0:0|0:0,0:0:0:0:
256,192,30750,1,0,0:0:0:0:
184,136,31145,1,8,0:0:0:0:
267,99,31539,6,0,P|330:133|344:191,1,112.499997138977,0|8,0:0|0:0,0:0:0:0:
320,256,32329,1,0,0:0:0:0:
232,272,32724,5,8,0:0:0:0:
192,280,32921,1,8,0:0:0:0:
152,256,33118,1,8,0:0:0:0:
128,168,33513,6,0,P|154:120|216:103,1,112.499997138977,0|8,0:0|0:0,0:0:0:0:
221,191,34303,2,0,P|274:177|301:130,1,112.499997138977,0|8,0:0|0:0,0:0:0:0:
278,42,35092,6,0,P|332:43|389:99,1,112.499997138977,0|8,0:0|0:0,0:0:0:0:
390,166,35882,2,0,P|434:199|489:200,1,112.499997138977,0|8,0:0|0:0,0:0:0:0:
484,290,36671,6,0,P|428:291|376:324,1,112.499997138977,0|8,0:0|0:0,0:0:0:0:
301,289,37461,2,0,P|312:234|289:184,1,112.499997138977,0|8,0:0|0:0,0:0:0:0:
230,242,38201,6,2,L|215:242,13,14.0624996423721,0|0|0|0|0|0|0|0|0|0|0|0|0|0,0:0|0:0|0:0|0:0|0:0|0:0|0:0|0:0|0:0|0:0|0:0|0:0|0:0|0:0,0:0:0:0:
128,144,39434,6,0,B|148:90|148:90|212:59,1,112.499997138977,4|8,0:0|0:0,0:0:0:0:
256,136,40224,1,0,0:0:0:0:
256,224,40618,1,8,0:0:0:0:
312,296,41013,6,0,B|361:271|361:271|382:218,1,112.499997138977,0|8,0:0|0:0,0:0:0:0:
384,128,41803,1,0,0:0:0:0:
320,64,42197,1,8,0:0:0:0:
232,64,42592,6,0,B|182:88|182:88|161:141,1,112.499997138977,0|8,0:0|0:0,0:0:0:0:
184,232,43382,1,0,0:0:0:0:
264,280,43776,1,8,0:0:0:0:
344,232,44171,6,0,B|369:182|369:182|355:127,1,112.499997138977,0|8,0:0|0:0,0:0:0:0:
272,88,44961,1,0,0:0:0:0:
200,144,45355,5,8,0:0:0:0:
232,176,45553,1,8,0:0:0:0:
264,208,45750,1,0,0:0:0:0:
328,272,46145,5,8,0:0:0:0:
416,288,46539,2,0,P|389:339|328:360,1,112.499997138977,0|8,0:0|0:0,0:0:0:0:
328,272,47329,1,0,0:0:0:0:
240,256,47724,6,0,P|266:204|327:183,1,112.499997138977,8|0,0:0|0:0,0:0:0:0:
392,136,48513,1,8,0:0:0:0:
312,104,48908,6,0,P|261:81|237:31,1,112.499997138977,0|8,0:0|0:0,0:0:0:0:
168,88,49697,1,0,0:0:0:0:
80,64,50092,6,0,P|83:119|50:163,1,112.499997138977,8|0,0:0|0:0,0:0:0:0:
120,216,50882,2,0,L|136:231,12,14.0624996423721,0|0|0|0|0|0|0|0|0|0|0|0|0,0:0|0:0|0:0|0:0|0:0|0:0|0:0|0:0|0:0|0:0|0:0|0:0|0:0,0:0:0:0:
256,200,52066,5,4,0:0:0:0:
328,256,52461,2,0,P|351:188|312:129,1,140.624996423721,0|0,0:0|0:0,0:0:0:0:
352,72,53250,6,0,B|426:94|448:27|448:27|515:49|523:131|448:153,1,281.249992847443,0|0,0:0|0:0,0:0:0:0:
464,236,54632,2,0,B|523:252|515:334|448:356|448:356|426:289|352:312,1,281.249992847443,0|0,0:0|0:0,0:0:0:0:
256,264,56112,1,0,0:0:0:0:
200,296,56408,6,0,L|152:336,2,56.2499985694885,8|8|8,0:0|0:0|0:0,0:0:0:0:
256,264,57099,1,8,0:0:0:0:
312,232,57395,1,8,0:0:0:0:
392,120,57987,6,0,L|368:96,4,28.1249992847443,2|0|2|0|2,0:0|0:0|0:0|0:0|0:0,0:0:0:0:
454,170,58678,2,0,P|490:247|469:338,1,168.749995708466
403,305,59566,2,0,B|455:195|351:179|279:219|343:267|351:323|303:347|247:347|215:283|263:195,1,393.74998998642,0|0,0:0|0:0,0:0:0:0:
304,136,61145,6,0,B|355:56|256:-40|153:56|216:144,1,281.249992847443
172,224,62526,2,0,B|127:304|253:417|394:300|335:216,1,337.499991416931
256,248,64105,6,8,L|256:176,3,56.2499985694885
217,117,64993,2,0,P|256:105|309:127,2,84.3749978542328
256,184,65882,2,0,P|307:195|368:153,1,112.499997138977,0|0,0:0|0:0,0:0:0:0:
297,116,66572,2,0,P|331:92|375:89,2,84.3749978542328
256,170,67461,5,2,0:2:0:0:
194,113,67855,2,0,B|148:155|145:257|214:288|303:306|344:246|360:211|361:178|340:149|326:134|298:82|352:48|400:16|456:8|496:40|508:77|541:97|533:135|515:195,1,676.499967311859
437,137,70421,6,0,B|423:191|438:243|492:264|526:257|526:257|557:311|557:311|508:355|508:355|443:338|416:313,1,393.74998998642
359,264,72197,2,0,B|316:226|270:230|268:291|268:291|172:291|172:291|162:352|109:362|76:307,1,365.624990701675
48,248,73776,2,0,B|-16:184|-16:136|16:96|96:94|144:128|112:208|42:181|71:318|280:240|270:145|204:122|228:68|51:154|105:40|166:3|232:36,1,562.499985694885,0|4,0:0|0:0,0:0:0:0:
256,48,75947,6,0,B|272:96|320:88|376:120|440:184|424:280|320:320|240:272|268:200,1,393.74998998642
256,192,77526,5,4,0:0:0:0:
200,144,77921,2,8,L|151:107,4,56.2499985694885
256,192,79105,5,4,0:0:0:0:
200,248,79500,2,8,L|157:292,4,56.2499985694885
256,192,80684,5,0,0:0:0:0:
312,248,81079,2,8,L|360:288,4,56.2499985694885
256,192,82263,5,4,0:0:0:0:
312,136,82658,2,8,L|359:98,4,56.2499985694885
353,224,83842,2,0,P|354:295|291:247,1,168.749995708466
222,265,84632,6,0,P|157:294|159:224,1,168.749995708466,0|4,0:0|0:0,0:0:0:0:
158,159,85421,6,0,P|157:89|222:118,1,168.749995708466
289,118,86211,6,0,P|354:89|353:160,1,168.749995708466,0|4,0:0|0:0,0:0:0:0:
256,192,87592,5,12,0:0:0:0:
256,192,88382,6,0,P|320:208|360:288,1,149.999990463257,4|2,0:1|0:2,0:0:0:0:
496,176,89961,1,0,0:0:0:0:
336,232,90750,5,0,0:0:0:0:
256,272,91145,1,0,0:0:0:0:
176,232,91539,1,4,0:0:0:0:
157,100,92132,6,0,B|192:2|256:74|256:74|320:2|361:106,1,281.249992847443
256,200,93711,2,0,B|260:159|318:133|361:164|387:223|334:287|293:260|256:318,1,281.249992847443,0|8,0:0|0:0,0:0:0:0:
256,200,95289,2,0,B|252:158|194:132|151:163|125:222|178:286|219:259|259:320,1,281.249992847443,0|8,0:0|0:0,0:0:0:0:
256,264,96868,5,8,0:0:0:0:
256,312,97066,1,8,0:0:0:0:
258,361,97263,6,0,P|171:279|102:251,1,168.749995708466,0|4,0:0|0:0,0:0:0:0:
84,223,98053,2,0,B|37:164|34:104|78:46,1,168.749995708466,0|4,0:0|0:0,0:0:0:0:
91,32,98842,2,0,B|137:2|192:12|223:26|245:68,1,168.749995708466,0|4,0:0|0:0,0:0:0:0:
274,61,99632,2,0,B|292:28|323:14|378:4|424:34,1,168.749995708466,0|4,0:0|0:0,0:0:0:0:
450,65,100422,2,0,B|481:103|478:163|431:222,1,168.749995708466,0|4,0:0|0:0,0:0:0:0:
386,252,101211,2,0,P|313:293|256:355,1,168.749995708466,0|4,0:0|0:0,0:0:0:0:
256,251,102000,6,0,L|256:280,6,28.1249992847443,0|0|0|0|0|0|4,0:0|0:0|0:0|0:0|0:0|0:0|0:0,0:0:0:0:
256,192,102789,12,4,104171,0:0:0:0:
120,143,104961,6,0,B|86:184|142:224|201:207|238:151|174:79|174:79|230:87|255:31|255:31|279:87|343:77|343:77|272:152|311:208|367:224|423:184|389:137,1,674.999982833862
455,258,108118,2,0,B|487:307|471:340|422:373|372:340|356:290|356:290|306:356|257:274|257:274|208:356|158:290|158:290|142:340|92:373|43:340|26:307|59:258,1,674.999982833862,0|4,0:0|0:0,0:0:0:0:
171,116,111276,6,0,P|254:57|350:137,2,224.999994277954,0|4|0,0:0|0:0|0:0,0:0:0:0:
259,149,113250,1,0,0:0:0:0:
256,239,113645,2,0,L|256:271,14,28.1249992847443,8|0|0|0|8|0|0|0|8|0|0|0|8|0|8,0:0|0:0|0:0|0:0|0:0|0:0|0:0|0:0|0:0|0:0|0:0|0:0|0:0|0:0|0:0,0:0:0:0:
256,192,115224,12,4,116803,0:0:0:0:
256,192,126276,12,0,127855,0:0:0:0:
168,192,129434,5,4,0:0:0:0:
256,192,129829,1,8,0:0:0:0:
206,114,130224,2,0,P|258:98|311:116,1,112.499997138977,0|8,0:0|0:0,0:0:0:0:
344,192,131013,5,0,0:0:0:0:
256,192,131408,1,8,0:0:0:0:
309,268,131803,2,0,P|256:284|201:264,1,112.499997138977,0|8,0:0|0:0,0:0:0:0:
168,192,132592,5,0,0:0:0:0:
256,192,132987,1,8,0:0:0:0:
335,141,133382,2,0,P|348:192|329:252,1,112.499997138977,0|8,0:0|0:0,0:0:0:0:
256,280,134171,5,0,0:0:0:0:
256,192,134566,1,8,0:0:0:0:
256,104,134961,1,0,0:0:0:0:
177,141,135355,2,0,P|164:192|183:252,1,112.499997138977,8|8,0:0|0:0,0:0:0:0:
256,296,136145,5,8,0:0:0:0:
331,248,136539,2,0,P|347:195|335:141,1,112.499997138977,0|8,0:0|0:0,0:0:0:0:
256,104,137329,5,4,0:0:0:0:
176,144,137724,1,8,0:0:0:0:
120,216,138118,1,0,0:0:0:0:
176,288,138513,6,0,P|224:304|296:280,1,112.499997138977,0|4,0:0|0:0,0:0:0:0:
232,216,139303,2,0,P|280:200|352:224,1,112.499997138977,0|4,0:0|0:0,0:0:0:0:
286,287,140092,5,8,0:0:0:0:
376,289,140487,2,4,L|404:289,16,28.1249992847443,12|4|4|4|12|4|4|4|12|4|4|4|12|4|12|4|12,0:0|0:0|0:0|0:0|0:0|0:0|0:0|0:0|0:0|0:0|0:0|0:0|0:0|0:0|0:0|0:0|0:0,0:0:0:0:
288,288,142461,5,8,0:0:0:0:
200,264,142855,2,0,P|152:232|136:176,1,112.499997138977,0|8,0:0|0:0,0:0:0:0:
224,184,143645,5,0,0:0:0:0:
296,128,144039,1,8,0:0:0:0:
320,45,144434,2,0,P|368:77|384:133,1,112.499997138977,0|8,0:0|0:0,0:0:0:0:
336,208,145224,5,0,0:0:0:0:
296,128,145618,1,8,0:0:0:0:
296,40,146013,2,0,P|243:57|213:104,1,112.499997138977,0|8,0:0|0:0,0:0:0:0:
176,184,146803,6,0,L|112:144,4,56.2499985694885,0|0|0|0|0,0:0|0:0|0:0|0:0|0:0,0:0:0:0:
210,213,147789,6,0,B|208:224|233:245|268:263|308:254|325:235|352:213|352:213|372:234|390:250|426:260|461:247|482:228|487:204,1,318.749991893768
420,151,149303,6,0,B|415:127|386:112|350:103|321:111|298:127|276:150|276:150|255:127|231:113|195:109|162:119|136:138|135:161,1,337.499991416931
256,192,151539,12,4,153908,0:0:0:0:
200,232,154697,6,2,B|208:280|208:280|256:320|256:320|304:280|304:280|312:216|312:216,1,224.999994277954
256,144,155882,6,2,L|256:8,2,131.999999832153
320,200,157066,2,2,B|360:168|360:168|416:224|416:224|472:168|472:168|520:208|520:208,2,263.999991271973
256,120,159039,5,2,0:0:0:0:
208,152,159237,1,2,0:0:0:0:
192,200,159434,2,2,B|120:240|120:240|40:200|40:200,2,164.999999790192
240,224,160619,6,2,L|272:248,4,32.9999999580383,2|2|2|2|6,0:0|0:0|0:0|0:0|0:0,0:0:0:0:
168,152,161408,5,8,0:0:0:0:
224,64,161803,1,0,0:0:0:0:
328,32,162197,1,8,0:0:0:0:
424,72,162592,1,0,0:0:0:0:
488,160,162987,1,8,0:0:0:0:
400,224,163382,1,0,0:0:0:0:
304,184,163776,6,0,L|224:184,1,65.9999978179932
192,256,164171,2,2,B|138:306|138:306|63:243|63:243|128:192|128:192|56:128|56:128|128:64|128:64|192:120,1,527.999982543945,2|8,0:0|0:0,0:0:0:0:
232,200,166638,6,2,L|264:200,6,32.9999999580383
208,184,167329,2,2,B|168:132|168:132|96:132|96:132|48:228|48:228|96:332|96:332|168:332|168:332|208:284|208:284|304:284|304:284|344:332|344:332|416:332|416:332|464:228|464:228|416:132|416:132|336:132|336:132|302:189|302:189,1,1088.99996399689,6|2,0:0|0:0,0:0:0:0:
256,120,170882,5,2,0:0:0:0:
184,200,171276,1,2,0:0:0:0:
256,272,171671,1,8,0:0:0:0:
328,200,172066,1,2,0:0:0:0:
256,120,172461,1,8,0:0:0:0:
256,224,172855,6,0,L|256:256,8,32.9999989089966
256,120,174039,5,8,0:0:0:0:
312,208,174434,2,0,P|255:240|199:207,1,131.999995635986,0|8,0:0|0:0,0:0:0:0:
200,104,175224,5,0,0:0:0:0:
309,106,175618,1,8,0:0:0:0:
312,208,176013,2,0,P|255:240|199:207,1,131.999995635986,0|8,0:0|0:0,0:0:0:0:
256,192,176803,12,0,178184,0:0:0:0:
256,104,178777,6,2,L|256:128,17,16.4999994544983
256,104,179960,2,0,B|288:128|328:112|344:88|336:48|296:8|240:0|176:16|136:56|128:104|176:144|232:160|288:152|248:256|136:232|72:192|40:256|32:296|96:352|152:352|192:344|240:312|176:312|176:272|160:208|248:192|312:168|376:184|424:208|456:248|448:288|432:312|392:328|344:344|296:328|264:296|344:288,1,929.999940872194,0|0,0:0|0:0,0:0:0:0:
