osu file format v13

[General]
AudioFilename: L - Lost by Ice.mp3
AudioLeadIn: 0
PreviewTime: 75841
Countdown: 0
SampleSet: Soft
StackLeniency: 0.9
Mode: 3
LetterboxInBreaks: 0
SkinPreference:Ice Custom EX Theme
SpecialStyle: 0
WidescreenStoryboard: 1

[Editor]
Bookmarks: 1693,20032,39580,51774,64258,83999,91695,97598,103791,117001,117049,128130,142211,154791
DistanceSpacing: 0.8
BeatDivisor: 3
GridSize: 8
TimelineZoom: 1.2

[Metadata]
Title:L - Lost
TitleUnicode:L - Lost
Artist:Ice
ArtistUnicode:Ice
Creator:lordraika
Version:Perfect (7K EX)
Source:Cytus
Tags:Iceloki Instrumental Piano Violin -Reba- Fullerene- lZenxl
BeatmapID:443926
BeatmapSetID:153341

[Difficulty]
HPDrainRate:8
CircleSize:7
OverallDifficulty:8
ApproachRate:10
SliderMultiplier:2.99999990463257
SliderTickRate:4

[Events]
//Background and Video events
0,0,"L.jpg",0,0
//Break Periods
//Storyboard Layer 0 (Background)
//Storyboard Layer 1 (Fail)
//Storyboard Layer 2 (Pass)
//Storyboard Layer 3 (Foreground)
Sprite,Foreground,Centre,"Resource\My Icon EX.png",320,240 M,0,-38,,617,403 S,0,-38,,0.7678357 F,0,-38,125389,1 F,0,125389,125800,1,0
Sprite,Foreground,Centre,"Resource\lZenxl.png",320,240 F,0,125389,125800,0,1 M,0,125800,,567,258 S,0,125800,,0.7789087 F,0,125800,131583,1 F,0,131583,133809,1,0
Sprite,Foreground,Centre,"Resource\LordRaika.png",320,240 F,0,125389,125800,0,1 M,0,125800,,573,179 S,0,125800,,0.7789087 F,0,125800,131583,1 F,0,131583,133809,1,0
//Storyboard Sound Samples
//Background Colour Transformations
3,100,163,162,255

[TimingPoints]
1519,387.096774193548,4,2,0,5,1,0
1615,-117.647058823529,4,2,0,5,0,0
1712,-142.857142857143,4,2,0,5,0,0
1809,-181.818181818182,4,2,0,5,0,0
19325,-151.515151515152,4,2,0,5,0,0
20873,-129.87012987013,4,2,0,5,0,0
22422,-113.636363636364,4,2,0,5,0,0
26293,-100,4,2,0,5,0,1
38680,-151.515151515152,4,2,0,5,0,1
38744,-100,4,2,0,5,0,1
41777,-151.515151515152,4,2,0,5,0,1
41841,-100,4,2,0,5,0,1
42551,-151.515151515152,4,2,0,5,0,1
42615,-100,4,2,0,5,0,1
43325,-227.272727272727,4,2,0,5,0,1
43355,-100,4,2,0,5,0,1
51067,-151.515151515152,4,2,0,5,0,0
51131,-100,4,2,0,5,0,0
69648,-151.515151515152,4,2,0,5,0,0
69712,-100,4,2,0,5,0,0
74293,-151.515151515152,4,2,0,5,0,0
74357,-100,4,2,0,5,0,0
75841,-151.515151515152,4,2,0,5,0,1
75938,-100,4,2,0,5,0,1
86099,-111.111111111111,4,2,0,5,0,1
86680,-100,4,2,0,5,0,1
94422,-151.515151515152,4,2,0,5,0,1
94486,-100,4,2,0,5,0,1
97518,-151.515151515152,4,2,0,5,0,1
97583,-100,4,2,0,5,0,1
99067,-151.515151515152,4,2,0,5,0,1
99131,-100,4,2,0,5,0,1
100615,-151.515151515152,4,2,0,5,0,0
100680,-100,4,2,0,5,0,0
106809,-151.515151515152,4,2,0,5,0,0
106873,-100,4,2,0,5,0,0
109906,-151.515151515152,4,2,0,5,0,0
109970,-100,4,2,0,5,0,0
113002,-151.515151515152,4,2,0,5,0,0
113067,-100,4,2,0,5,0,0
116099,-151.515151515152,4,2,0,5,0,0
116164,-100,4,2,0,5,0,0
116873,-151.515151515152,4,2,0,5,0,0
116938,-100,4,2,0,5,0,0
117648,-151.515151515152,4,2,0,5,0,0
117712,-100,4,2,0,5,0,0
119196,-151.515151515152,4,2,0,5,0,0
119260,-100,4,2,0,5,0,0
120744,-151.515151515152,4,2,0,5,0,0
120809,-100,4,2,0,5,0,0
122299,-151.515151515152,4,2,0,5,0,0
122357,-100,4,2,0,5,0,0
123067,-151.515151515152,4,2,0,5,0,0
123131,-100,4,2,0,5,0,0
123841,-151.515151515152,4,2,0,5,0,0
123906,-100,4,2,0,5,0,0
125389,-151.515151515152,4,2,0,5,0,0

[Colours]
Combo1 : 3,111,241
Combo2 : 2,21,253

[HitObjects]
256,192,1519,128,2,2873:0:0:0:0:
109,192,1519,128,2,2873:0:0:0:0:
402,192,1519,128,2,2873:0:0:0:0:
475,192,2873,1,2,0:0:0:0:
182,192,2873,1,2,0:0:0:0:
402,192,2970,1,2,0:0:0:0:
109,192,2970,1,2,0:0:0:0:
329,192,3067,1,2,0:0:0:0:
36,192,3067,1,2,0:0:0:0:
402,192,3454,1,2,0:0:0:0:
109,192,3454,1,2,0:0:0:0:
182,192,3841,1,2,0:0:0:0:
475,192,3841,1,2,0:0:0:0:
109,192,4228,1,2,0:0:0:0:
402,192,4228,1,2,0:0:0:0:
36,192,4615,1,2,0:0:0:0:
329,192,4615,1,2,0:0:0:0:
109,192,5196,1,2,0:0:0:0:
402,192,5196,1,2,0:0:0:0:
256,192,5196,1,2,0:0:0:0:
480,192,6164,128,2,6744:0:0:0:0:
182,192,6164,128,2,6744:0:0:0:0:
32,192,6744,128,2,7712:0:0:0:0:
329,192,6744,128,2,7712:0:0:0:0:
109,192,7712,128,2,9067:0:0:0:0:
416,192,7712,128,2,9067:0:0:0:0:
182,192,7712,1,2,0:0:0:0:
475,192,7712,1,2,0:0:0:0:
36,192,9067,1,2,0:0:0:0:
352,192,9067,1,2,0:0:0:0:
109,192,9164,1,2,0:0:0:0:
416,192,9164,1,2,0:0:0:0:
182,192,9260,1,2,0:0:0:0:
480,192,9260,1,2,0:0:0:0:
402,192,9648,1,2,0:0:0:0:
109,192,9648,1,2,0:0:0:0:
36,192,10035,1,2,0:0:0:0:
352,192,10035,1,2,0:0:0:0:
109,192,10422,1,2,0:0:0:0:
402,192,10422,1,2,0:0:0:0:
182,192,10809,1,2,0:0:0:0:
480,192,10809,1,2,0:0:0:0:
96,192,11389,1,2,0:0:0:0:
402,192,11389,1,2,0:0:0:0:
475,192,11583,1,2,0:0:0:0:
160,192,11583,1,2,0:0:0:0:
32,192,12357,128,2,12938:0:0:0:0:
96,192,12938,128,2,13131:0:0:0:0:
160,192,13131,128,2,13906:0:0:0:0:
288,192,13325,1,2,0:0:0:0:
352,192,13519,1,2,0:0:0:0:
416,192,13712,1,2,0:0:0:0:
480,192,13906,1,2,0:0:0:0:
224,192,13906,128,2,14680:0:0:0:0:
416,192,14680,1,2,0:0:0:0:
160,192,14680,128,2,15067:0:0:0:0:
352,192,15067,1,2,0:0:0:0:
96,192,15067,128,2,15454:0:0:0:0:
288,192,15454,1,2,0:0:0:0:
32,192,15454,128,2,15841:0:0:0:0:
96,192,15841,128,2,16228:0:0:0:0:
352,192,16035,1,2,0:0:0:0:
416,192,16131,1,2,0:0:0:0:
480,192,16228,1,2,0:0:0:0:
160,192,16228,128,2,16615:0:0:0:0:
416,192,16615,1,2,0:0:0:0:
224,192,16615,128,2,17002:0:0:0:0:
352,192,17002,1,2,0:0:0:0:
160,192,17002,128,2,17777:0:0:0:0:
288,192,17389,1,2,0:0:0:0:
352,192,17777,1,2,0:0:0:0:
96,192,17777,128,2,18551:0:0:0:0:
416,192,18164,1,2,0:0:0:0:
480,192,18551,1,2,0:0:0:0:
32,192,18551,128,2,19325:0:0:0:0:
480,192,19325,1,2,0:0:0:0:
96,192,19325,128,2,20099:0:0:0:0:
416,192,19615,1,2,0:0:0:0:
352,192,19906,1,2,0:0:0:0:
288,192,20099,1,2,0:0:0:0:
160,192,20099,128,2,20873:0:0:0:0:
36,192,20873,1,2,0:0:0:0:
402,192,20873,128,2,21648:0:0:0:0:
109,192,21164,1,2,0:0:0:0:
182,192,21454,1,2,0:0:0:0:
256,192,21648,1,2,0:0:0:0:
329,192,21648,128,2,22422:0:0:0:0:
288,192,22422,1,2,0:0:0:0:
96,192,22422,128,2,23196:0:0:0:0:
352,192,22712,1,2,0:0:0:0:
416,192,23002,1,2,0:0:0:0:
480,192,23196,1,2,0:0:0:0:
32,192,23196,128,2,23777:0:0:0:0:
416,192,23777,1,2,0:0:0:0:
288,192,23777,1,2,0:0:0:0:
96,192,23777,128,2,24357:0:0:0:0:
352,192,24357,1,2,0:0:0:0:
480,192,24357,1,2,0:0:0:0:
160,192,24357,128,2,24744:0:0:0:0:
416,192,24744,1,2,0:0:0:0:
288,192,24744,1,2,0:0:0:0:
96,192,24744,128,2,26293:0:0:0:0:
182,192,25518,1,2,0:0:0:0:
256,192,25583,1,2,0:0:0:0:
329,192,25648,1,2,0:0:0:0:
416,192,25713,1,2,0:0:0:0:
475,192,25777,1,2,0:0:0:0:
402,192,25841,1,2,0:0:0:0:
329,192,25906,1,2,0:0:0:0:
256,192,25970,1,2,0:0:0:0:
182,192,26035,1,2,0:0:0:0:
288,192,26100,1,2,0:0:0:0:
352,192,26165,1,2,0:0:0:0:
416,192,26229,1,2,0:0:0:0:
32,192,26293,128,2,27648:0:0:0:0:
224,192,26293,1,2,0:0:0:0:
480,192,26294,1,2,0:0:0:0:
416,192,26357,1,2,0:0:0:0:
160,192,26422,1,2,0:0:0:0:
352,192,26486,1,2,0:0:0:0:
224,192,26551,1,2,0:0:0:0:
416,192,26615,1,2,0:0:0:0:
329,192,26680,1,2,0:0:0:0:
480,192,26777,1,2,0:0:0:0:
402,192,26873,1,2,0:0:0:0:
224,192,26970,1,2,0:0:0:0:
475,192,27067,1,2,0:0:0:0:
329,192,27164,1,2,0:0:0:0:
416,192,27260,1,2,0:0:0:0:
480,192,27357,1,2,0:0:0:0:
416,192,27454,1,2,0:0:0:0:
352,192,27551,1,2,0:0:0:0:
416,192,27648,1,2,0:0:0:0:
96,192,27648,128,2,27744:0:0:0:0:
480,192,27744,1,2,0:0:0:0:
160,192,27744,128,2,27841:0:0:0:0:
352,192,27841,1,2,0:0:0:0:
256,192,27841,128,2,28228:0:0:0:0:
475,192,27938,1,2,0:0:0:0:
402,192,28035,1,2,0:0:0:0:
475,192,28131,1,2,0:0:0:0:
329,192,28228,1,2,0:0:0:0:
160,192,28228,128,2,28615:0:0:0:0:
416,192,28325,1,2,0:0:0:0:
288,192,28422,1,2,0:0:0:0:
352,192,28518,1,2,0:0:0:0:
480,192,28615,1,2,0:0:0:0:
96,192,28615,128,2,29002:0:0:0:0:
416,192,28680,1,2,0:0:0:0:
352,192,28744,1,2,0:0:0:0:
288,192,28809,1,2,0:0:0:0:
480,192,28873,1,2,0:0:0:0:
416,192,28938,1,2,0:0:0:0:
352,192,29002,1,2,0:0:0:0:
32,192,29002,128,2,29389:0:0:0:0:
288,192,29067,1,2,0:0:0:0:
352,192,29131,1,2,0:0:0:0:
416,192,29196,1,2,0:0:0:0:
480,192,29293,1,2,0:0:0:0:
352,192,29389,1,2,0:0:0:0:
96,192,29389,128,2,29970:0:0:0:0:
224,192,29486,1,2,0:0:0:0:
416,192,29583,1,2,0:0:0:0:
329,192,29680,1,2,0:0:0:0:
475,192,29777,1,2,0:0:0:0:
416,192,29873,1,2,0:0:0:0:
352,192,29970,1,2,0:0:0:0:
160,192,29970,128,2,32486:0:0:0:0:
288,192,30067,1,2,0:0:0:0:
416,192,30164,1,2,0:0:0:0:
480,192,30260,1,2,0:0:0:0:
416,192,30357,1,2,0:0:0:0:
352,192,30454,1,2,0:0:0:0:
288,192,30551,1,2,0:0:0:0:
480,192,30615,1,2,0:0:0:0:
352,192,30680,1,2,0:0:0:0:
416,192,30744,1,2,0:0:0:0:
288,192,30809,1,2,0:0:0:0:
480,192,30873,1,2,0:0:0:0:
352,192,30938,1,2,0:0:0:0:
416,192,31002,1,2,0:0:0:0:
288,192,31067,1,2,0:0:0:0:
480,192,31131,1,2,0:0:0:0:
352,192,31196,1,2,0:0:0:0:
416,192,31260,1,2,0:0:0:0:
288,192,31325,1,2,0:0:0:0:
352,192,31422,1,2,0:0:0:0:
416,192,31518,1,2,0:0:0:0:
480,192,31615,1,2,0:0:0:0:
416,192,31712,1,2,0:0:0:0:
352,192,31809,1,2,0:0:0:0:
288,192,31906,1,2,0:0:0:0:
352,192,32002,1,2,0:0:0:0:
416,192,32099,1,2,0:0:0:0:
480,192,32196,1,2,0:0:0:0:
416,192,32293,1,2,0:0:0:0:
32,192,32293,1,2,0:0:0:0:
352,192,32389,1,2,0:0:0:0:
288,192,32486,1,2,0:0:0:0:
96,192,32486,128,2,33841:0:0:0:0:
32,192,32486,1,2,0:0:0:0:
475,192,32680,1,2,0:0:0:0:
402,192,32777,1,2,0:0:0:0:
475,192,32873,1,2,0:0:0:0:
402,192,32970,1,2,0:0:0:0:
352,192,33067,1,2,0:0:0:0:
402,192,33164,1,2,0:0:0:0:
480,192,33260,1,2,0:0:0:0:
416,192,33325,1,2,0:0:0:0:
352,192,33389,1,2,0:0:0:0:
288,192,33454,1,2,0:0:0:0:
182,192,33518,1,2,0:0:0:0:
402,192,33583,1,2,0:0:0:0:
329,192,33648,1,2,0:0:0:0:
256,192,33744,1,2,0:0:0:0:
416,192,33841,1,2,0:0:0:0:
32,192,33841,128,2,33938:0:0:0:0:
352,192,33938,1,2,0:0:0:0:
96,192,33938,128,2,34035:0:0:0:0:
480,192,34035,1,2,0:0:0:0:
160,192,34035,128,2,34422:0:0:0:0:
416,192,34099,1,2,0:0:0:0:
352,192,34164,1,2,0:0:0:0:
288,192,34228,1,2,0:0:0:0:
352,192,34293,1,2,0:0:0:0:
416,192,34357,1,2,0:0:0:0:
480,192,34422,1,2,0:0:0:0:
109,192,34422,128,2,34809:0:0:0:0:
416,192,34486,1,2,0:0:0:0:
352,192,34551,1,2,0:0:0:0:
288,192,34615,1,2,0:0:0:0:
352,192,34680,1,2,0:0:0:0:
416,192,34744,1,2,0:0:0:0:
480,192,34809,1,2,0:0:0:0:
160,192,34809,128,2,35196:0:0:0:0:
416,192,34873,1,2,0:0:0:0:
352,192,34938,1,2,0:0:0:0:
288,192,35002,1,2,0:0:0:0:
352,192,35067,1,2,0:0:0:0:
416,192,35131,1,2,0:0:0:0:
480,192,35196,1,2,0:0:0:0:
96,192,35196,128,2,35583:0:0:0:0:
352,192,35293,1,2,0:0:0:0:
224,192,35389,1,2,0:0:0:0:
416,192,35486,1,2,0:0:0:0:
160,192,35583,1,2,0:0:0:0:
32,192,35583,128,2,36164:0:0:0:0:
329,192,35680,1,2,0:0:0:0:
256,192,35777,1,2,0:0:0:0:
402,192,35873,1,2,0:0:0:0:
329,192,35970,1,2,0:0:0:0:
475,192,36067,1,2,0:0:0:0:
402,192,36164,1,2,0:0:0:0:
96,192,36164,128,2,36357:0:0:0:0:
329,192,36260,1,2,0:0:0:0:
224,192,36357,1,2,0:0:0:0:
32,192,36357,128,2,38486:0:0:0:0:
182,192,36454,1,2,0:0:0:0:
480,192,36551,1,2,0:0:0:0:
416,192,36615,1,2,0:0:0:0:
352,192,36680,1,2,0:0:0:0:
96,192,36744,1,2,0:0:0:0:
160,192,36809,1,2,0:0:0:0:
224,192,36873,1,2,0:0:0:0:
475,192,36938,1,2,0:0:0:0:
402,192,37002,1,2,0:0:0:0:
329,192,37067,1,2,0:0:0:0:
256,192,37131,1,2,0:0:0:0:
182,192,37196,1,2,0:0:0:0:
109,192,37260,1,2,0:0:0:0:
475,192,37325,1,2,0:0:0:0:
182,192,37389,1,2,0:0:0:0:
402,192,37454,1,2,0:0:0:0:
109,192,37518,1,2,0:0:0:0:
329,192,37583,1,2,0:0:0:0:
182,192,37648,1,2,0:0:0:0:
402,192,37712,1,2,0:0:0:0:
256,192,37777,1,2,0:0:0:0:
475,192,37841,1,2,0:0:0:0:
402,192,37906,1,2,0:0:0:0:
329,192,37970,1,2,0:0:0:0:
256,192,38035,1,2,0:0:0:0:
182,192,38099,1,2,0:0:0:0:
109,192,38164,1,2,0:0:0:0:
160,192,38228,1,2,0:0:0:0:
288,192,38293,1,2,0:0:0:0:
329,192,38357,1,2,0:0:0:0:
402,192,38422,1,2,0:0:0:0:
480,192,38486,1,2,0:0:0:0:
352,192,38486,1,2,0:0:0:0:
480,192,38680,1,2,0:0:0:0:
32,192,38680,128,2,39454:0:0:0:0:
160,192,38680,1,2,0:0:0:0:
352,192,38680,1,2,0:0:0:0:
352,192,38873,1,2,0:0:0:0:
416,192,38938,1,2,0:0:0:0:
352,192,39002,1,2,0:0:0:0:
288,192,39067,1,2,0:0:0:0:
182,192,39131,1,2,0:0:0:0:
288,192,39196,1,2,0:0:0:0:
352,192,39260,1,2,0:0:0:0:
416,192,39325,1,2,0:0:0:0:
480,192,39389,1,2,0:0:0:0:
96,192,39454,128,2,39841:0:0:0:0:
416,192,39454,1,2,0:0:0:0:
352,192,39518,1,2,0:0:0:0:
256,192,39583,1,2,0:0:0:0:
402,192,39648,1,2,0:0:0:0:
329,192,39712,1,2,0:0:0:0:
475,192,39777,1,2,0:0:0:0:
160,192,39841,128,2,40228:0:0:0:0:
402,192,39841,1,2,0:0:0:0:
329,192,39906,1,2,0:0:0:0:
402,192,40035,1,2,0:0:0:0:
352,192,40131,1,2,0:0:0:0:
224,192,40228,128,2,41002:0:0:0:0:
480,192,40228,1,2,0:0:0:0:
416,192,40325,1,2,0:0:0:0:
352,192,40422,1,2,0:0:0:0:
416,192,40518,1,2,0:0:0:0:
480,192,40615,1,2,0:0:0:0:
416,192,40712,1,2,0:0:0:0:
352,192,40809,1,2,0:0:0:0:
416,192,40906,1,2,0:0:0:0:
160,192,41002,128,2,41196:0:0:0:0:
480,192,41002,1,2,0:0:0:0:
416,192,41067,1,2,0:0:0:0:
352,192,41131,1,2,0:0:0:0:
96,192,41196,128,2,41389:0:0:0:0:
288,192,41196,1,2,0:0:0:0:
416,192,41293,1,2,0:0:0:0:
160,192,41389,128,2,41583:0:0:0:0:
352,192,41389,1,2,0:0:0:0:
288,192,41486,1,2,0:0:0:0:
96,192,41583,128,2,41777:0:0:0:0:
352,192,41583,1,2,0:0:0:0:
32,192,41583,1,2,0:0:0:0:
416,192,41680,1,2,0:0:0:0:
32,192,41777,128,2,42551:0:0:0:0:
480,192,41777,1,2,0:0:0:0:
329,192,41777,1,2,0:0:0:0:
109,192,41970,1,2,0:0:0:0:
160,192,42035,1,2,0:0:0:0:
224,192,42099,1,2,0:0:0:0:
329,192,42164,1,2,0:0:0:0:
402,192,42260,1,2,0:0:0:0:
475,192,42357,1,2,0:0:0:0:
402,192,42454,1,2,0:0:0:0:
96,192,42551,128,2,43325:0:0:0:0:
480,192,42551,1,2,0:0:0:0:
329,192,42551,1,2,0:0:0:0:
288,192,42551,1,2,0:0:0:0:
160,192,42744,1,2,0:0:0:0:
224,192,42809,1,2,0:0:0:0:
329,192,42873,1,2,0:0:0:0:
402,192,42938,1,2,0:0:0:0:
475,192,43035,1,2,0:0:0:0:
402,192,43131,1,2,0:0:0:0:
329,192,43228,1,2,0:0:0:0:
160,192,43325,128,2,44099:0:0:0:0:
480,192,43325,1,2,0:0:0:0:
32,192,43325,1,2,0:0:0:0:
224,192,43325,1,2,0:0:0:0:
416,192,43389,1,2,0:0:0:0:
352,192,43454,1,2,0:0:0:0:
288,192,43518,1,2,0:0:0:0:
480,192,43583,1,2,0:0:0:0:
416,192,43648,1,2,0:0:0:0:
352,192,43712,1,2,0:0:0:0:
288,192,43777,1,2,0:0:0:0:
329,192,43841,1,2,0:0:0:0:
402,192,43906,1,2,0:0:0:0:
475,192,43970,1,2,0:0:0:0:
352,192,44035,1,2,0:0:0:0:
32,192,44099,128,2,44389:0:0:0:0:
416,192,44099,1,2,0:0:0:0:
480,192,44196,1,2,0:0:0:0:
329,192,44293,1,2,0:0:0:0:
96,192,44389,128,2,44680:0:0:0:0:
416,192,44389,1,2,0:0:0:0:
224,192,44486,1,2,0:0:0:0:
352,192,44583,1,2,0:0:0:0:
160,192,44680,128,2,44873:0:0:0:0:
402,192,44680,1,2,0:0:0:0:
32,192,44680,1,2,0:0:0:0:
352,192,44777,1,2,0:0:0:0:
96,192,44873,128,2,45648:0:0:0:0:
480,192,44873,1,2,0:0:0:0:
32,192,44873,1,2,0:0:0:0:
416,192,44873,1,2,0:0:0:0:
352,192,44970,1,2,0:0:0:0:
224,192,45067,1,2,0:0:0:0:
416,192,45164,1,2,0:0:0:0:
352,192,45260,1,2,0:0:0:0:
288,192,45325,1,2,0:0:0:0:
329,192,45389,1,2,0:0:0:0:
402,192,45454,1,2,0:0:0:0:
475,192,45518,1,2,0:0:0:0:
288,192,45583,1,2,0:0:0:0:
352,192,45648,1,2,0:0:0:0:
160,192,45648,128,2,45938:0:0:0:0:
416,192,45744,1,2,0:0:0:0:
288,192,45841,1,2,0:0:0:0:
480,192,45938,1,2,0:0:0:0:
96,192,45938,128,2,46229:0:0:0:0:
352,192,46035,1,2,0:0:0:0:
416,192,46131,1,2,0:0:0:0:
480,192,46228,1,2,0:0:0:0:
32,192,46228,128,2,46422:0:0:0:0:
352,192,46325,1,2,0:0:0:0:
96,192,46422,128,2,47196:0:0:0:0:
160,192,46422,1,2,0:0:0:0:
480,192,46422,1,2,0:0:0:0:
416,192,46486,1,2,0:0:0:0:
352,192,46551,1,2,0:0:0:0:
288,192,46615,1,2,0:0:0:0:
352,192,46680,1,2,0:0:0:0:
416,192,46744,1,2,0:0:0:0:
352,192,46809,1,2,0:0:0:0:
288,192,46873,1,2,0:0:0:0:
329,192,46938,1,0,0:0:0:0:
416,192,47002,1,2,0:0:0:0:
480,192,47067,1,2,0:0:0:0:
416,192,47131,1,2,0:0:0:0:
352,192,47196,1,2,0:0:0:0:
32,192,47196,128,2,47486:0:0:0:0:
288,192,47260,1,2,0:0:0:0:
352,192,47325,1,2,0:0:0:0:
416,192,47389,1,2,0:0:0:0:
480,192,47454,1,2,0:0:0:0:
96,192,47486,128,2,47777:0:0:0:0:
416,192,47518,1,2,0:0:0:0:
352,192,47583,1,2,0:0:0:0:
288,192,47648,1,2,0:0:0:0:
352,192,47712,1,2,0:0:0:0:
416,192,47777,1,2,0:0:0:0:
160,192,47777,128,2,47970:0:0:0:0:
352,192,47841,1,2,0:0:0:0:
402,192,47906,1,2,0:0:0:0:
96,192,47970,128,2,48551:0:0:0:0:
475,192,47970,1,2,0:0:0:0:
32,192,47970,1,2,0:0:0:0:
288,192,48035,1,2,0:0:0:0:
352,192,48099,1,2,0:0:0:0:
416,192,48164,1,2,0:0:0:0:
480,192,48228,1,2,0:0:0:0:
182,192,48293,1,2,0:0:0:0:
352,192,48357,1,2,0:0:0:0:
288,192,48422,1,2,0:0:0:0:
416,192,48486,1,2,0:0:0:0:
32,192,48551,128,2,48938:0:0:0:0:
352,192,48551,1,2,0:0:0:0:
480,192,48615,1,2,0:0:0:0:
224,192,48680,1,2,0:0:0:0:
416,192,48744,1,2,0:0:0:0:
160,192,48744,1,2,0:0:0:0:
288,192,48809,1,2,0:0:0:0:
352,192,48873,1,2,0:0:0:0:
96,192,48938,128,2,49518:0:0:0:0:
402,192,48938,1,2,0:0:0:0:
480,192,49002,1,2,0:0:0:0:
329,192,49067,1,2,0:0:0:0:
182,192,49131,1,2,0:0:0:0:
416,192,49196,1,2,0:0:0:0:
256,192,49260,1,2,0:0:0:0:
475,192,49325,1,2,0:0:0:0:
329,192,49389,1,2,0:0:0:0:
402,192,49454,1,2,0:0:0:0:
32,192,49518,128,2,51067:0:0:0:0:
475,192,49518,1,2,0:0:0:0:
402,192,49615,1,2,0:0:0:0:
352,192,49712,1,2,0:0:0:0:
288,192,49809,1,2,0:0:0:0:
182,192,49906,1,2,0:0:0:0:
96,192,49970,1,2,0:0:0:0:
402,192,50035,1,2,0:0:0:0:
329,192,50099,1,2,0:0:0:0:
182,192,50164,1,2,0:0:0:0:
256,192,50228,1,2,0:0:0:0:
475,192,50293,1,2,0:0:0:0:
402,192,50357,1,2,0:0:0:0:
109,192,50422,1,2,0:0:0:0:
182,192,50486,1,2,0:0:0:0:
256,192,50551,1,2,0:0:0:0:
329,192,50615,1,2,0:0:0:0:
402,192,50680,1,2,0:0:0:0:
475,192,50744,1,2,0:0:0:0:
416,192,50809,1,2,0:0:0:0:
352,192,50873,1,2,0:0:0:0:
288,192,50938,1,2,0:0:0:0:
352,192,51002,1,2,0:0:0:0:
480,192,51067,128,2,52615:0:0:0:0:
96,192,51067,1,2,0:0:0:0:
416,192,51067,1,2,0:0:0:0:
182,192,51164,1,2,0:0:0:0:
288,192,51260,1,2,0:0:0:0:
352,192,51357,1,2,0:0:0:0:
416,192,51454,1,2,0:0:0:0:
109,192,51551,1,2,0:0:0:0:
182,192,51648,1,2,0:0:0:0:
288,192,51744,1,2,0:0:0:0:
352,192,51841,1,2,0:0:0:0:
36,192,51938,1,2,0:0:0:0:
109,192,52035,1,2,0:0:0:0:
182,192,52131,1,2,0:0:0:0:
288,192,52228,1,2,0:0:0:0:
32,192,52325,1,2,0:0:0:0:
96,192,52422,1,2,0:0:0:0:
160,192,52518,1,2,0:0:0:0:
416,192,52615,128,2,53389:0:0:0:0:
224,192,52615,1,2,0:0:0:0:
352,192,52712,1,2,0:0:0:0:
288,192,52809,1,2,0:0:0:0:
182,192,52906,1,2,0:0:0:0:
109,192,53002,1,2,0:0:0:0:
288,192,53099,1,2,0:0:0:0:
182,192,53196,1,2,0:0:0:0:
109,192,53293,1,2,0:0:0:0:
352,192,53389,128,2,54164:0:0:0:0:
36,192,53389,1,2,0:0:0:0:
224,192,53486,1,2,0:0:0:0:
160,192,53583,1,2,0:0:0:0:
96,192,53680,1,2,0:0:0:0:
32,192,53777,1,2,0:0:0:0:
96,192,53873,1,2,0:0:0:0:
160,192,53970,1,2,0:0:0:0:
224,192,54067,1,2,0:0:0:0:
416,192,54164,128,2,55325:0:0:0:0:
36,192,54164,1,2,0:0:0:0:
475,192,54164,1,0,0:0:0:0:
182,192,54357,1,2,0:0:0:0:
256,192,54454,1,2,0:0:0:0:
96,192,54551,1,2,0:0:0:0:
182,192,54648,1,2,0:0:0:0:
36,192,54744,1,2,0:0:0:0:
256,192,54841,1,2,0:0:0:0:
109,192,54938,1,2,0:0:0:0:
256,192,55035,1,2,0:0:0:0:
36,192,55131,1,2,0:0:0:0:
182,192,55228,1,2,0:0:0:0:
480,192,55325,128,2,55712:0:0:0:0:
96,192,55325,1,2,0:0:0:0:
256,192,55422,1,2,0:0:0:0:
109,192,55518,1,2,0:0:0:0:
288,192,55615,1,2,0:0:0:0:
416,192,55712,128,2,57260:0:0:0:0:
352,192,55712,1,2,0:0:0:0:
32,192,55906,1,2,0:0:0:0:
96,192,55970,1,2,0:0:0:0:
160,192,56035,1,2,0:0:0:0:
224,192,56099,1,2,0:0:0:0:
182,192,56164,1,2,0:0:0:0:
109,192,56228,1,2,0:0:0:0:
36,192,56293,1,2,0:0:0:0:
109,192,56357,1,2,0:0:0:0:
160,192,56422,1,2,0:0:0:0:
256,192,56486,1,2,0:0:0:0:
182,192,56551,1,2,0:0:0:0:
96,192,56615,1,2,0:0:0:0:
36,192,56680,1,2,0:0:0:0:
109,192,56744,1,2,0:0:0:0:
182,192,56809,1,2,0:0:0:0:
256,192,56873,1,2,0:0:0:0:
329,192,56970,1,2,0:0:0:0:
288,192,57067,1,2,0:0:0:0:
160,192,57164,1,2,0:0:0:0:
352,192,57260,128,2,58422:0:0:0:0:
224,192,57260,1,2,0:0:0:0:
96,192,57357,1,2,0:0:0:0:
160,192,57454,1,2,0:0:0:0:
32,192,57551,1,2,0:0:0:0:
96,192,57648,1,2,0:0:0:0:
288,192,57841,1,2,0:0:0:0:
182,192,57938,1,2,0:0:0:0:
109,192,58035,1,2,0:0:0:0:
36,192,58131,1,2,0:0:0:0:
160,192,58228,1,2,0:0:0:0:
96,192,58325,1,2,0:0:0:0:
402,192,58422,128,2,58809:0:0:0:0:
32,192,58422,1,2,0:0:0:0:
160,192,58518,1,2,0:0:0:0:
96,192,58615,1,2,0:0:0:0:
160,192,58712,1,2,0:0:0:0:
352,192,58809,128,2,59196:0:0:0:0:
224,192,58809,1,2,0:0:0:0:
36,192,58906,1,2,0:0:0:0:
109,192,59002,1,2,0:0:0:0:
160,192,59099,1,2,0:0:0:0:
416,192,59196,128,2,59583:0:0:0:0:
96,192,59196,1,2,0:0:0:0:
160,192,59293,1,2,0:0:0:0:
224,192,59389,1,2,0:0:0:0:
36,192,59486,1,2,0:0:0:0:
480,192,59583,128,2,59970:0:0:0:0:
109,192,59583,1,2,0:0:0:0:
182,192,59680,1,2,0:0:0:0:
224,192,59777,1,2,0:0:0:0:
160,192,59873,1,2,0:0:0:0:
416,192,59970,128,2,60357:0:0:0:0:
96,192,59970,1,2,0:0:0:0:
160,192,60067,1,2,0:0:0:0:
224,192,60164,1,2,0:0:0:0:
96,192,60260,1,2,0:0:0:0:
352,192,60357,128,2,60938:0:0:0:0:
160,192,60357,1,2,0:0:0:0:
224,192,60551,1,2,0:0:0:0:
160,192,60648,1,2,0:0:0:0:
96,192,60744,1,2,0:0:0:0:
160,192,60841,1,2,0:0:0:0:
256,192,60938,128,2,61518:0:0:0:0:
96,192,60938,1,2,0:0:0:0:
32,192,61035,1,2,0:0:0:0:
96,192,61131,1,2,0:0:0:0:
160,192,61228,1,2,0:0:0:0:
109,192,61325,1,2,0:0:0:0:
36,192,61422,1,2,0:0:0:0:
352,192,61518,128,2,61906:0:0:0:0:
96,192,61518,1,2,0:0:0:0:
160,192,61712,1,2,0:0:0:0:
32,192,61809,1,2,0:0:0:0:
416,192,61906,128,2,62680:0:0:0:0:
224,192,61906,1,2,0:0:0:0:
32,192,62099,1,2,0:0:0:0:
96,192,62164,1,2,0:0:0:0:
160,192,62228,1,2,0:0:0:0:
224,192,62293,1,2,0:0:0:0:
96,192,62389,1,2,0:0:0:0:
288,192,62486,1,2,0:0:0:0:
160,192,62583,1,2,0:0:0:0:
480,192,62680,128,2,63454:0:0:0:0:
352,192,62680,1,2,0:0:0:0:
224,192,62777,1,2,0:0:0:0:
96,192,62874,1,2,0:0:0:0:
352,192,62970,1,2,0:0:0:0:
288,192,63067,1,2,0:0:0:0:
182,192,63164,1,2,0:0:0:0:
352,192,63260,1,2,0:0:0:0:
109,192,63357,1,2,0:0:0:0:
416,192,63454,128,2,65002:0:0:0:0:
36,192,63454,1,2,0:0:0:0:
160,192,63454,1,2,0:0:0:0:
96,192,63648,1,2,0:0:0:0:
160,192,63744,1,2,0:0:0:0:
224,192,63841,1,2,0:0:0:0:
329,192,63938,1,2,0:0:0:0:
96,192,64035,1,2,0:0:0:0:
160,192,64131,1,2,0:0:0:0:
224,192,64228,1,2,0:0:0:0:
329,192,64325,1,2,0:0:0:0:
36,192,64422,1,2,0:0:0:0:
109,192,64518,1,2,0:0:0:0:
182,192,64615,1,2,0:0:0:0:
288,192,64712,1,2,0:0:0:0:
36,192,64809,1,2,0:0:0:0:
109,192,64906,1,2,0:0:0:0:
329,192,65002,128,2,65777:0:0:0:0:
182,192,65002,1,2,0:0:0:0:
36,192,65196,1,2,0:0:0:0:
96,192,65293,1,2,0:0:0:0:
182,192,65389,1,2,0:0:0:0:
96,192,65486,1,2,0:0:0:0:
160,192,65583,1,2,0:0:0:0:
224,192,65680,1,2,0:0:0:0:
416,192,65777,128,2,66551:0:0:0:0:
182,192,65777,1,2,0:0:0:0:
256,192,65873,1,2,0:0:0:0:
96,192,65970,1,2,0:0:0:0:
160,192,66067,1,2,0:0:0:0:
32,192,66164,1,2,0:0:0:0:
96,192,66260,1,2,0:0:0:0:
224,192,66357,1,2,0:0:0:0:
160,192,66454,1,2,0:0:0:0:
480,192,66551,128,2,67712:0:0:0:0:
288,192,66551,1,2,0:0:0:0:
96,192,66744,1,2,0:0:0:0:
160,192,66841,1,2,0:0:0:0:
256,192,66938,1,2,0:0:0:0:
329,192,67035,1,2,0:0:0:0:
160,192,67131,1,2,0:0:0:0:
288,192,67228,1,2,0:0:0:0:
352,192,67325,1,2,0:0:0:0:
96,192,67325,1,2,0:0:0:0:
160,192,67422,1,2,0:0:0:0:
288,192,67518,1,2,0:0:0:0:
36,192,67615,1,2,0:0:0:0:
109,192,67712,1,2,0:0:0:0:
416,192,67712,128,2,67906:0:0:0:0:
182,192,67809,1,2,0:0:0:0:
109,192,67906,1,2,0:0:0:0:
352,192,67906,128,2,68099:0:0:0:0:
182,192,68002,1,2,0:0:0:0:
402,192,68099,128,2,68873:0:0:0:0:
224,192,68099,1,2,0:0:0:0:
32,192,68196,1,2,0:0:0:0:
96,192,68293,1,2,0:0:0:0:
160,192,68389,1,2,0:0:0:0:
224,192,68486,1,2,0:0:0:0:
160,192,68583,1,2,0:0:0:0:
96,192,68680,1,2,0:0:0:0:
32,192,68777,1,2,0:0:0:0:
96,192,68873,1,2,0:0:0:0:
352,192,68874,128,2,69648:0:0:0:0:
160,192,68970,1,2,0:0:0:0:
224,192,69067,1,2,0:0:0:0:
160,192,69164,1,2,0:0:0:0:
96,192,69260,1,2,0:0:0:0:
32,192,69357,1,2,0:0:0:0:
96,192,69454,1,2,0:0:0:0:
160,192,69551,1,2,0:0:0:0:
416,192,69648,128,2,70035:0:0:0:0:
224,192,69648,1,2,0:0:0:0:
32,192,69648,1,2,0:0:0:0:
96,192,69841,1,2,0:0:0:0:
160,192,69938,1,2,0:0:0:0:
224,192,70035,1,2,0:0:0:0:
480,192,70035,128,2,70809:0:0:0:0:
36,192,70228,1,2,0:0:0:0:
109,192,70325,1,2,0:0:0:0:
182,192,70422,1,2,0:0:0:0:
256,192,70518,1,2,0:0:0:0:
182,192,70615,1,2,0:0:0:0:
109,192,70712,1,2,0:0:0:0:
36,192,70809,1,2,0:0:0:0:
416,192,70809,128,2,71196:0:0:0:0:
109,192,70906,1,2,0:0:0:0:
182,192,71002,1,2,0:0:0:0:
288,192,71099,1,2,0:0:0:0:
32,192,71196,1,2,0:0:0:0:
480,192,71196,128,2,71583:0:0:0:0:
352,192,71196,1,2,0:0:0:0:
182,192,71293,1,2,0:0:0:0:
96,192,71389,1,2,0:0:0:0:
288,192,71486,1,2,0:0:0:0:
416,192,71583,128,2,71970:0:0:0:0:
160,192,71583,1,2,0:0:0:0:
96,192,71680,1,2,0:0:0:0:
32,192,71777,1,2,0:0:0:0:
96,192,71873,1,2,0:0:0:0:
160,192,71970,1,2,0:0:0:0:
352,192,71970,128,2,72357:0:0:0:0:
96,192,72164,1,2,0:0:0:0:
160,192,72260,1,2,0:0:0:0:
224,192,72357,1,2,0:0:0:0:
416,192,72357,128,2,72745:0:0:0:0:
96,192,72551,1,2,0:0:0:0:
32,192,72648,1,2,0:0:0:0:
160,192,72744,1,2,0:0:0:0:
352,192,72744,1,2,0:0:0:0:
480,192,72745,128,2,73519:0:0:0:0:
109,192,72841,1,2,0:0:0:0:
288,192,72938,1,2,0:0:0:0:
160,192,73035,1,2,0:0:0:0:
329,192,73131,1,2,0:0:0:0:
224,192,73228,1,2,0:0:0:0:
160,192,73325,1,2,0:0:0:0:
109,192,73422,1,2,0:0:0:0:
402,192,73518,1,2,0:0:0:0:
352,192,73519,128,2,73906:0:0:0:0:
32,192,73519,1,2,0:0:0:0:
109,192,73615,1,2,0:0:0:0:
182,192,73712,1,2,0:0:0:0:
288,192,73809,1,2,0:0:0:0:
96,192,73906,1,2,0:0:0:0:
416,192,73906,128,2,74293:0:0:0:0:
182,192,74002,1,2,0:0:0:0:
288,192,74099,1,2,0:0:0:0:
32,192,74196,1,2,0:0:0:0:
480,192,74293,128,2,75067:0:0:0:0:
96,192,74293,1,2,0:0:0:0:
352,192,74293,1,2,0:0:0:0:
160,192,74389,1,2,0:0:0:0:
329,192,74486,1,2,0:0:0:0:
224,192,74583,1,2,0:0:0:0:
96,192,74680,1,2,0:0:0:0:
160,192,74777,1,2,0:0:0:0:
329,192,74873,1,2,0:0:0:0:
224,192,74970,1,2,0:0:0:0:
416,192,75067,128,2,75841:0:0:0:0:
96,192,75067,1,2,0:0:0:0:
160,192,75164,1,2,0:0:0:0:
352,192,75260,1,2,0:0:0:0:
288,192,75357,1,2,0:0:0:0:
36,192,75454,1,2,0:0:0:0:
109,192,75551,1,2,0:0:0:0:
182,192,75648,1,2,0:0:0:0:
224,192,75744,1,2,0:0:0:0:
32,192,75841,1,2,0:0:0:0:
480,192,75841,128,2,77389:0:0:0:0:
352,192,75841,1,2,0:0:0:0:
96,192,75938,1,2,0:0:0:0:
182,192,76035,1,2,0:0:0:0:
224,192,76131,1,2,0:0:0:0:
160,192,76228,1,2,0:0:0:0:
109,192,76325,1,2,0:0:0:0:
32,192,76422,1,2,0:0:0:0:
96,192,76486,1,2,0:0:0:0:
160,192,76551,1,2,0:0:0:0:
224,192,76615,1,2,0:0:0:0:
416,192,76712,1,2,0:0:0:0:
160,192,76809,1,2,0:0:0:0:
288,192,76906,1,2,0:0:0:0:
32,192,77002,1,2,0:0:0:0:
96,192,77067,1,2,0:0:0:0:
160,192,77131,1,2,0:0:0:0:
224,192,77196,1,2,0:0:0:0:
160,192,77293,1,2,0:0:0:0:
96,192,77389,1,2,0:0:0:0:
416,192,77389,128,2,78164:0:0:0:0:
160,192,77454,1,2,0:0:0:0:
224,192,77518,1,2,0:0:0:0:
329,192,77583,1,2,0:0:0:0:
160,192,77680,1,2,0:0:0:0:
224,192,77777,1,2,0:0:0:0:
96,192,77873,1,2,0:0:0:0:
160,192,77970,1,2,0:0:0:0:
32,192,78067,1,2,0:0:0:0:
480,192,78164,128,2,78938:0:0:0:0:
96,192,78164,1,2,0:0:0:0:
160,192,78260,1,2,0:0:0:0:
224,192,78357,1,2,0:0:0:0:
329,192,78454,1,2,0:0:0:0:
402,192,78551,1,2,0:0:0:0:
329,192,78648,1,2,0:0:0:0:
224,192,78744,1,2,0:0:0:0:
160,192,78841,1,2,0:0:0:0:
32,192,78938,128,2,79131:0:0:0:0:
329,192,78938,1,2,0:0:0:0:
288,192,79132,128,2,79325:0:0:0:0:
96,192,79325,128,2,79518:0:0:0:0:
352,192,79519,128,2,79712:0:0:0:0:
160,192,79712,1,2,0:0:0:0:
32,192,79712,128,2,80486:0:0:0:0:
224,192,79809,1,2,0:0:0:0:
329,192,79906,1,2,0:0:0:0:
402,192,80002,1,2,0:0:0:0:
475,192,80099,1,2,0:0:0:0:
402,192,80196,1,2,0:0:0:0:
329,192,80293,1,2,0:0:0:0:
256,192,80389,1,2,0:0:0:0:
182,192,80486,1,2,0:0:0:0:
96,192,80486,128,2,81260:0:0:0:0:
475,192,80680,1,2,0:0:0:0:
402,192,80744,1,2,0:0:0:0:
329,192,80809,1,2,0:0:0:0:
256,192,80873,1,2,0:0:0:0:
402,192,80938,1,2,0:0:0:0:
352,192,81002,1,2,0:0:0:0:
475,192,81067,1,2,0:0:0:0:
402,192,81164,1,2,0:0:0:0:
160,192,81260,128,2,82035:0:0:0:0:
329,192,81260,1,2,0:0:0:0:
480,192,81357,1,2,0:0:0:0:
288,192,81454,1,2,0:0:0:0:
416,192,81551,1,2,0:0:0:0:
352,192,81648,1,2,0:0:0:0:
224,192,81744,1,2,0:0:0:0:
416,192,81841,1,2,0:0:0:0:
352,192,81938,1,2,0:0:0:0:
256,192,82035,128,2,83196:0:0:0:0:
480,192,82035,1,2,0:0:0:0:
329,192,82228,1,2,0:0:0:0:
402,192,82325,1,2,0:0:0:0:
475,192,82422,1,2,0:0:0:0:
182,192,82615,1,2,0:0:0:0:
109,192,82712,1,2,0:0:0:0:
36,192,82809,1,2,0:0:0:0:
352,192,83002,1,2,0:0:0:0:
416,192,83099,1,2,0:0:0:0:
109,192,83196,128,2,83325:0:0:0:0:
480,192,83196,1,2,0:0:0:0:
352,192,83293,1,2,0:0:0:0:
36,192,83325,128,2,83454:0:0:0:0:
416,192,83389,1,2,0:0:0:0:
109,192,83454,128,2,83583:0:0:0:0:
329,192,83486,1,2,0:0:0:0:
182,192,83583,128,2,84357:0:0:0:0:
480,192,83583,1,2,0:0:0:0:
416,192,83648,1,2,0:0:0:0:
352,192,83712,1,2,0:0:0:0:
288,192,83777,1,2,0:0:0:0:
480,192,83841,1,2,0:0:0:0:
416,192,83906,1,2,0:0:0:0:
352,192,83970,1,2,0:0:0:0:
416,192,84067,1,2,0:0:0:0:
288,192,84164,1,2,0:0:0:0:
480,192,84260,1,2,0:0:0:0:
352,192,84357,1,2,0:0:0:0:
109,192,84357,128,2,84744:0:0:0:0:
416,192,84454,1,2,0:0:0:0:
480,192,84551,1,2,0:0:0:0:
416,192,84648,1,2,0:0:0:0:
160,192,84744,128,2,85131:0:0:0:0:
352,192,84744,1,2,0:0:0:0:
416,192,84841,1,2,0:0:0:0:
480,192,84938,1,2,0:0:0:0:
36,192,85131,128,2,85906:0:0:0:0:
256,192,85131,1,2,0:0:0:0:
475,192,85325,1,2,0:0:0:0:
402,192,85422,1,2,0:0:0:0:
329,192,85518,1,2,0:0:0:0:
256,192,85615,1,2,0:0:0:0:
329,192,85712,1,2,0:0:0:0:
402,192,85809,1,2,0:0:0:0:
109,192,85906,128,2,86035:0:0:0:0:
475,192,85906,1,2,0:0:0:0:
182,192,86035,128,2,86164:0:0:0:0:
288,192,86164,128,2,86293:0:0:0:0:
352,192,86293,128,2,86422:0:0:0:0:
416,192,86422,128,0,86551:0:0:0:0:
480,192,86551,128,2,86680:0:0:0:0:
32,192,86680,1,2,0:0:0:0:
329,192,86873,1,2,0:0:0:0:
109,192,86970,1,2,0:0:0:0:
402,192,87067,1,2,0:0:0:0:
182,192,87164,1,2,0:0:0:0:
475,192,87260,1,2,0:0:0:0:
256,192,87357,1,2,0:0:0:0:
32,192,87454,128,2,87648:0:0:0:0:
416,192,87454,1,2,0:0:0:0:
352,192,87551,1,2,0:0:0:0:
160,192,87648,128,2,87841:0:0:0:0:
480,192,87648,1,2,0:0:0:0:
288,192,87744,1,2,0:0:0:0:
96,192,87841,128,2,88035:0:0:0:0:
416,192,87841,1,2,0:0:0:0:
352,192,87938,1,2,0:0:0:0:
256,192,88035,128,2,88228:0:0:0:0:
480,192,88035,1,2,0:0:0:0:
352,192,88131,1,2,0:0:0:0:
160,192,88228,128,2,89002:0:0:0:0:
416,192,88228,1,2,0:0:0:0:
32,192,88228,1,2,0:0:0:0:
352,192,88422,1,2,0:0:0:0:
416,192,88518,1,2,0:0:0:0:
480,192,88615,1,2,0:0:0:0:
288,192,88809,1,2,0:0:0:0:
352,192,88906,1,2,0:0:0:0:
96,192,89002,128,2,89777:0:0:0:0:
416,192,89002,1,2,0:0:0:0:
475,192,89196,1,2,0:0:0:0:
402,192,89293,1,2,0:0:0:0:
329,192,89389,1,2,0:0:0:0:
402,192,89583,1,2,0:0:0:0:
329,192,89680,1,2,0:0:0:0:
32,192,89777,128,2,90164:0:0:0:0:
224,192,89777,1,2,0:0:0:0:
416,192,89970,1,2,0:0:0:0:
352,192,90067,1,2,0:0:0:0:
96,192,90164,128,2,90551:0:0:0:0:
288,192,90164,1,2,0:0:0:0:
480,192,90260,1,2,0:0:0:0:
416,192,90357,1,2,0:0:0:0:
352,192,90454,1,2,0:0:0:0:
160,192,90551,128,2,90938:0:0:0:0:
288,192,90551,1,2,0:0:0:0:
352,192,90648,1,2,0:0:0:0:
416,192,90744,1,2,0:0:0:0:
480,192,90841,1,2,0:0:0:0:
96,192,90938,128,2,91325:0:0:0:0:
416,192,90938,1,2,0:0:0:0:
352,192,91035,1,2,0:0:0:0:
288,192,91131,1,2,0:0:0:0:
329,192,91228,1,2,0:0:0:0:
160,192,91325,128,2,92486:0:0:0:0:
416,192,91325,1,2,0:0:0:0:
480,192,91422,1,2,0:0:0:0:
402,192,91518,1,2,0:0:0:0:
329,192,91615,1,2,0:0:0:0:
402,192,91712,1,2,0:0:0:0:
475,192,91809,1,2,0:0:0:0:
416,192,91906,1,2,0:0:0:0:
288,192,92002,1,2,0:0:0:0:
480,192,92099,1,2,0:0:0:0:
352,192,92196,1,2,0:0:0:0:
416,192,92293,1,2,0:0:0:0:
475,192,92389,1,2,0:0:0:0:
36,192,92486,128,2,92873:0:0:0:0:
352,192,92486,1,2,0:0:0:0:
416,192,92583,1,2,0:0:0:0:
480,192,92680,1,2,0:0:0:0:
416,192,92777,1,2,0:0:0:0:
182,192,92873,1,2,0:0:0:0:
109,192,92873,128,2,93648:0:0:0:0:
352,192,92873,1,2,0:0:0:0:
480,192,92970,1,2,0:0:0:0:
288,192,93067,1,2,0:0:0:0:
416,192,93164,1,2,0:0:0:0:
352,192,93260,1,2,0:0:0:0:
480,192,93357,1,2,0:0:0:0:
288,192,93454,1,2,0:0:0:0:
416,192,93551,1,2,0:0:0:0:
32,192,93648,1,2,0:0:0:0:
182,192,93648,128,2,94422:0:0:0:0:
352,192,93648,1,2,0:0:0:0:
416,192,93744,1,2,0:0:0:0:
480,192,93841,1,2,0:0:0:0:
352,192,93938,1,2,0:0:0:0:
416,192,94035,1,2,0:0:0:0:
480,192,94131,1,2,0:0:0:0:
416,192,94228,1,2,0:0:0:0:
329,192,94325,1,2,0:0:0:0:
36,192,94422,1,2,0:0:0:0:
256,192,94422,128,2,94809:0:0:0:0:
475,192,94422,1,2,0:0:0:0:
32,192,94615,1,2,0:0:0:0:
96,192,94712,1,2,0:0:0:0:
160,192,94809,1,2,0:0:0:0:
329,192,94809,128,2,95583:0:0:0:0:
109,192,94906,1,2,0:0:0:0:
36,192,95002,1,2,0:0:0:0:
109,192,95099,1,2,0:0:0:0:
182,192,95196,1,2,0:0:0:0:
36,192,95293,1,2,0:0:0:0:
96,192,95389,1,2,0:0:0:0:
160,192,95486,1,2,0:0:0:0:
288,192,95583,128,2,95970:0:0:0:0:
32,192,95583,1,2,0:0:0:0:
96,192,95680,1,2,0:0:0:0:
160,192,95777,1,2,0:0:0:0:
96,192,95873,1,2,0:0:0:0:
36,192,95970,1,2,0:0:0:0:
182,192,95970,128,2,96744:0:0:0:0:
480,192,95970,1,2,0:0:0:0:
352,192,96164,1,2,0:0:0:0:
416,192,96260,1,2,0:0:0:0:
480,192,96357,1,2,0:0:0:0:
416,192,96454,1,2,0:0:0:0:
352,192,96551,1,2,0:0:0:0:
416,192,96648,1,2,0:0:0:0:
36,192,96744,1,2,0:0:0:0:
256,192,96744,128,2,97035:0:0:0:0:
480,192,96744,1,2,0:0:0:0:
109,192,96841,1,2,0:0:0:0:
182,192,96938,1,2,0:0:0:0:
109,192,97035,1,2,0:0:0:0:
352,192,97035,128,2,97325:0:0:0:0:
36,192,97131,1,2,0:0:0:0:
182,192,97228,1,2,0:0:0:0:
109,192,97325,1,2,0:0:0:0:
416,192,97325,128,2,97518:0:0:0:0:
256,192,97422,1,2,0:0:0:0:
480,192,97518,128,2,98099:0:0:0:0:
352,192,97518,1,2,0:0:0:0:
182,192,97518,1,2,0:0:0:0:
109,192,97615,1,2,0:0:0:0:
256,192,97712,1,2,0:0:0:0:
182,192,97809,1,2,0:0:0:0:
352,192,97906,1,2,0:0:0:0:
288,192,98002,1,2,0:0:0:0:
32,192,98099,128,2,98293:0:0:0:0:
416,192,98099,1,2,0:0:0:0:
352,192,98196,1,2,0:0:0:0:
160,192,98293,128,2,98486:0:0:0:0:
480,192,98293,1,2,0:0:0:0:
288,192,98293,1,2,0:0:0:0:
416,192,98389,1,2,0:0:0:0:
96,192,98486,128,2,98680:0:0:0:0:
352,192,98486,1,2,0:0:0:0:
416,192,98583,1,2,0:0:0:0:
224,192,98680,128,2,98873:0:0:0:0:
480,192,98680,1,2,0:0:0:0:
416,192,98777,1,2,0:0:0:0:
160,192,98873,128,2,99067:0:0:0:0:
352,192,98873,1,2,0:0:0:0:
416,192,98970,1,2,0:0:0:0:
480,192,99067,128,2,100615:0:0:0:0:
32,192,99067,1,2,0:0:0:0:
96,192,99131,1,2,0:0:0:0:
160,192,99196,1,2,0:0:0:0:
224,192,99260,1,2,0:0:0:0:
329,192,99325,1,2,0:0:0:0:
402,192,99389,1,2,0:0:0:0:
36,192,99454,1,2,0:0:0:0:
109,192,99518,1,2,0:0:0:0:
182,192,99583,1,2,0:0:0:0:
288,192,99648,1,2,0:0:0:0:
352,192,99712,1,2,0:0:0:0:
416,192,99777,1,2,0:0:0:0:
36,192,99841,1,2,0:0:0:0:
109,192,99906,1,2,0:0:0:0:
182,192,99970,1,2,0:0:0:0:
256,192,100035,1,2,0:0:0:0:
329,192,100099,1,2,0:0:0:0:
402,192,100164,1,2,0:0:0:0:
329,192,100228,1,2,0:0:0:0:
224,192,100293,1,2,0:0:0:0:
160,192,100357,1,2,0:0:0:0:
224,192,100422,1,2,0:0:0:0:
160,192,100486,1,2,0:0:0:0:
96,192,100551,1,2,0:0:0:0:
32,192,100615,1,2,0:0:0:0:
416,192,100615,1,2,0:0:0:0:
36,192,101777,1,2,0:0:0:0:
109,192,101873,1,2,0:0:0:0:
182,192,101970,1,2,0:0:0:0:
288,192,102067,1,2,0:0:0:0:
160,192,102164,1,2,0:0:0:0:
352,192,102260,1,2,0:0:0:0:
96,192,102357,1,2,0:0:0:0:
416,192,102454,1,2,0:0:0:0:
160,192,102551,1,2,0:0:0:0:
288,192,102648,1,2,0:0:0:0:
352,192,102744,1,2,0:0:0:0:
416,192,102841,1,2,0:0:0:0:
96,192,102938,1,2,0:0:0:0:
224,192,103035,1,2,0:0:0:0:
160,192,103131,1,2,0:0:0:0:
329,192,103228,1,2,0:0:0:0:
224,192,103325,1,2,0:0:0:0:
402,192,103422,1,2,0:0:0:0:
182,192,103518,1,2,0:0:0:0:
329,192,103518,1,2,0:0:0:0:
109,192,103615,1,2,0:0:0:0:
32,192,103712,1,2,0:0:0:0:
480,192,103712,1,2,0:0:0:0:
109,192,103777,1,2,0:0:0:0:
182,192,103841,1,2,0:0:0:0:
288,192,103906,1,2,0:0:0:0:
352,192,103970,1,2,0:0:0:0:
416,192,104035,1,2,0:0:0:0:
480,192,104099,1,2,0:0:0:0:
224,192,104196,1,2,0:0:0:0:
416,192,104293,1,2,0:0:0:0:
96,192,104389,1,2,0:0:0:0:
288,192,104486,1,2,0:0:0:0:
224,192,104873,1,2,0:0:0:0:
160,192,104938,1,2,0:0:0:0:
96,192,105002,1,2,0:0:0:0:
36,192,105067,1,2,0:0:0:0:
182,192,105131,1,2,0:0:0:0:
109,192,105196,1,2,0:0:0:0:
36,192,105260,1,2,0:0:0:0:
475,192,105325,1,2,0:0:0:0:
402,192,105389,1,2,0:0:0:0:
329,192,105454,1,2,0:0:0:0:
224,192,105519,1,2,0:0:0:0:
160,192,105583,1,2,0:0:0:0:
96,192,105648,1,2,0:0:0:0:
160,192,105712,1,2,0:0:0:0:
224,192,105777,1,2,0:0:0:0:
329,192,105841,1,2,0:0:0:0:
402,192,105906,1,2,0:0:0:0:
475,192,105970,1,2,0:0:0:0:
402,192,106035,1,2,0:0:0:0:
329,192,106099,1,2,0:0:0:0:
224,192,106164,1,2,0:0:0:0:
160,192,106228,1,2,0:0:0:0:
480,192,106228,1,2,0:0:0:0:
32,192,106228,1,2,0:0:0:0:
224,192,106293,1,2,0:0:0:0:
329,192,106357,1,2,0:0:0:0:
402,192,106422,1,2,0:0:0:0:
329,192,106486,1,2,0:0:0:0:
224,192,106551,1,2,0:0:0:0:
160,192,106615,1,2,0:0:0:0:
480,192,106615,1,2,0:0:0:0:
32,192,106615,1,2,0:0:0:0:
329,192,106680,1,2,0:0:0:0:
182,192,106744,1,2,0:0:0:0:
352,192,106809,1,2,0:0:0:0:
480,192,106809,1,2,0:0:0:0:
32,192,106809,1,2,0:0:0:0:
416,192,107196,1,2,0:0:0:0:
352,192,107260,1,2,0:0:0:0:
288,192,107325,1,2,0:0:0:0:
182,192,107389,1,2,0:0:0:0:
109,192,107486,1,2,0:0:0:0:
256,192,107583,1,2,0:0:0:0:
182,192,107680,1,2,0:0:0:0:
109,192,107777,1,2,0:0:0:0:
160,192,107873,1,2,0:0:0:0:
224,192,107970,1,2,0:0:0:0:
329,192,108067,1,2,0:0:0:0:
224,192,108164,1,2,0:0:0:0:
160,192,108260,1,2,0:0:0:0:
96,192,108357,1,2,0:0:0:0:
480,192,108422,1,2,0:0:0:0:
416,192,108486,1,2,0:0:0:0:
352,192,108551,1,2,0:0:0:0:
288,192,108648,1,2,0:0:0:0:
32,192,108744,1,2,0:0:0:0:
96,192,108809,1,2,0:0:0:0:
160,192,108873,1,2,0:0:0:0:
224,192,108938,1,2,0:0:0:0:
480,192,109035,1,2,0:0:0:0:
160,192,109131,1,2,0:0:0:0:
416,192,109228,1,2,0:0:0:0:
96,192,109325,1,2,0:0:0:0:
352,192,109422,1,2,0:0:0:0:
32,192,109518,1,2,0:0:0:0:
288,192,109615,1,2,0:0:0:0:
416,192,109712,1,2,0:0:0:0:
96,192,109712,1,2,0:0:0:0:
160,192,109809,1,0,0:0:0:0:
480,192,109906,1,2,0:0:0:0:
32,192,109906,1,2,0:0:0:0:
224,192,109906,1,2,0:0:0:0:
109,192,110002,1,2,0:0:0:0:
352,192,110099,1,2,0:0:0:0:
416,192,110196,1,2,0:0:0:0:
480,192,110293,1,2,0:0:0:0:
109,192,110389,1,2,0:0:0:0:
352,192,110486,1,2,0:0:0:0:
416,192,110583,1,2,0:0:0:0:
480,192,110680,1,2,0:0:0:0:
109,192,111067,1,2,0:0:0:0:
182,192,111164,1,2,0:0:0:0:
288,192,111260,1,2,0:0:0:0:
352,192,111357,1,2,0:0:0:0:
109,192,111454,1,2,0:0:0:0:
182,192,111551,1,2,0:0:0:0:
256,192,111648,1,2,0:0:0:0:
352,192,111744,1,2,0:0:0:0:
416,192,111841,1,2,0:0:0:0:
224,192,111938,1,2,0:0:0:0:
352,192,112035,1,2,0:0:0:0:
182,192,112131,1,2,0:0:0:0:
288,192,112228,1,2,0:0:0:0:
109,192,112325,1,2,0:0:0:0:
475,192,112422,1,2,0:0:0:0:
32,192,112422,1,2,0:0:0:0:
329,192,112518,1,2,0:0:0:0:
109,192,112615,1,2,0:0:0:0:
402,192,112712,1,2,0:0:0:0:
480,192,112809,1,2,0:0:0:0:
32,192,112809,1,2,0:0:0:0:
182,192,112906,1,0,0:0:0:0:
480,192,113002,1,2,0:0:0:0:
32,192,113002,1,2,0:0:0:0:
402,192,113389,1,2,0:0:0:0:
329,192,113454,1,2,0:0:0:0:
224,192,113518,1,2,0:0:0:0:
109,192,113583,1,2,0:0:0:0:
182,192,113680,1,2,0:0:0:0:
402,192,113777,1,2,0:0:0:0:
352,192,113873,1,2,0:0:0:0:
288,192,113970,1,2,0:0:0:0:
182,192,114067,1,2,0:0:0:0:
109,192,114164,1,2,0:0:0:0:
182,192,114260,1,2,0:0:0:0:
288,192,114357,1,2,0:0:0:0:
352,192,114454,1,2,0:0:0:0:
416,192,114551,1,2,0:0:0:0:
32,192,114744,1,2,0:0:0:0:
96,192,114809,1,2,0:0:0:0:
160,192,114873,1,2,0:0:0:0:
329,192,114938,1,2,0:0:0:0:
402,192,115002,1,2,0:0:0:0:
475,192,115067,1,2,0:0:0:0:
109,192,115131,1,2,0:0:0:0:
182,192,115196,1,2,0:0:0:0:
329,192,115260,1,2,0:0:0:0:
402,192,115325,1,2,0:0:0:0:
32,192,115422,1,2,0:0:0:0:
288,192,115518,1,2,0:0:0:0:
96,192,115615,1,2,0:0:0:0:
352,192,115712,1,2,0:0:0:0:
160,192,115809,1,2,0:0:0:0:
416,192,115906,1,2,0:0:0:0:
32,192,115906,1,2,0:0:0:0:
224,192,116002,1,2,0:0:0:0:
32,192,116099,1,2,0:0:0:0:
480,192,116099,1,2,0:0:0:0:
480,192,116293,1,2,0:0:0:0:
416,192,116358,1,2,0:0:0:0:
352,192,116422,1,2,0:0:0:0:
288,192,116487,1,2,0:0:0:0:
182,192,116551,1,2,0:0:0:0:
109,192,116615,1,2,0:0:0:0:
36,192,116680,1,2,0:0:0:0:
475,192,116873,1,2,0:0:0:0:
352,192,116873,1,2,0:0:0:0:
416,192,116873,1,2,0:0:0:0:
32,192,117067,1,2,0:0:0:0:
96,192,117132,1,2,0:0:0:0:
160,192,117196,1,2,0:0:0:0:
224,192,117261,1,2,0:0:0:0:
329,192,117325,1,2,0:0:0:0:
402,192,117389,1,2,0:0:0:0:
475,192,117454,1,2,0:0:0:0:
96,192,117648,1,2,0:0:0:0:
36,192,117648,1,2,0:0:0:0:
160,192,117648,1,2,0:0:0:0:
475,192,117841,1,2,0:0:0:0:
402,192,117906,1,2,0:0:0:0:
329,192,117970,1,2,0:0:0:0:
224,192,118035,1,2,0:0:0:0:
160,192,118099,1,2,0:0:0:0:
96,192,118164,1,2,0:0:0:0:
32,192,118228,1,2,0:0:0:0:
96,192,118293,1,2,0:0:0:0:
182,192,118357,1,2,0:0:0:0:
109,192,118422,1,2,0:0:0:0:
182,192,118486,1,2,0:0:0:0:
256,192,118551,1,2,0:0:0:0:
182,192,118615,1,2,0:0:0:0:
256,192,118680,1,2,0:0:0:0:
329,192,118744,1,2,0:0:0:0:
256,192,118809,1,2,0:0:0:0:
329,192,118873,1,2,0:0:0:0:
402,192,118938,1,2,0:0:0:0:
329,192,119002,1,2,0:0:0:0:
109,192,119002,1,2,0:0:0:0:
402,192,119067,1,2,0:0:0:0:
475,192,119131,1,2,0:0:0:0:
182,192,119196,1,2,0:0:0:0:
32,192,119196,1,2,0:0:0:0:
224,192,119389,1,2,0:0:0:0:
160,192,119454,1,2,0:0:0:0:
96,192,119518,1,2,0:0:0:0:
32,192,119583,1,2,0:0:0:0:
96,192,119648,1,2,0:0:0:0:
160,192,119712,1,2,0:0:0:0:
224,192,119777,1,2,0:0:0:0:
475,192,119841,1,2,0:0:0:0:
402,192,119906,1,2,0:0:0:0:
329,192,119970,1,2,0:0:0:0:
36,192,120035,1,2,0:0:0:0:
109,192,120099,1,2,0:0:0:0:
182,192,120164,1,2,0:0:0:0:
475,192,120228,1,2,0:0:0:0:
402,192,120293,1,2,0:0:0:0:
329,192,120357,1,2,0:0:0:0:
96,192,120422,1,2,0:0:0:0:
160,192,120486,1,2,0:0:0:0:
224,192,120551,1,2,0:0:0:0:
32,192,120551,1,0,0:0:0:0:
352,192,120615,1,2,0:0:0:0:
416,192,120680,1,2,0:0:0:0:
480,192,120744,1,2,0:0:0:0:
32,192,120744,1,2,0:0:0:0:
224,192,120938,1,2,0:0:0:0:
329,192,121002,1,2,0:0:0:0:
402,192,121067,1,2,0:0:0:0:
475,192,121131,1,2,0:0:0:0:
402,192,121196,1,2,0:0:0:0:
329,192,121260,1,2,0:0:0:0:
224,192,121325,1,2,0:0:0:0:
36,192,121389,1,2,0:0:0:0:
96,192,121454,1,2,0:0:0:0:
182,192,121518,1,2,0:0:0:0:
475,192,121583,1,2,0:0:0:0:
402,192,121648,1,2,0:0:0:0:
329,192,121712,1,2,0:0:0:0:
36,192,121777,1,2,0:0:0:0:
109,192,121841,1,2,0:0:0:0:
182,192,121906,1,2,0:0:0:0:
402,192,121970,1,2,0:0:0:0:
329,192,122035,1,2,0:0:0:0:
256,192,122099,1,2,0:0:0:0:
480,192,122099,1,2,0:0:0:0:
160,192,122164,1,2,0:0:0:0:
109,192,122228,1,2,0:0:0:0:
480,192,122293,1,2,0:0:0:0:
32,192,122293,1,2,0:0:0:0:
480,192,122873,1,2,0:0:0:0:
352,192,122873,1,2,0:0:0:0:
96,192,123067,1,2,0:0:0:0:
160,192,123067,1,2,0:0:0:0:
32,192,123067,1,2,0:0:0:0:
416,192,123454,1,2,0:0:0:0:
288,192,123454,1,2,0:0:0:0:
96,192,123841,1,2,0:0:0:0:
160,192,123841,1,2,0:0:0:0:
32,192,123841,1,2,0:0:0:0:
224,192,124035,1,2,0:0:0:0:
329,192,124099,1,2,0:0:0:0:
402,192,124164,1,2,0:0:0:0:
475,192,124228,1,2,0:0:0:0:
402,192,124293,1,2,0:0:0:0:
329,192,124357,1,2,0:0:0:0:
224,192,124422,1,2,0:0:0:0:
160,192,124486,1,2,0:0:0:0:
96,192,124551,1,2,0:0:0:0:
36,192,124615,1,2,0:0:0:0:
109,192,124680,1,2,0:0:0:0:
182,192,124744,1,2,0:0:0:0:
256,192,124809,1,2,0:0:0:0:
329,192,124873,1,2,0:0:0:0:
402,192,124938,1,2,0:0:0:0:
475,192,125002,1,2,0:0:0:0:
402,192,125067,1,2,0:0:0:0:
329,192,125131,1,2,0:0:0:0:
224,192,125196,1,2,0:0:0:0:
160,192,125260,1,2,0:0:0:0:
96,192,125325,1,2,0:0:0:0:
480,192,125389,128,2,131583:0:0:0:0:
182,192,125389,128,2,131583:0:0:0:0:
329,192,125389,128,2,131583:0:0:0:0:
32,192,125389,128,2,131583:0:0:0:0:
