osu file format v14

[General]
AudioFilename: Iceloki - L (Lost, Loneliness, & Liberation) by Ice.mp3
AudioLeadIn: 230
PreviewTime: 219345
Countdown: 0
SampleSet: Soft
StackLeniency: 0.5
Mode: 0
LetterboxInBreaks: 0
WidescreenStoryboard: 0

[Editor]
Bookmarks: 76092,125640,139957,300274,454288,459124
DistanceSpacing: 1
BeatDivisor: 16
GridSize: 32
TimelineZoom: 2.2

[Metadata]
Title:L (Lost, Loneliness, & Liberation)
TitleUnicode:L (Lost, Loneliness, & Liberation)
Artist:Ice
ArtistUnicode:Ice
Creator:[ HalLoWeeN ]
Version:Ascension
Source:Cytus
Tags:rayark ios android chapter vii 7 loom
BeatmapID:495651
BeatmapSetID:210731

[Difficulty]
HPDrainRate:6.7
CircleSize:5
OverallDifficulty:8
ApproachRate:9
SliderMultiplier:1.8
SliderTickRate:1

[Events]
//Background and Video events
0,0,"BG.jpg",0,0
//Break Periods
2,132034,139395
//Storyboard Layer 0 (Background)
//Storyboard Layer 1 (Fail)
//Storyboard Layer 2 (Pass)
//Storyboard Layer 3 (Foreground)
//Storyboard Sound Samples

[TimingPoints]
1770,387.096774193548,4,2,1,60,1,0
1770,-200,4,2,1,60,0,0
3124,-200,4,2,1,40,0,0
7963,-200,4,2,1,60,0,0
9318,-200,4,2,1,40,0,0
14157,-200,4,2,1,50,0,0
25769,-100,4,2,1,55,0,0
26544,-100,4,2,2,60,0,0
49769,-100,4,2,2,35,0,0
50157,-100,4,2,2,40,0,0
50544,-100,4,2,2,45,0,0
50931,-100,4,2,2,50,0,0
51318,-100,4,2,2,70,0,1
51415,-100,4,2,1,55,0,0
63705,-100,4,2,2,70,0,1
63802,-100,4,2,1,55,0,0
69899,-100,4,2,2,70,0,0
69995,-100,4,2,1,55,0,0
71447,-100,4,2,2,70,0,0
71544,-100,4,2,1,55,0,0
72995,-100,4,2,2,70,0,0
73092,-100,4,2,1,55,0,0
73769,-100,4,2,2,70,0,0
73866,-100,4,2,1,55,0,0
74544,-100,4,2,2,70,0,0
74640,-100,4,2,1,55,0,0
76092,-100,4,2,2,70,0,1
76189,-100,4,2,1,55,0,0
88479,-100,4,2,2,70,0,0
88576,-100,4,2,1,55,0,0
94673,-100,4,2,2,70,0,0
94769,-100,4,2,1,55,0,0
96221,-100,4,2,2,70,0,0
96318,-100,4,2,1,55,0,0
97769,-100,4,2,2,60,0,0
100866,-100,4,2,2,50,0,0
105511,-100,4,2,2,40,0,0
106092,-100,4,2,2,30,0,0
106479,-100,4,2,2,45,0,0
106544,-100,4,2,2,35,0,0
106737,-100,4,2,2,50,0,0
106931,-100,4,2,2,60,0,0
107640,-100,4,2,2,50,0,0
108608,-100,4,2,2,55,0,0
108802,-100,4,2,2,50,0,0
108995,-100,4,2,2,55,0,0
109189,-100,4,2,2,50,0,0
109382,-100,4,2,2,55,0,0
109769,-100,4,2,2,60,0,0
110157,-100,4,2,2,55,0,0
110544,-100,4,2,2,50,0,0
111318,-100,4,2,2,30,0,0
111705,-100,4,2,2,35,0,0
112092,-100,4,2,2,40,0,0
112479,-100,4,2,2,45,0,0
112866,-100,4,2,2,50,0,0
113060,-100,4,2,2,55,0,0
113834,-100,4,2,2,50,0,0
114415,-100,4,2,2,60,0,0
114995,-100,4,2,2,25,0,0
115189,-100,4,2,2,35,0,0
115382,-100,4,2,2,45,0,0
115576,-100,4,2,2,50,0,0
115963,-100,4,2,2,55,0,0
116157,-100,4,2,2,50,0,0
116544,-100,4,2,2,40,0,0
116737,-100,4,2,2,45,0,0
116931,-100,4,2,2,40,0,0
117511,-100,4,2,2,45,0,0
117705,-100,4,2,2,40,0,0
118092,-100,4,2,2,30,0,0
118286,-100,4,2,2,35,0,0
118479,-100,4,2,2,40,0,0
118608,-100,4,2,2,45,0,0
119060,-100,4,2,2,50,0,0
119253,-100,4,2,2,55,0,0
119640,-100,4,2,2,20,0,0
119834,-100,4,2,2,25,0,0
120028,-100,4,2,2,30,0,0
120221,-100,4,2,2,35,0,0
120415,-100,4,2,2,40,0,0
120608,-100,4,2,2,50,0,0
121189,-100,4,2,2,20,0,0
121382,-100,4,2,2,25,0,0
121576,-100,4,2,2,30,0,0
121769,-100,4,2,2,35,0,0
121963,-100,4,2,2,40,0,0
122157,-100,4,2,2,50,0,0
122544,-100,4,1,2,55,0,0
122640,-100,4,1,2,30,0,0
123124,-100,4,1,2,45,0,0
123221,-100,4,1,2,30,0,0
123318,-100,4,1,2,55,0,0
123415,-100,4,1,2,30,0,0
123705,-100,4,1,2,45,0,0
123802,-100,4,1,2,30,0,0
124092,-100,4,1,2,55,0,0
124189,-100,4,1,2,30,0,0
124286,-100,4,2,2,75,0,0
124479,-100,4,2,2,55,0,0
124673,-100,4,2,2,45,0,0
124866,-100,4,2,2,40,0,0
125253,-100,4,2,2,35,0,0
125447,-100,4,2,2,30,0,0
125640,-100,4,2,2,65,0,0
126028,-100,4,2,2,60,0,0
126415,-100,4,2,2,55,0,0
126802,-100,4,2,2,50,0,0
127189,-100,4,2,2,45,0,0
127576,-100,4,2,2,40,0,0
127963,-100,4,2,2,35,0,0
128350,-100,4,2,2,30,0,0
128737,-100,4,2,2,25,0,0
129124,-100,4,2,2,20,0,0
129511,-100,4,2,2,15,0,0
129899,-100,4,2,2,10,0,0
131834,-100,4,2,10,10,0,0
139995,789.556795452153,4,2,10,70,1,0
162102,-200,4,2,10,40,0,0
162892,-200,4,2,10,25,0,0
163089,-200,4,2,10,45,0,0
164471,-200,4,2,10,50,0,0
165260,-100,4,2,10,55,0,0
171182,-133.333333333333,4,2,10,35,0,0
171478,-133.333333333333,4,2,1,10,0,0
171577,-100,4,2,10,70,0,0
184210,-100,4,2,10,75,0,0
196843,-200,4,2,20,35,0,0
197040,-200,4,2,10,35,0,0
198422,-200,4,2,20,35,0,0
198816,-200,4,2,10,35,0,0
200001,-200,4,2,30,35,0,0
200198,-200,4,2,10,35,0,0
201580,-200,4,2,30,35,0,0
201777,-200,4,2,10,35,0,0
203159,-100,4,2,10,65,0,0
222108,-100,4,2,15,85,0,0
226846,-100,4,2,16,85,0,0
228425,-100,4,2,15,85,0,0
230794,-100,4,2,16,85,0,0
231583,-100,4,2,15,85,0,0
233162,-100,4,2,16,85,0,0
236320,-100,4,2,17,85,0,0
237110,-100,4,2,15,85,0,0
238952,-100,4,2,17,85,0,0
239215,-100,4,2,15,85,0,0
241058,-100,4,2,17,85,0,0
242637,-100,4,2,10,60,0,0
243426,-100,4,2,10,70,0,0
244216,-50,4,2,18,85,0,0
247374,-66.6666666666667,4,2,10,70,0,1
260007,-100,4,2,10,55,0,0
266324,-66.6666666666667,4,2,10,70,0,1
272640,-133.333333333333,4,2,10,55,0,1
272739,-133.333333333333,4,2,10,35,0,1
275798,-200,4,2,10,50,0,0
284483,-200,4,2,10,35,0,0
285273,-200,4,2,10,65,0,0
285470,-200,4,2,10,55,0,0
285668,-200,4,2,10,45,0,0
285865,-200,4,2,10,35,0,0
286063,-200,4,2,10,45,0,0
286260,-200,4,2,10,35,0,0
286457,-200,4,2,10,25,0,0
286852,-200,4,2,10,20,0,0
287642,-200,4,2,10,65,0,0
293958,-100,4,2,10,80,0,0
294748,394.752424437807,4,2,2,55,1,0
301064,-100,4,2,3,50,0,0
313696,-100,4,2,3,55,0,0
325538,-100,4,2,2,45,0,0
326328,-100,4,2,2,50,0,0
338960,-100,4,2,2,55,0,0
342513,-100,4,2,2,65,0,0
342907,-100,4,2,2,75,0,0
343006,-100,4,2,2,65,0,0
343302,-100,4,2,2,45,0,0
343697,-100,4,2,2,40,0,0
344092,-100,4,2,2,55,0,0
348434,-100,4,1,2,25,0,0
349618,-100,4,1,2,30,0,0
350013,-100,4,2,2,50,0,0
350210,-100,4,2,2,75,0,0
351000,-100,4,2,2,60,0,0
351789,-100,4,1,2,45,0,0
357513,-100,4,1,2,35,0,0
357908,-100,4,2,2,50,0,0
358105,-100,4,2,2,65,0,0
358500,-100,4,2,2,55,0,0
358895,-100,4,2,2,65,0,0
359290,-100,4,2,2,55,0,0
359684,-100,4,2,2,70,0,0
360079,-100,4,2,2,55,0,0
360474,-100,4,2,2,65,0,0
360869,-100,4,2,2,55,0,0
361263,-100,4,2,2,50,0,0
361658,-100,4,2,2,40,0,0
361855,-100,4,2,2,30,0,0
362250,-100,4,1,2,25,0,0
362645,-100,4,2,2,50,0,0
365013,-133.333333333333,4,2,1,50,0,0
365309,-133.333333333333,4,2,1,10,0,0
365408,-100,4,2,1,50,0,0
365704,-100,4,2,1,10,0,0
365803,-100,4,2,2,50,0,0
376856,-100,4,1,2,35,0,0
378435,-83.3333333333333,4,2,2,60,0,1
391067,-100,4,2,2,60,0,1
400541,-100,4,1,2,30,0,1
402120,-133.333333333333,4,2,1,50,0,0
403699,-100,4,2,2,50,0,0
403798,-100,4,2,1,45,0,0
410015,-100,4,2,2,50,0,0
410114,-100,4,2,1,45,0,0
411594,-100,4,2,2,45,0,0
411792,-100,4,2,1,45,0,0
413173,-100,4,2,2,45,0,0
413272,-100,4,2,1,45,0,0
413963,-100,4,2,2,45,0,0
414061,-100,4,2,1,45,0,0
414752,-100,4,1,2,35,0,0
416331,-83.3333333333333,4,2,2,55,0,1
416430,-83.3333333333333,4,2,1,55,0,1
422647,-100,4,2,2,50,0,0
422746,-100,4,2,1,50,0,0
424226,-100,4,2,2,50,0,0
424325,-100,4,2,1,50,0,0
425805,-100,4,1,2,35,0,0
426595,-100,4,1,2,25,0,0
427384,-200,4,2,2,50,0,0
428470,-200,4,2,1,10,0,0
428963,-100,4,2,4,50,0,0
447911,-100,4,1,2,55,0,0
448010,-100,4,1,1,55,0,0
449490,-100,4,1,2,65,0,0
449589,-100,4,1,1,55,0,0
451069,-100,4,1,2,65,0,0
451168,-100,4,1,2,55,0,0
453043,-100,4,1,1,25,0,0
453438,-66.6666666666667,4,1,1,30,0,0
453833,-50,4,1,1,35,0,0
454227,-50,4,1,2,70,0,0
454622,-50,4,2,2,60,0,0
455017,-50,4,2,2,55,0,0
455412,-50,4,2,2,50,0,0
455806,-50,4,2,2,45,0,0
456201,-50,4,2,2,40,0,0
456596,-50,4,2,2,35,0,0
456991,-50,4,2,2,30,0,0
457385,-50,4,2,2,25,0,0
457780,-50,4,2,2,20,0,0
458175,-50,4,2,2,15,0,0
458570,-50,4,2,2,10,0,0
458965,-100,4,2,10,10,0,0

[Colours]
Combo1 : 255,128,128
Combo2 : 17,238,89
Combo3 : 136,26,179
Combo4 : 4,134,102
Combo5 : 55,26,196
Combo6 : 166,255,255
Combo7 : 255,255,102
Combo8 : 221,15,15

[HitObjects]
52,48,1770,5,6,0:0:0:0:
52,48,3124,5,2,0:0:0:0:
48,64,3221,1,2,0:0:0:0:
44,80,3318,1,2,0:0:0:0:
108,144,3705,1,2,0:0:0:0:
140,60,4092,101,2,0:0:0:0:
76,228,4479,1,2,0:0:0:0:
252,196,4866,1,2,0:0:0:0:
152,160,5447,5,2,0:0:0:0:
192,80,6415,102,0,P|132:72|71:126,1,146.25,2|0,0:0|0:0,0:0:0:0:
460,336,7963,5,6,0:0:0:0:
460,336,9317,101,2,0:0:0:0:
464,320,9414,1,2,0:0:0:0:
468,304,9511,1,2,0:0:0:0:
404,240,9898,1,2,0:0:0:0:
372,324,10285,5,2,0:0:0:0:
436,156,10672,1,2,0:0:0:0:
260,188,11059,1,2,0:0:0:0:
360,224,11640,101,2,0:0:0:0:
360,224,11834,1,2,0:0:0:0:
320,304,12608,6,0,P|380:312|439:258,1,146.25,2|0,0:0|0:0,0:0:0:0:
420,180,13576,101,2,0:0:0:0:
488,160,13769,1,2,0:0:0:0:
436,108,13963,1,2,0:0:0:0:
444,36,14157,1,6,0:0:0:0:
444,36,14931,5,2,0:0:0:0:
340,184,15318,1,2,0:0:0:0:
264,20,15705,1,2,0:0:0:0:
371,94,16286,101,0,0:0:0:0:
353,92,16382,1,0,0:0:0:0:
335,90,16479,1,2,0:0:0:0:
236,181,16866,5,2,0:0:0:0:
355,12,17253,1,2,0:0:0:0:
441,199,17640,1,2,0:0:0:0:
297,76,18028,101,2,0:0:0:0:
400,85,18415,1,2,0:0:0:0:
340,169,18802,1,2,0:0:0:0:
470,244,19576,5,2,0:0:0:0:
340,169,19866,1,2,0:0:0:0:
339,319,20157,1,2,0:0:0:0:
384,245,20350,1,6,0:0:0:0:
26,140,21124,101,2,0:0:0:0:
179,228,21414,1,2,0:0:0:0:
181,51,21705,1,2,0:0:0:0:
127,138,21898,1,6,0:0:0:0:
395,194,22673,5,2,0:0:0:0:
183,315,22963,1,2,0:0:0:0:
182,71,23254,1,2,0:0:0:0:
256,192,23447,1,6,0:0:0:0:
352,355,24028,101,2,0:0:0:0:
355,55,24608,1,2,0:0:0:0:
69,194,24995,1,2,0:0:0:0:
160,355,25769,85,6,0:0:0:0:
175,353,25834,1,2,0:0:0:0:
190,351,25899,1,2,0:0:0:0:
204,349,25963,1,2,0:0:0:0:
219,347,26028,1,2,0:0:0:0:
233,345,26092,1,2,0:0:0:0:
248,343,26157,2,0,L|275:359,5,30,2|2|2|2|2|2,0:0|0:0|0:0|0:0|0:0|0:0,0:0:0:0:
213,281,26544,6,0,L|218:228,5,30,6|0|0|0|0|0,1:2|0:0|0:0|0:0|0:0|0:0,0:0:0:0:
217,239,26931,6,0,B|174:249|174:249|107:232,1,90,0|8,0:0|0:0,0:0:0:0:
120,253,27221,1,0,0:0:0:0:
111,268,27318,2,0,L|109:168,1,90,0|8,0:0|0:0,0:0:0:0:
102,161,27608,1,0,0:0:0:0:
89,147,27705,1,0,0:0:0:0:
90,138,27802,1,0,0:0:0:0:
91,129,27899,1,10,0:0:0:0:
92,120,27995,1,2,0:0:0:0:
94,111,28092,6,0,P|71:78|-34:57,1,135,2|0,0:0|0:0,0:0:0:0:
43,59,28479,2,0,P|90:63|176:13,1,135,2|0,0:0|0:0,0:0:0:0:
174,20,28866,70,0,L|147:7,5,30,2|0|0|8|0|0,0:0|0:0|0:0|0:0|0:0|0:0,0:0:0:0:
264,22,29253,2,0,L|291:35,2,30,2|0|0,0:0|0:0|0:0,0:0:0:0:
244,36,29447,21,8,0:0:0:0:
218,61,29544,1,0,0:0:0:0:
215,86,29640,2,0,P|225:106|222:140,1,45,2|0,0:0|0:0,0:0:0:0:
208,194,29834,2,0,P|199:214|172:235,1,45,8|0,0:0|0:0,0:0:0:0:
120,266,30028,2,0,P|99:273|26:254,1,90,0|10,0:0|0:0,0:0:0:0:
31,243,30318,1,0,0:0:0:0:
28,225,30415,2,0,L|34:175,1,45
74,314,30608,2,0,L|68:364,1,45,8|0,0:0|0:0,0:0:0:0:
157,276,30802,86,0,L|163:229,5,30,0|0|0|8|0|0,0:0|0:0|0:0|0:0|0:0|0:0,0:0:0:0:
163,234,31189,22,0,B|218:248|218:248|261:237,1,90,0|8,0:0|0:0,0:0:0:0:
259,224,31479,1,0,0:0:0:0:
267,208,31576,2,0,B|262:255|262:255|287:304,1,90,0|8,0:0|0:0,0:0:0:0:
274,319,31866,1,0,0:0:0:0:
265,344,31963,1,0,0:0:0:0:
271,350,32060,1,0,0:0:0:0:
277,356,32157,1,8,0:0:0:0:
283,362,32253,1,0,0:0:0:0:
289,368,32350,1,0,0:0:0:0:
313,357,32447,1,0,0:0:0:0:
340,357,32544,2,0,P|333:325|343:300,1,45,8|0,1:2|0:0,0:0:0:0:
369,252,32737,6,0,P|389:226|449:211,1,90,2|8,1:2|0:0,0:0:0:0:
455,222,33028,1,0,0:0:0:0:
468,233,33124,2,0,P|477:207|475:170,1,45
460,124,33318,2,0,P|445:100|416:78,1,45,8|0,0:0|0:0,0:0:0:0:
376,54,33511,86,0,L|386:9,2,30,0|0|0,0:0|0:0|0:0,0:0:0:0:
357,52,33705,2,0,L|350:97,2,30,8|0|0,0:0|0:0|0:0,0:0:0:0:
339,49,33899,5,0,0:0:0:0:
321,46,33995,1,0,0:0:0:0:
303,43,34092,1,10,0:0:0:0:
285,40,34189,1,2,0:0:0:0:
267,37,34286,86,0,L|236:32,5,30,2|0|0|8|0|0,0:0|0:0|0:0|0:0|0:0|0:0,0:0:0:0:
224,32,34673,1,2,0:0:0:0:
212,34,34737,1,0,0:0:0:0:
200,38,34802,1,0,0:0:0:0:
190,43,34866,1,8,0:0:0:0:
180,50,34931,1,0,0:0:0:0:
171,58,34995,1,0,0:0:0:0:
163,68,35060,6,0,P|152:86|148:109,5,30,2|0|0|8|0|0,0:0|0:0|0:0|0:0|0:0|0:0,0:0:0:0:
222,110,35447,6,0,P|229:129|231:169,1,45,2|0,0:0|0:0,0:0:0:0:
212,218,35640,2,0,P|201:235|172:262,1,45,8|0,0:0|0:0,0:0:0:0:
123,282,35834,2,0,P|103:285|29:278,1,90,2|8,0:0|0:0,0:0:0:0:
31,261,36124,1,0,0:0:0:0:
29,243,36221,2,0,P|29:218|51:184,1,45,0|0,0:0|0:0,0:0:0:0:
122,132,36415,2,0,P|122:157|100:191,1,45,10|0,0:0|0:0,0:0:0:0:
34,118,36608,86,0,L|1:116,5,30,2|0|0|8|0|0,0:0|0:0|0:0|0:0|0:0|0:0,0:0:0:0:
98,47,36995,2,0,L|87:12,5,30,2|0|0|8|0|0,0:0|0:0|0:0|0:0|0:0|0:0,0:0:0:0:
189,75,37382,2,0,L|216:59,5,30,2|0|0|8|0|0,0:0|0:0|0:0|0:0|0:0|0:0,0:0:0:0:
228,53,37769,5,2,0:0:0:0:
238,67,37833,1,0,0:0:0:0:
251,79,37898,1,0,0:0:0:0:
266,89,37962,1,8,0:0:0:0:
283,95,38027,1,0,0:0:0:0:
301,98,38091,1,0,0:0:0:0:
319,98,38157,2,0,L|349:73,5,30,2|0|0|8|0|0,0:0|0:0|0:0|0:0|0:0|0:0,0:0:0:0:
327,130,38544,5,0,0:0:0:0:
337,164,38640,1,0,0:0:0:0:
347,198,38737,2,0,P|363:217|394:228,1,45,8|0,1:2|0:0,0:0:0:0:
510,204,38931,2,0,P|494:185|425:160,1,90,6|8,1:2|0:0,0:0:0:0:
432,148,39189,85,0,0:0:0:0:
428,136,39253,1,0,0:0:0:0:
424,124,39318,2,0,L|432:80,5,30,0|0|0|10|0|0,0:0|0:0|0:0|0:0|0:0|0:0,0:0:0:0:
364,92,39705,2,0,L|372:48,5,30,2|0|0|8|0|0,0:0|0:0|0:0|0:0|0:0|0:0,0:0:0:0:
304,64,40092,22,0,P|280:52|228:60,1,45,2|0,0:0|0:0,0:0:0:0:
196,40,40286,2,0,P|197:66|230:107,1,45,8|0,0:0|0:0,0:0:0:0:
231,145,40479,2,0,P|253:130|272:81,1,45,2|0,0:0|0:0,0:0:0:0:
192,28,40673,6,0,P|164:24|120:32,1,45,8|0,0:0|0:0,0:0:0:0:
80,31,40866,1,0,0:0:0:0:
81,48,40963,1,0,0:0:0:0:
82,65,41060,1,8,0:0:0:0:
83,82,41157,1,0,0:0:0:0:
84,99,41253,70,0,L|43:100,2,30,2|0|0,0:0|0:0|0:0,0:0:0:0:
86,115,41447,21,8,0:0:0:0:
86,133,41544,1,0,0:0:0:0:
86,150,41640,1,2,0:0:0:0:
86,167,41737,1,0,0:0:0:0:
87,185,41834,2,0,L|92:246,1,45,10|0,1:2|0:0,0:0:0:0:
51,285,42028,2,0,P|95:271|157:289,1,90,6|8,1:2|0:0,0:0:0:0:
146,285,42286,86,0,L|151:317,2,30,0|0|0,0:0|0:0|0:0,0:0:0:0:
133,179,42608,21,8,0:0:0:0:
136,161,42705,1,0,0:0:0:0:
138,143,42802,2,0,P|106:96|106:45,1,90,6|8,1:2|0:0,0:0:0:0:
94,44,43060,86,0,L|55:28,2,30,0|0|0,0:0|0:0|0:0,0:0:0:0:
199,63,43382,21,8,0:0:0:0:
216,59,43479,1,0,0:0:0:0:
233,55,43576,86,0,L|287:70,5,30,6|0|0|0|0|0,1:2|0:0|0:0|0:0|0:0|0:0,0:0:0:0:
273,66,43963,1,0,0:0:0:0:
284,69,44027,1,0,0:0:0:0:
295,74,44092,1,0,0:0:0:0:
305,80,44156,1,8,0:0:0:0:
314,88,44221,1,0,0:0:0:0:
322,97,44285,1,0,0:0:0:0:
329,107,44350,22,0,P|321:130|321:163,1,45,2|0,0:0|0:0,0:0:0:0:
387,147,44544,2,0,P|391:171|407:199,1,45,10|0,0:0|0:0,0:0:0:0:
457,154,44737,2,0,P|472:172|501:189,1,45,0|0,0:0|0:0,0:0:0:0:
424,88,44931,2,0,P|427:64|419:30,1,45,10|0,1:2|0:0,0:0:0:0:
405,214,45124,6,0,L|415:331,1,90,6|8,1:2|0:0,0:0:0:0:
404,328,45415,1,0,0:0:0:0:
396,352,45511,1,0,0:0:0:0:
377,351,45608,1,0,0:0:0:0:
358,350,45705,70,0,L|353:384,2,30,8|0|0,0:0|0:0|0:0,0:0:0:0:
339,349,45899,21,2,0:0:0:0:
321,347,45995,1,0,0:0:0:0:
302,345,46092,1,10,0:0:0:0:
283,344,46189,1,0,0:0:0:0:
264,343,46286,2,0,P|237:348|206:343,1,45,0|0,0:0|0:0,0:0:0:0:
155,325,46479,2,0,P|133:307|117:280,1,45,10|0,0:0|0:0,0:0:0:0:
201,175,46673,6,0,P|196:241|181:268,1,90,6|8,1:2|0:0,0:0:0:0:
178,251,46931,1,0,0:0:0:0:
170,241,46995,1,0,0:0:0:0:
162,231,47060,70,0,L|111:235,5,30,0|0|0|8|0|0,0:0|0:0|0:0|0:0|0:0|0:0,0:0:0:0:
82,174,47447,2,0,L|53:172,5,30,2|0|0|8|0|0,0:0|0:0|0:0|0:0|0:0|0:0,0:0:0:0:
76,98,47834,22,0,P|65:73|74:5,1,90,2|10,0:0|0:0,0:0:0:0:
82,15,48092,85,0,0:0:0:0:
93,18,48157,1,0,0:0:0:0:
104,21,48221,2,0,L|143:13,5,30,6|0|0|8|0|0,1:2|0:0|0:0|0:0|0:0|0:0,0:0:0:0:
150,101,48608,2,0,L|179:107,5,30,0|0|0|10|0|0,0:0|0:0|0:0|0:0|0:0|0:0,0:0:0:0:
144,187,48995,2,0,L|164:209,5,30,6|0|0|10|0|0,1:2|0:0|0:0|0:0|0:0|0:0,0:0:0:0:
62,214,49382,2,0,L|66:256,5,30,2|0|0|8|0|0,0:0|0:0|0:0|0:0|0:0|0:0,0:0:0:0:
69,267,49769,21,2,1:2:0:0:
89,296,49865,1,0,1:2:0:0:
119,315,49962,1,8,1:2:0:0:
154,321,50059,1,0,1:2:0:0:
189,313,50157,1,0,1:2:0:0:
215,289,50253,1,0,1:2:0:0:
246,270,50350,1,8,1:2:0:0:
280,258,50447,1,0,1:2:0:0:
315,253,50544,1,0,1:2:0:0:
351,256,50640,1,0,1:2:0:0:
386,266,50737,1,8,1:2:0:0:
417,283,50834,1,0,1:2:0:0:
442,309,50931,86,0,L|439:355,5,30,2|2|2|8|2|2,1:2|0:0|0:0|1:2|0:0|0:0,0:0:0:0:
442,344,51318,22,0,L|454:244,1,90,6|0,1:2|0:0,0:0:0:0:
451,99,51705,2,0,P|433:139|443:183,1,90,8|0,1:2|0:0,0:0:0:0:
451,186,51995,1,0,0:0:0:0:
459,189,52092,2,0,L|510:183,1,45,2|0,1:2|0:0,0:0:0:0:
386,225,52286,2,0,L|335:219,1,45,2|2,0:0|0:0,0:0:0:0:
284,256,52479,6,0,P|252:240|184:244,1,90,10|0,1:2|0:0,0:0:0:0:
192,248,52769,1,0,0:0:0:0:
188,256,52866,2,0,L|192:312,1,45,2|0,1:2|0:0,0:0:0:0:
163,363,53060,2,0,P|139:371|102:365,1,45
75,318,53253,2,0,P|63:283|88:208,1,90,8|0,1:2|0:0,0:0:0:0:
118,176,53640,101,2,1:2:0:0:
116,158,53737,1,0,0:0:0:0:
114,140,53834,1,0,0:0:0:0:
112,122,53931,1,0,0:0:0:0:
110,104,54028,86,0,L|125:76,2,30,8|0|0,1:2|0:0|0:0,0:0:0:0:
196,94,54221,2,0,L|211:66,2,30
280,87,54415,38,0,P|320:69|391:84,1,90,2|0,1:2|0:0,0:0:0:0:
427,97,54705,1,0,0:0:0:0:
427,97,54802,2,0,P|412:119|384:133,1,45,8|0,1:2|0:0,0:0:0:0:
329,138,54995,2,0,L|339:194,1,45
392,222,55189,102,0,P|345:220|303:254,1,90,0|0,1:0|0:0,0:0:0:0:
281,304,55479,1,0,0:0:0:0:
279,312,55576,2,0,L|274:203,1,90,10|2,1:2|0:0,0:0:0:0:
209,203,55866,1,0,0:0:0:0:
209,203,55963,2,0,L|260:203,1,45,2|0,1:2|0:0,0:0:0:0:
322,201,56157,86,0,L|325:238,2,30,0|0|0,0:0|0:0|0:0,0:0:0:0:
324,189,56350,1,8,1:2:0:0:
328,178,56414,1,0,0:0:0:0:
332,166,56479,1,0,0:0:0:0:
335,154,56544,1,0,0:0:0:0:
336,142,56609,1,0,0:0:0:0:
335,130,56673,1,0,0:0:0:0:
336,118,56737,22,0,P|370:130|432:112,1,90,0|0,1:2|0:0,0:0:0:0:
413,135,57028,1,0,0:0:0:0:
405,151,57124,2,0,P|398:173|399:204,1,45,8|0,1:2|0:0,0:0:0:0:
420,259,57318,2,0,P|432:278|456:297,1,45
508,324,57511,6,0,P|459:315|390:335,1,90,2|0,1:2|0:0,0:0:0:0:
366,364,57802,1,0,0:0:0:0:
366,364,57899,2,0,B|339:320|369:274,1,90,8|0,1:2|0:0,0:0:0:0:
373,273,58189,1,0,0:0:0:0:
380,268,58286,2,0,P|330:277|281:256,1,90,0|0,1:2|0:0,0:0:0:0:
260,104,58673,2,0,L|266:194,1,90,10|0,1:2|0:0,0:0:0:0:
407,61,59060,102,0,P|364:49|321:59,1,90,2|0,1:2|0:0,0:0:0:0:
333,71,59350,1,0,0:0:0:0:
344,85,59447,2,0,P|359:101|366:132,1,45,10|0,1:2|0:0,0:0:0:0:
469,112,59640,2,0,P|454:128|447:159,1,45
456,162,59834,6,0,L|451:272,1,90,2|0,1:2|0:0,0:0:0:0:
488,309,60124,1,0,0:0:0:0:
488,309,60221,2,0,L|382:302,1,90,10|0,1:2|0:0,0:0:0:0:
341,339,60511,1,0,0:0:0:0:
341,339,60608,2,0,L|349:220,1,90,2|0,1:2|0:0,0:0:0:0:
344,231,60899,1,0,0:0:0:0:
341,213,60995,2,0,P|334:189|338:157,1,45,8|0,1:2|0:0,0:0:0:0:
363,107,61189,2,0,P|341:90|311:82,1,45,2|0,0:0|0:0,0:0:0:0:
258,93,61382,101,0,1:2:0:0:
249,95,61479,1,0,0:0:0:0:
240,97,61576,1,0,0:0:0:0:
231,99,61673,1,0,0:0:0:0:
222,101,61769,2,0,P|172:110|127:90,1,90,10|0,1:2|0:0,0:0:0:0:
133,88,62060,1,0,0:0:0:0:
130,79,62157,2,0,L|135:20,1,45,2|0,1:2|0:0,0:0:0:0:
68,134,62350,86,0,L|64:105,2,30,0|0|0,0:0|0:0|0:0,0:0:0:0:
72,146,62544,21,8,1:2:0:0:
76,163,62640,1,0,0:0:0:0:
79,180,62737,1,0,0:0:0:0:
82,197,62834,1,0,0:0:0:0:
82,215,62931,2,0,P|74:268|44:318,1,90,2|0,1:2|0:0,0:0:0:0:
49,316,63221,1,0,0:0:0:0:
36,328,63318,1,8,1:2:0:0:
158,284,63511,1,0,1:2:0:0:
307,346,63705,6,0,P|263:352|209:326,1,90,6|0,1:2|0:0,0:0:0:0:
280,194,64092,2,0,L|271:284,1,90,8|0,1:2|0:0,0:0:0:0:
278,278,64382,1,0,0:0:0:0:
285,272,64479,2,0,P|308:254|334:250,1,45,2|0,1:2|0:0,0:0:0:0:
391,255,64673,2,0,P|435:269|492:253,1,90,2|10,0:0|1:2,0:0:0:0:
481,253,64963,1,0,0:0:0:0:
483,244,65060,2,0,L|481:191,1,45,2|0,0:0|0:0,0:0:0:0:
479,131,65253,102,0,B|432:148|432:148|383:137,1,90,2|0,1:2|0:0,0:0:0:0:
384,135,65544,1,0,0:0:0:0:
375,131,65640,2,0,P|349:120|314:124,1,45,8|0,1:2|0:0,0:0:0:0:
265,132,65834,2,0,P|240:139|202:132,1,45
158,110,66028,2,0,L|158:219,1,90,2|0,1:2|0:0,0:0:0:0:
142,222,66318,1,0,0:0:0:0:
125,243,66415,1,8,1:2:0:0:
126,251,66511,1,0,0:0:0:0:
127,259,66608,1,0,0:0:0:0:
128,267,66705,1,0,0:0:0:0:
129,275,66802,6,0,L|25:284,1,90,2|0,1:2|0:0,0:0:0:0:
33,265,67092,1,0,0:0:0:0:
29,247,67189,2,0,P|25:222|22:186,2,45,8|0|0,1:2|0:0|0:0,0:0:0:0:
66,8,67576,2,0,P|78:51|65:94,1,90,0|0,1:2|0:0,0:0:0:0:
57,98,67866,1,0,0:0:0:0:
49,102,67963,2,0,L|171:98,1,90,10|2,1:2|0:0,0:0:0:0:
155,106,68253,1,0,0:0:0:0:
171,113,68350,2,0,P|200:119|242:102,1,45,2|0,1:2|0:0,0:0:0:0:
249,56,68544,2,0,L|237:12,1,45
259,66,68737,101,8,1:2:0:0:
275,71,68833,1,0,0:0:0:0:
288,84,68930,1,0,0:0:0:0:
293,101,69027,1,0,0:0:0:0:
292,119,69124,2,0,P|275:155|211:175,1,90,2|0,1:2|0:0,0:0:0:0:
69,188,69511,1,8,1:2:0:0:
107,346,69705,1,0,1:2:0:0:
262,299,69899,6,0,B|305:290|305:290|367:304,1,90,6|0,1:2|0:0,0:0:0:0:
365,309,70189,1,0,0:0:0:0:
380,318,70286,2,0,L|380:256,1,45,10|0,1:2|0:0,0:0:0:0:
387,205,70479,101,0,0:0:0:0:
383,196,70576,1,0,0:0:0:0:
379,187,70673,2,0,P|383:162|375:130,1,45,0|0,1:2|0:0,0:0:0:0:
341,87,70866,5,0,0:0:0:0:
332,89,70963,1,0,0:0:0:0:
323,91,71060,2,0,P|293:100|263:90,1,45,10|0,1:2|0:0,0:0:0:0:
215,76,71253,2,0,L|160:66,1,45
121,20,71447,102,0,B|134:81|134:81|114:119,1,90,6|0,1:2|0:0,0:0:0:0:
108,118,71737,1,0,0:0:0:0:
96,131,71834,2,0,L|94:186,1,45,10|0,1:2|0:0,0:0:0:0:
64,237,72028,1,0,0:0:0:0:
65,245,72124,1,0,0:0:0:0:
66,253,72221,2,0,P|103:241|180:267,1,90,2|0,1:2|0:0,0:0:0:0:
164,319,72511,1,0,0:0:0:0:
164,319,72608,2,0,L|166:261,1,45,10|0,1:2|0:0,0:0:0:0:
151,160,72802,2,0,L|149:218,1,45,0|0,1:0|0:0,0:0:0:0:
214,228,72995,5,6,1:2:0:0:
222,228,73091,1,0,0:0:0:0:
231,229,73188,1,0,0:0:0:0:
240,230,73285,1,0,0:0:0:0:
249,231,73382,1,8,1:2:0:0:
258,232,73478,1,0,0:0:0:0:
267,233,73575,1,0,0:0:0:0:
276,234,73672,1,0,0:0:0:0:
285,235,73769,101,6,1:2:0:0:
284,217,73865,1,0,0:0:0:0:
283,199,73962,1,0,0:0:0:0:
281,181,74059,1,0,0:0:0:0:
280,163,74156,1,10,1:2:0:0:
279,145,74252,1,0,0:0:0:0:
278,127,74349,1,0,1:2:0:0:
276,109,74446,1,0,0:0:0:0:
275,91,74544,5,6,1:2:0:0:
289,113,74640,1,0,0:0:0:0:
301,137,74737,1,0,1:0:0:0:
308,164,74834,1,0,0:0:0:0:
310,190,74931,1,8,1:2:0:0:
309,217,75027,1,0,0:0:0:0:
303,244,75124,1,0,1:0:0:0:
292,268,75221,1,0,0:0:0:0:
278,291,75318,101,0,1:2:0:0:
251,268,75414,1,0,0:0:0:0:
217,255,75511,1,0,1:0:0:0:
181,253,75608,1,0,0:0:0:0:
147,263,75705,1,8,1:2:0:0:
111,288,75801,1,0,1:0:0:0:
66,290,75898,1,0,1:0:0:0:
28,267,75995,1,0,1:0:0:0:
10,226,76092,6,0,L|8:125,1,90,6|0,1:2|0:0,0:0:0:0:
148,84,76479,2,0,P|104:75|62:87,1,90,8|0,1:2|0:0,0:0:0:0:
77,98,76769,1,0,0:0:0:0:
92,107,76866,2,0,L|96:209,1,90,0|0,1:2|0:0,0:0:0:0:
93,215,77157,1,0,0:0:0:0:
89,232,77253,2,0,P|81:263|62:290,1,45,8|0,1:2|0:0,0:0:0:0:
32,327,77447,2,0,L|110:325,1,45
143,314,77640,1,2,1:2:0:0:
159,320,77737,1,0,0:0:0:0:
175,326,77834,1,0,0:0:0:0:
328,349,78028,102,0,P|285:361|242:351,1,90,8|0,1:2|0:0,0:0:0:0:
234,325,78318,1,0,0:0:0:0:
250,303,78415,1,2,1:2:0:0:
250,285,78511,1,0,0:0:0:0:
249,266,78608,2,0,L|242:208,1,45
231,147,78802,2,0,P|233:118|249:93,1,45,8|0,1:2|0:0,0:0:0:0:
288,57,78995,1,0,0:0:0:0:
305,61,79092,1,0,0:0:0:0:
322,65,79189,6,0,P|351:74|387:68,1,45,2|0,1:2|0:0,0:0:0:0:
482,99,79382,2,0,P|453:108|417:102,1,45,2|0,0:0|0:0,0:0:0:0:
307,134,79576,2,0,P|339:144|380:137,1,45,10|0,1:2|0:0,0:0:0:0:
488,172,79769,2,0,P|455:182|414:175,1,45,2|0,0:0|0:0,0:0:0:0:
288,200,79963,102,0,P|332:216|380:212,1,90,2|2,1:2|0:0,0:0:0:0:
384,200,80253,1,2,0:0:0:0:
384,200,80350,2,0,L|376:296,1,90,10|2,1:2|0:0,0:0:0:0:
412,344,80640,1,2,0:0:0:0:
412,344,80737,2,0,P|364:328|296:340,1,90,2|0,1:2|0:0,0:0:0:0:
316,340,80995,85,0,0:0:0:0:
308,348,81060,1,0,0:0:0:0:
298,355,81124,1,8,1:2:0:0:
286,359,81189,1,0,0:0:0:0:
274,360,81253,1,0,0:0:0:0:
262,357,81318,2,0,L|213:348,1,45
140,378,81511,22,0,L|143:266,1,90,2|0,1:2|0:0,0:0:0:0:
55,107,81899,2,0,L|57:196,1,90,8|0,1:2|0:0,0:0:0:0:
52,214,82189,1,0,0:0:0:0:
46,231,82286,2,0,B|83:216|83:216|151:220,1,90,2|0,1:2|0:0,0:0:0:0:
198,205,82576,1,0,0:0:0:0:
197,205,82673,2,0,P|185:177|120:158,1,90,8|0,1:2|0:0,0:0:0:0:
139,138,82963,1,0,0:0:0:0:
145,121,83060,2,0,P|159:108|186:97,1,45,0|0,1:2|0:0,0:0:0:0:
265,15,83253,2,0,P|251:28|224:39,1,45,0|0,0:0|0:0,0:0:0:0:
252,101,83447,5,10,1:2:0:0:
333,171,83640,1,2,0:0:0:0:
338,153,83737,1,2,0:0:0:0:
342,135,83834,70,0,L|337:88,5,30,2|0|0|0|0|0,1:2|0:0|0:0|0:0|0:0|0:0,0:0:0:0:
413,125,84221,22,0,P|414:155|400:197,1,45,8|0,1:2|0:0,0:0:0:0:
377,276,84415,2,0,P|376:246|390:204,1,45
448,245,84608,1,2,1:2:0:0:
446,240,84705,1,0,0:0:0:0:
444,235,84802,1,0,0:0:0:0:
442,230,84899,1,0,0:0:0:0:
440,225,84995,2,0,L|332:213,1,90,10|2,1:2|0:0,0:0:0:0:
288,240,85286,1,0,0:0:0:0:
288,240,85382,6,0,P|284:192|327:151,1,90,2|2,1:2|0:0,0:0:0:0:
396,84,85673,1,0,0:0:0:0:
398,64,85769,2,0,P|358:91|301:74,1,90,10|2,1:2|0:0,0:0:0:0:
303,77,86060,1,2,0:0:0:0:
287,67,86157,2,0,P|260:50|232:46,1,45,2|0,1:2|0:0,0:0:0:0:
176,33,86350,2,0,P|144:29|117:37,1,45,2|2,0:0|0:0,0:0:0:0:
71,71,86544,70,0,P|60:41|70:-1,2,60,2|2|2,1:2|0:0|0:0,0:0:0:0:
57,137,86931,22,0,L|59:233,1,90,2|0,1:2|0:0,0:0:0:0:
59,299,87318,1,8,1:2:0:0:
53,316,87415,1,0,0:0:0:0:
47,333,87511,2,0,L|-5:331,1,45
124,325,87705,6,0,P|150:308|177:309,1,45,2|0,1:2|0:0,0:0:0:0:
179,240,87899,2,0,P|208:248|225:270,1,45,2|0,0:0|0:0,0:0:0:0:
278,227,88092,2,0,P|290:255|284:281,1,45,10|0,1:2|0:0,0:0:0:0:
354,288,88286,2,0,P|339:315|316:328,1,45,2|0,1:2|0:0,0:0:0:0:
415,313,88479,102,0,P|394:265|412:199,1,90,6|0,1:2|0:0,0:0:0:0:
463,100,88866,2,0,L|465:198,1,90,8|0,1:2|0:0,0:0:0:0:
451,177,89157,1,0,0:0:0:0:
437,164,89253,2,0,B|366:159|366:159|389:143,1,90,2|0,1:2|0:0,0:0:0:0:
288,45,89640,2,0,P|331:31|395:40,1,90,8|0,1:2|0:0,0:0:0:0:
370,51,89931,1,0,0:0:0:0:
365,68,90028,2,0,P|348:92|327:102,1,45,2|0,1:2|0:0,0:0:0:0:
262,105,90221,2,0,P|241:93|230:75,1,45
198,10,90415,6,0,L|93:17,1,90,8|0,1:2|0:0,0:0:0:0:
46,105,90802,1,2,1:2:0:0:
63,102,90899,1,0,0:0:0:0:
80,99,90995,1,0,0:0:0:0:
97,96,91092,1,0,0:0:0:0:
114,93,91189,2,0,P|123:118|123:143,1,45,10|0,1:2|0:0,0:0:0:0:
94,202,91382,2,0,P|80:224|61:241,1,45,2|0,0:0|0:0,0:0:0:0:
8,280,91576,102,0,L|119:281,1,90,2|0,1:2|0:0,0:0:0:0:
264,352,91963,2,0,L|153:351,1,90,8|0,1:2|0:0,0:0:0:0:
185,337,92253,1,0,0:0:0:0:
196,323,92350,2,0,P|210:304|213:275,1,45,0|0,1:2|0:0,0:0:0:0:
206,210,92544,2,0,P|200:187|180:166,1,45
137,118,92737,1,10,1:2:0:0:
139,100,92834,1,0,0:0:0:0:
142,82,92931,1,2,0:0:0:0:
145,64,93028,1,0,0:0:0:0:
148,46,93124,6,0,L|85:49,1,45,2|0,1:2|0:0,0:0:0:0:
252,84,93318,2,0,L|207:86,1,45,2|0,0:0|0:0,0:0:0:0:
340,23,93511,2,0,L|277:26,1,45,10|0,1:2|0:0,0:0:0:0:
444,61,93705,2,0,L|399:63,1,45,2|0,0:0|0:0,0:0:0:0:
340,107,93899,101,2,1:2:0:0:
342,124,93995,1,0,0:0:0:0:
344,141,94092,1,0,0:0:0:0:
346,158,94189,1,0,0:0:0:0:
347,175,94286,2,0,P|353:203|369:229,1,45,8|0,1:2|0:0,0:0:0:0:
404,274,94479,2,0,P|423:295|450:309,1,45,0|0,1:0|0:0,0:0:0:0:
486,357,94673,6,0,P|436:348|389:360,1,90,6|0,1:2|0:0,0:0:0:0:
259,316,95060,1,10,1:2:0:0:
273,326,95157,2,0,P|298:332|317:326,1,45
266,243,95350,1,0,0:0:0:0:
249,241,95447,2,0,P|224:247|210:261,1,45,0|0,1:2|0:0,0:0:0:0:
186,328,95640,1,0,0:0:0:0:
168,331,95737,1,0,0:0:0:0:
150,335,95834,2,0,L|50:325,1,90,10|0,1:2|1:0,0:0:0:0:
52,103,96221,102,0,L|43:192,1,90,6|0,1:2|0:0,0:0:0:0:
45,201,96511,1,0,0:0:0:0:
47,209,96608,1,8,1:2:0:0:
49,217,96705,1,0,0:0:0:0:
75,217,96801,1,0,0:0:0:0:
101,208,96898,1,0,0:0:0:0:
121,191,96995,1,2,1:2:0:0:
135,168,97092,1,0,0:0:0:0:
139,141,97189,2,0,L|134:89,1,45,0|2,1:2|0:0,0:0:0:0:
86,0,97382,2,0,L|80:44,1,45,8|0,1:2|0:0,0:0:0:0:
14,110,97576,2,0,L|58:115,1,45,2|0,1:2|0:0,0:0:0:0:
210,23,97769,5,6,1:2:0:0:
296,51,97963,1,0,1:2:0:0:
210,168,98157,1,0,1:2:0:0:
295,141,98350,1,0,1:2:0:0:
157,95,98544,102,0,L|101:103,1,45,6|0,1:2|0:0,0:0:0:0:
61,152,98737,1,2,1:2:0:0:
262,347,98930,1,0,1:2:0:0:
95,317,99124,1,2,1:2:0:0:
352,204,99318,6,0,L|409:197,1,45,6|0,1:2|1:0,0:0:0:0:
512,159,99511,2,0,L|455:151,1,45,0|0,1:2|1:0,0:0:0:0:
337,132,99705,102,0,L|393:124,1,45,2|0,1:2|1:0,0:0:0:0:
497,87,99898,2,0,L|440:79,1,45,0|0,1:2|1:0,0:0:0:0:
382,62,100092,5,2,1:2:0:0:
364,58,100189,1,0,1:0:0:0:
346,54,100286,1,0,1:0:0:0:
328,50,100382,1,0,1:0:0:0:
309,48,100479,102,0,L|241:61,1,45,0|0,1:0|1:0,0:0:0:0:
145,30,100673,2,0,L|213:17,1,45,0|0,1:0|1:0,0:0:0:0:
192,97,100866,5,4,0:0:0:0:
136,22,102028,101,2,0:0:0:0:
132,39,102124,1,0,0:0:0:0:
127,56,102221,1,0,0:0:0:0:
122,73,102318,1,0,0:0:0:0:
117,90,102415,2,0,L|104:141,3,45,2|0|0|0,0:0|0:0|0:0|0:0,0:0:0:0:
177,142,102802,2,0,L|164:193,3,45,2|0|0|0,0:0|0:0|0:0|0:0,0:0:0:0:
236,200,103189,5,2,0:0:0:0:
229,226,103286,1,0,0:0:0:0:
222,252,103382,1,0,0:0:0:0:
215,278,103479,1,0,0:0:0:0:
208,304,103576,1,2,0:0:0:0:
219,328,103673,1,0,0:0:0:0:
240,343,103769,1,0,1:0:0:0:
266,348,103866,1,0,0:0:0:0:
292,343,103963,70,0,L|298:310,5,30,2|2|2|2|2|0,1:2|0:0|0:0|0:0|0:0|0:0,0:0:0:0:
310,242,104350,22,0,L|314:304,1,45,2|0,0:0|0:0,0:0:0:0:
364,348,104544,2,0,P|391:357|426:353,1,45,2|0,0:0|0:0,0:0:0:0:
481,325,104737,1,2,0:0:0:0:
492,204,105124,86,0,L|546:200,2,30,2|2|2,0:0|0:0|0:0,0:0:0:0:
490,186,105318,2,0,L|436:190,2,30,2|2|2,0:0|0:0|0:0,0:0:0:0:
490,168,105511,5,2,0:0:0:0:
489,149,105576,1,2,0:0:0:0:
489,131,105640,1,2,0:0:0:0:
486,113,105705,1,2,0:0:0:0:
480,96,105769,1,2,0:0:0:0:
471,80,105834,1,2,0:0:0:0:
459,66,105898,1,2,0:0:0:0:
446,54,105963,1,2,0:0:0:0:
430,45,106027,1,2,0:0:0:0:
414,39,106092,1,2,0:0:0:0:
396,35,106156,1,2,0:0:0:0:
378,35,106221,1,2,0:0:0:0:
361,41,106286,1,2,0:0:0:0:
337,59,106350,1,2,0:0:0:0:
335,89,106415,1,2,0:0:0:0:
333,118,106479,1,2,1:2:0:0:
318,128,106543,1,2,0:0:0:0:
301,134,106608,1,2,0:0:0:0:
283,137,106672,1,2,0:0:0:0:
265,135,106737,102,0,L|259:99,2,30,2|2|2,0:0|0:0|1:2,0:0:0:0:
247,132,106931,2,0,L|253:168,2,30,2|2|6,0:0|0:0|1:2,0:0:0:0:
122,59,107447,6,0,L|97:41,2,30,2|2|2,0:0|0:0|0:0,0:0:0:0:
124,76,107640,5,0,0:0:0:0:
126,93,107737,1,0,0:0:0:0:
128,110,107834,2,0,L|136:161,1,45,2|0,0:0|0:0,0:0:0:0:
65,156,108028,2,0,L|73:207,1,45
140,224,108221,1,2,0:0:0:0:
142,241,108318,1,0,0:0:0:0:
144,258,108415,1,0,0:0:0:0:
146,275,108511,1,0,0:0:0:0:
148,292,108608,86,0,L|192:286,2,30,2|2|2,0:0|0:0|0:0,0:0:0:0:
106,351,108802,22,0,P|89:357|59:358,1,45
34,240,108995,86,0,L|26:205,2,30,2|2|2,0:0|0:0|0:0,0:0:0:0:
32,258,109189,21,0,0:0:0:0:
30,275,109286,1,0,0:0:0:0:
28,292,109382,1,2,0:0:0:0:
60,305,109478,1,0,0:0:0:0:
96,303,109575,1,0,0:0:0:0:
126,284,109672,1,0,0:0:0:0:
145,254,109769,1,2,0:0:0:0:
148,218,109866,1,0,0:0:0:0:
123,193,109962,1,0,1:2:0:0:
112,159,110059,1,0,0:0:0:0:
118,124,110156,5,6,1:2:0:0:
149,106,110253,1,0,0:0:0:0:
180,87,110350,1,0,0:0:0:0:
211,68,110447,1,0,0:0:0:0:
231,133,110544,101,2,0:0:0:0:
266,129,110641,1,0,0:0:0:0:
303,125,110738,1,0,0:0:0:0:
339,120,110835,1,0,0:0:0:0:
374,117,110931,1,2,0:0:0:0:
480,20,111318,5,2,0:0:0:0:
479,29,111415,1,0,0:0:0:0:
478,37,111511,1,0,0:0:0:0:
477,46,111608,1,0,0:0:0:0:
451,71,111705,101,2,0:0:0:0:
451,89,111802,1,0,0:0:0:0:
452,107,111899,1,0,0:0:0:0:
453,124,111995,1,0,0:0:0:0:
490,162,112092,5,2,0:0:0:0:
487,188,112189,1,0,0:0:0:0:
484,214,112286,1,0,0:0:0:0:
481,240,112382,1,0,0:0:0:0:
439,287,112479,101,2,0:0:0:0:
407,303,112575,1,0,0:0:0:0:
371,306,112672,1,0,1:2:0:0:
338,294,112769,1,0,0:0:0:0:
304,230,112866,5,2,0:0:0:0:
259,226,112962,1,0,0:0:0:0:
219,244,113059,1,0,1:2:0:0:
194,281,113156,1,0,0:0:0:0:
190,325,113253,1,6,1:2:0:0:
269,302,113640,70,0,L|300:340,2,30,2|2|2,0:0|0:0|0:0,0:0:0:0:
266,284,113834,21,2,0:0:0:0:
263,266,113931,1,0,0:0:0:0:
260,248,114028,1,2,0:0:0:0:
234,223,114124,1,0,0:0:0:0:
200,211,114221,1,0,0:0:0:0:
164,214,114318,1,0,0:0:0:0:
133,232,114415,1,2,0:0:0:0:
115,262,114511,1,0,0:0:0:0:
83,279,114608,1,0,0:0:0:0:
48,277,114705,1,0,0:0:0:0:
18,257,114802,1,2,0:0:0:0:
68,172,114995,86,0,L|56:136,2,30,2|2|2,0:0|0:0|0:0,0:0:0:0:
118,112,115189,2,0,L|119:74,2,30,2|2|2,0:0|0:0|0:0,0:0:0:0:
187,79,115382,2,0,L|200:43,2,30,2|2|2,0:0|0:0|0:0,0:0:0:0:
263,81,115576,21,2,0:0:0:0:
296,92,115672,1,0,0:0:0:0:
320,118,115769,1,0,0:0:0:0:
329,153,115866,1,0,0:0:0:0:
325,189,115963,1,2,0:0:0:0:
333,223,116059,1,0,0:0:0:0:
358,248,116156,1,0,1:2:0:0:
392,258,116253,1,0,0:0:0:0:
427,250,116350,1,6,1:2:0:0:
418,160,116544,86,0,L|452:134,2,30,2|2|2,0:0|0:0|0:0,0:0:0:0:
314,193,116737,2,0,L|280:219,2,30,2|2|2,0:0|0:0|0:0,0:0:0:0:
338,82,116931,22,0,L|379:51,1,45,2|0,0:0|0:0,0:0:0:0:
237,120,117124,1,6,1:2:0:0:
56,80,117318,102,0,L|22:106,2,30,2|2|2,0:0|0:0|0:0,0:0:0:0:
160,47,117511,2,0,L|194:21,2,30,2|2|2,0:0|0:0|0:0,0:0:0:0:
136,158,117705,22,0,L|95:189,1,45,2|0,0:0|0:0,0:0:0:0:
237,120,117898,1,6,1:2:0:0:
253,218,118092,70,0,L|219:244,2,30,2|2|2,0:0|0:0|0:0,0:0:0:0:
268,208,118286,1,2,0:0:0:0:
276,223,118350,1,2,0:0:0:0:
288,237,118415,1,2,0:0:0:0:
302,248,118479,1,2,0:0:0:0:
318,255,118544,1,2,0:0:0:0:
336,259,118608,1,2,0:0:0:0:
354,259,118673,1,2,0:0:0:0:
371,255,118737,1,2,0:0:0:0:
388,247,118802,1,2,0:0:0:0:
402,236,118866,1,2,0:0:0:0:
413,222,118931,1,2,0:0:0:0:
422,206,118995,1,2,0:0:0:0:
426,189,119060,1,2,0:0:0:0:
427,171,119124,1,2,0:0:0:0:
424,153,119189,1,2,0:0:0:0:
417,137,119253,1,2,1:2:0:0:
406,122,119318,1,2,0:0:0:0:
393,110,119382,1,2,0:0:0:0:
378,101,119447,1,6,1:2:0:0:
345,175,119640,6,0,L|315:149,2,30,2|2|2,0:0|0:0|0:0,0:0:0:0:
257,199,119834,2,0,L|227:173,2,30,2|2|2,0:0|0:0|0:0,0:0:0:0:
267,96,120028,2,0,L|237:70,2,30,2|2|2,0:0|0:0|0:0,0:0:0:0:
179,120,120222,2,0,L|149:94,2,30,2|2|2,0:0|0:0|0:0,0:0:0:0:
150,210,120415,2,0,L|120:184,2,30,2|2|2,0:0|0:0|0:0,0:0:0:0:
156,226,120608,1,2,0:0:0:0:
162,242,120673,1,2,0:0:0:0:
168,258,120737,1,2,0:0:0:0:
174,274,120802,1,2,1:2:0:0:
180,290,120866,1,2,0:0:0:0:
186,306,120931,1,2,0:0:0:0:
192,322,120995,1,6,1:2:0:0:
293,283,121189,102,0,L|331:287,2,30,2|2|2,0:0|0:0|0:0,0:0:0:0:
332,220,121382,2,0,L|368:207,2,30,2|2|2,0:0|0:0|0:0,0:0:0:0:
337,147,121576,2,0,L|364:120,2,30,2|2|2,0:0|0:0|0:0,0:0:0:0:
305,86,121769,2,0,L|318:50,2,30,2|2|2,0:0|0:0|0:0,0:0:0:0:
243,47,121963,2,0,L|240:8,2,30,2|2|2,0:0|0:0|0:0,0:0:0:0:
235,63,122157,1,2,0:0:0:0:
224,77,122221,1,2,0:0:0:0:
211,89,122286,1,2,0:0:0:0:
196,99,122350,1,2,1:2:0:0:
179,106,122415,1,2,0:0:0:0:
161,109,122479,1,2,0:0:0:0:
143,109,122544,22,0,L|75:97,7,45,6|0|0|0|0|0|2|0,0:2|0:0|0:0|0:0|0:0|0:0|0:2|0:0,0:0:0:0:
93,182,123318,2,0,L|24:169,7,45,6|0|0|0|2|0|0|0,0:2|0:0|0:0|0:0|0:2|0:0|0:0|0:0,0:0:0:0:
183,179,124092,2,0,L|251:191,1,45,6|0,0:2|0:0,0:0:0:0:
139,254,124286,86,0,L|192:264,2,30,2|2|2,0:0|0:0|0:0,0:0:0:0:
224,312,124479,2,0,L|277:322,2,30,2|2|2,0:0|0:0|0:0,0:0:0:0:
239,239,124673,2,0,L|292:249,2,30,2|2|2,0:0|0:0|0:0,0:0:0:0:
293,247,124866,5,2,0:0:0:0:
310,247,124930,1,2,0:0:0:0:
327,241,124995,1,2,0:0:0:0:
341,229,125059,1,2,0:0:0:0:
351,214,125124,1,2,0:0:0:0:
354,197,125188,1,2,0:0:0:0:
352,179,125253,22,0,P|351:155|339:121,1,45,2|2,0:0|0:0,0:0:0:0:
188,128,125447,2,0,P|182:149|181:172,1,45,2|2,0:0|0:0,0:0:0:0:
265,158,125640,101,6,1:2:0:0:
256,192,125737,12,0,131834,0:0:0:0:
194,119,139995,22,0,P|181:80|54:62,1,180,12|0,0:0|0:0,0:0:0:0:
109,127,141080,1,2,0:0:0:0:
112,194,141376,1,2,0:0:0:0:
116,261,141574,2,0,P|73:271|32:320,1,101.25,2|2,0:0|0:0,0:0:0:0:
190,255,142363,2,0,P|172:214|120:191,1,101.25,2|2,0:0|0:0,0:0:0:0:
154,324,143153,6,0,B|260:351|215:293|332:324,2,180,2|2|0,0:0|0:0|0:0,0:0:0:0:
109,262,145521,1,2,0:0:0:0:
75,178,145916,1,2,0:0:0:0:
164,191,146311,1,10,0:0:0:0:
133,106,146706,1,0,0:0:0:0:
223,112,147101,102,0,P|218:68|189:35,1,90
259,174,147890,2,0,P|288:141|295:97,1,90,2|0,0:0|0:0,0:0:0:0:
233,243,148680,2,0,P|277:244|315:222,1,90,2|0,0:0|0:0,0:0:0:0:
463,134,149469,2,0,P|418:132|380:154,1,90,6|0,0:0|0:0,0:0:0:0:
446,216,150259,1,0,0:0:0:0:
427,280,150555,1,0,0:0:0:0:
427,280,150654,2,0,L|374:279,1,45,2|0,0:0|0:0,0:0:0:0:
316,305,151048,5,2,0:0:0:0:
172,317,151443,1,2,0:0:0:0:
116,184,151838,1,2,0:0:0:0:
224,89,152233,1,2,0:0:0:0:
348,164,152627,102,0,L|446:158,1,90,14|0,0:0|0:0,0:0:0:0:
316,92,153417,2,0,L|414:86,1,90,2|2,0:0|0:0,0:0:0:0:
272,30,154207,2,0,P|249:49|241:118,1,90,2|0,0:0|0:0,0:0:0:0:
266,199,154996,1,0,0:0:0:0:
138,154,155292,1,0,0:0:0:0:
138,154,155391,2,0,L|134:217,1,45,2|0,0:0|0:0,0:0:0:0:
97,260,155786,6,0,P|122:250|185:250,1,90,6|0,0:0|0:0,0:0:0:0:
290,347,156575,2,0,B|349:357|332:335|391:349,2,90,2|2|2,0:0|0:0|0:0,0:0:0:0:
147,321,157760,1,0,0:0:0:0:
43,221,158154,37,2,0:0:0:0:
60,196,158286,1,2,0:0:0:0:
59,166,158417,1,2,0:0:0:0:
11,108,158549,5,2,0:0:0:0:
10,78,158680,1,2,0:0:0:0:
27,53,158812,1,2,0:0:0:0:
83,96,158944,38,0,B|119:104|119:104|187:99,1,90,14|0,0:0|0:0,0:0:0:0:
261,89,159733,1,0,0:0:0:0:
261,89,160128,1,2,0:0:0:0:
261,89,160523,2,0,B|268:147|241:127|253:188,1,90,2|0,0:0|0:0,0:0:0:0:
276,263,161313,53,2,0:0:0:0:
305,257,161444,1,2,0:0:0:0:
332,268,161576,1,2,0:0:0:0:
371,332,161707,5,2,0:0:0:0:
398,343,161839,1,2,0:0:0:0:
427,337,161970,1,2,0:0:0:0:
403,268,162102,54,0,B|428:183|365:183|406:90,1,180,14|0,0:0|0:0,0:0:0:0:
413,89,164076,1,0,0:0:0:0:
420,83,164471,1,0,0:0:0:0:
427,77,164866,1,0,0:0:0:0:
434,71,165260,102,0,L|327:71,1,90,8|0,0:0|0:0,0:0:0:0:
253,72,166050,5,2,0:0:0:0:
163,72,166444,1,0,0:0:0:0:
51,161,166839,101,2,0:0:0:0:
212,161,167233,1,0,0:0:0:0:
380,264,167629,5,2,0:0:0:0:
138,264,168023,1,0,0:0:0:0:
256,358,168419,102,0,L|256:263,1,90,8|0,0:0|0:0,0:0:0:0:
177,224,169208,5,2,0:0:0:0:
177,314,169602,1,0,0:0:0:0:
344,266,169998,101,2,0:0:0:0:
344,86,170392,1,0,0:0:0:0:
54,42,170787,5,2,0:0:0:0:
54,348,171182,2,0,L|119:343,1,50.6250019311906,4|0,0:0|0:0,0:0:0:0:
121,342,171577,102,0,P|155:351|215:322,1,90,12|0,0:0|0:0,0:0:0:0:
260,261,172366,1,0,0:0:0:0:
249,171,172761,1,0,0:0:0:0:
85,221,173156,6,0,P|129:230|172:218,1,90,2|0,0:0|0:0,0:0:0:0:
123,142,173945,2,0,P|135:99|126:55,1,90,2|0,0:0|0:0,0:0:0:0:
45,14,174735,102,0,P|32:56|41:100,1,90,2|0,0:0|0:0,0:0:0:0:
210,139,175525,2,0,P|166:129|123:141,1,90,2|0,0:0|0:0,0:0:0:0:
89,311,176314,2,0,L|85:222,1,90,2|0,0:0|0:0,0:0:0:0:
34,147,177104,1,2,0:0:0:0:
160,96,177498,1,2,0:0:0:0:
247,273,177893,6,0,P|272:283|343:273,1,90,10|0,0:0|0:0,0:0:0:0:
512,219,178683,2,0,P|487:209|416:219,1,90,2|0,0:0|0:0,0:0:0:0:
410,303,179472,1,0,0:0:0:0:
488,347,179867,1,0,0:0:0:0:
425,214,180262,102,0,L|418:118,1,90,2|0,0:0|0:0,0:0:0:0:
257,91,181051,2,0,P|286:125|329:137,1,90,10|0,0:0|0:0,0:0:0:0:
430,20,181841,2,0,P|386:27|355:59,1,90,2|0,0:0|0:0,0:0:0:0:
328,137,182631,1,0,0:0:0:0:
320,226,183025,1,0,0:0:0:0:
311,315,183420,2,0,P|267:326|218:314,1,90,2|0,0:0|0:0,0:0:0:0:
43,50,184210,6,0,L|48:143,1,90,12|0,0:0|0:0,0:0:0:0:
60,348,184999,2,0,P|90:328|150:338,1,90
318,361,185789,102,0,L|229:365,1,90,2|2,0:0|0:0,0:0:0:0:
489,199,186578,2,0,L|399:202,1,90,2|2,0:0|0:0,0:0:0:0:
357,26,187368,6,0,L|267:29,1,90,10|0,0:0|0:0,0:0:0:0:
53,34,188157,2,0,P|62:70|111:101,1,90,2|0,0:0|0:0,0:0:0:0:
357,26,188947,2,0,L|267:29,1,90,2|0,0:0|0:0,0:0:0:0:
129,175,189737,1,2,0:0:0:0:
223,353,190131,1,2,0:0:0:0:
38,293,190526,102,0,L|127:289,1,90,10|0,0:0|0:0,0:0:0:0:
310,261,191316,2,0,P|301:225|252:194,1,90,2|0,0:0|0:0,0:0:0:0:
326,331,192105,2,0,P|359:315|381:262,1,90,0|0,0:0|0:0,0:0:0:0:
313,23,192895,1,2,0:0:0:0:
495,209,193290,1,2,0:0:0:0:
193,179,193684,6,0,L|89:173,1,90,6|0,0:0|0:0,0:0:0:0:
313,23,194474,2,0,L|209:17,1,90,2|0,0:0|0:0,0:0:0:0:
49,67,195263,1,0,0:0:0:0:
90,317,195657,1,0,0:0:0:0:
339,362,196052,1,0,0:0:0:0:
465,142,196447,1,0,0:0:0:0:
256,188,196843,101,4,0:2:0:0:
256,188,197895,1,2,0:0:0:0:
172,208,198159,1,2,0:0:0:0:
182,40,198422,1,4,0:0:0:0:
198,128,198816,1,2,0:0:0:0:
198,128,199606,5,2,0:0:0:0:
452,36,200001,1,4,0:0:0:0:
452,36,201185,37,2,0:0:0:0:
446,59,201317,1,2,0:0:0:0:
440,82,201448,1,2,0:0:0:0:
434,105,201580,54,0,L|436:156,1,45,4|0,0:0|0:0,0:0:0:0:
438,292,202633,53,2,0:0:0:0:
256,356,202896,1,2,0:0:0:0:
74,292,203159,53,4,0:0:0:0:
256,224,203554,1,2,0:0:0:0:
256,224,204343,5,2,0:0:0:0:
68,260,204738,1,2,0:0:0:0:
139,79,205133,1,2,0:0:0:0:
131,84,205791,37,2,0:0:0:0:
126,88,205922,2,0,L|174:83,1,30,0|2,0:0|0:0,0:0:0:0:
275,73,206317,53,4,0:0:0:0:
390,211,206712,1,2,0:0:0:0:
388,220,207370,53,2,0:0:0:0:
385,231,207502,2,0,L|388:264,1,30,0|2,0:0|0:0,0:0:0:0:
307,60,207896,69,2,0:0:0:0:
199,204,208291,1,2,0:0:0:0:
123,40,208686,37,2,0:0:0:0:
79,57,208817,1,2,0:0:0:0:
58,99,208949,1,2,0:0:0:0:
130,178,209081,5,2,0:0:0:0:
130,112,209213,1,2,0:0:0:0:
72,144,209344,1,2,0:0:0:0:
189,144,209475,37,10,0:0:0:0:
259,130,209870,5,0,0:0:0:0:
276,126,209969,1,0,0:0:0:0:
293,122,210068,1,0,0:0:0:0:
310,119,210166,1,0,0:0:0:0:
327,115,210265,1,2,0:0:0:0:
362,115,210363,1,2,0:0:0:0:
394,131,210462,1,2,0:0:0:0:
416,159,210561,1,2,0:0:0:0:
425,194,210659,1,2,0:0:0:0:
335,206,211055,101,8,0:0:0:0:
303,270,211449,5,0,0:0:0:0:
285,276,211548,1,0,0:0:0:0:
268,282,211647,1,0,0:0:0:0:
251,288,211745,1,0,0:0:0:0:
234,294,211844,1,2,0:0:0:0:
198,298,211942,1,2,0:0:0:0:
166,283,212041,1,2,0:0:0:0:
146,254,212140,1,2,0:0:0:0:
144,218,212238,1,2,0:0:0:0:
185,148,212436,1,2,0:0:0:0:
224,218,212634,101,6,0:0:0:0:
302,200,212831,1,0,0:0:0:0:
336,208,212930,1,0,0:0:0:0:
372,216,213029,1,2,0:0:0:0:
400,291,213226,1,2,0:0:0:0:
319,280,213423,1,2,0:0:0:0:
347,355,213620,1,2,0:0:0:0:
266,342,213818,1,2,0:0:0:0:
247,342,213917,1,2,0:0:0:0:
229,342,214015,1,2,0:0:0:0:
210,342,214114,1,2,0:0:0:0:
191,342,214213,6,0,L|200:309,3,22.5,2|0|0|0,0:0|0:0|0:0|0:0,0:0:0:0:
126,303,214608,2,0,L|135:270,3,22.5,2|0|0|0,0:0|0:0|0:0|0:0,0:0:0:0:
137,264,215002,1,6,0:0:0:0:
119,265,215100,1,0,0:0:0:0:
101,262,215199,1,0,0:0:0:0:
86,253,215298,1,0,0:0:0:0:
74,239,215396,1,2,0:0:0:0:
66,223,215495,1,0,0:0:0:0:
64,205,215594,1,0,0:0:0:0:
68,188,215692,1,0,0:0:0:0:
76,172,215792,38,0,L|31:154,2,30,2|2|2,0:0|0:0|0:0,0:0:0:0:
92,102,216187,54,0,L|52:86,1,22.5,2|0,0:0|0:0,0:0:0:0:
145,150,216384,2,0,L|185:166,1,22.5
183,164,216582,1,6,0:0:0:0:
190,180,216680,1,0,0:0:0:0:
197,196,216779,1,0,0:0:0:0:
204,212,216878,1,0,0:0:0:0:
211,228,216976,54,0,L|210:271,2,30,2|2|2,0:0|0:0|0:0,0:0:0:0:
276,257,217371,6,0,L|275:300,2,30,2|2|2,0:0|0:0|0:0,0:0:0:0:
348,277,217766,38,0,L|345:307,1,22.5,2|0,0:0|0:0,0:0:0:0:
326,208,217963,2,0,L|329:178,1,22.5,0|0,0:0|0:0,0:0:0:0:
331,167,218161,1,6,0:0:0:0:
323,150,218259,1,0,0:0:0:0:
315,133,218358,1,0,0:0:0:0:
307,116,218457,1,0,0:0:0:0:
299,99,218555,54,0,L|339:82,2,30,2|2|2,0:0|0:0|0:0,0:0:0:0:
290,83,218950,53,14,0:0:0:0:
182,71,219345,5,4,0:0:0:0:
183,315,219740,1,2,0:0:0:0:
395,194,220135,1,2,0:0:0:0:
117,190,220529,101,4,0:0:0:0:
329,69,220924,1,2,0:0:0:0:
330,313,221319,1,10,0:0:0:0:
336,329,221417,1,2,0:0:0:0:
351,338,221516,1,2,0:0:0:0:
368,336,221615,1,2,0:0:0:0:
381,323,221713,1,2,0:0:0:0:
383,306,221812,1,2,0:0:0:0:
374,291,221911,1,2,0:0:0:0:
357,285,222009,1,2,0:0:0:0:
341,290,222108,54,0,L|319:278,23,15,2|0|0|0|0|0|0|0|0|0|0|0|0|0|0|0|0|0|0|0|0|0|0|0,0:0|0:0|0:0|0:0|0:0|0:0|0:0|0:0|0:0|0:0|0:0|0:0|0:0|0:0|0:0|0:0|0:0|0:0|0:0|0:0|0:0|0:0|0:0|0:0,0:0:0:0:
446,322,223688,2,0,L|445:347,11,15,8|0|0|0|0|0|0|0|0|0|0|0,0:0|0:0|0:0|0:0|0:0|0:0|0:0|0:0|0:0|0:0|0:0|0:0,0:0:0:0:
416,232,224477,2,0,L|438:219,11,15,4|0|0|0|0|0|0|0|0|0|0|0,0:0|0:0|0:0|0:0|0:0|0:0|0:0|0:0|0:0|0:0|0:0|0:0,0:0:0:0:
338,163,225267,6,0,L|319:145,23,15,4|0|0|0|0|0|0|0|0|0|0|0|0|0|0|0|0|0|0|0|0|0|0|0,0:0|0:0|0:0|0:0|0:0|0:0|0:0|0:0|0:0|0:0|0:0|0:0|0:0|0:0|0:0|0:0|0:0|0:0|0:0|0:0|0:0|0:0|0:0|0:0,0:0:0:0:
440,131,226846,2,0,L|462:118,23,15,2|0|0|0|0|0|0|0|0|0|0|0|0|0|0|0|0|0|0|0|0|0|0|0,0:0|0:0|0:0|0:0|0:0|0:0|0:0|0:0|0:0|0:0|0:0|0:0|0:0|0:0|0:0|0:0|0:0|0:0|0:0|0:0|0:0|0:0|0:0|0:0,0:0:0:0:
460,118,228425,101,8,0:0:0:0:
456,103,228491,1,0,0:0:0:0:
451,89,228556,1,0,0:0:0:0:
445,75,228622,1,0,0:0:0:0:
435,64,228688,1,0,0:0:0:0:
424,54,228754,1,0,0:0:0:0:
413,44,228819,1,0,0:0:0:0:
399,37,228885,1,0,0:0:0:0:
385,32,228951,1,0,0:0:0:0:
371,29,229017,1,0,0:0:0:0:
356,28,229082,1,0,0:0:0:0:
341,29,229149,1,0,0:0:0:0:
326,33,229214,1,0,0:0:0:0:
312,38,229280,1,0,0:0:0:0:
300,47,229346,1,0,0:0:0:0:
287,56,229412,1,0,0:0:0:0:
278,67,229477,1,0,0:0:0:0:
269,79,229543,1,0,0:0:0:0:
263,93,229609,1,0,0:0:0:0:
259,107,229675,1,0,0:0:0:0:
256,122,229740,1,0,0:0:0:0:
256,137,229807,1,0,0:0:0:0:
258,152,229872,1,0,0:0:0:0:
262,166,229938,1,0,0:0:0:0:
269,180,230004,6,0,L|263:208,11,15,4|0|0|0|0|0|0|0|0|0|0|0,0:0|0:0|0:0|0:0|0:0|0:0|0:0|0:0|0:0|0:0|0:0|0:0,0:0:0:0:
338,162,230794,2,0,L|344:134,11,15,2|0|0|0|0|0|0|0|0|0|0|0,0:0|0:0|0:0|0:0|0:0|0:0|0:0|0:0|0:0|0:0|0:0|0:0,0:0:0:0:
383,245,231583,102,0,L|404:264,23,15,4|0|0|0|0|0|0|0|0|0|0|0|0|0|0|0|0|0|0|0|0|0|0|0,0:0|0:0|0:0|0:0|0:0|0:0|0:0|0:0|0:0|0:0|0:0|0:0|0:0|0:0|0:0|0:0|0:0|0:0|0:0|0:0|0:0|0:0|0:0|0:0,0:0:0:0:
279,235,233162,2,0,L|257:254,23,15,8|0|0|0|0|0|0|0|0|0|0|0|0|0|0|0|0|0|0|0|0|0|0|0,0:0|0:0|0:0|0:0|0:0|0:0|0:0|0:0|0:0|0:0|0:0|0:0|0:0|0:0|0:0|0:0|0:0|0:0|0:0|0:0|0:0|0:0|0:0|0:0,0:0:0:0:
257,255,234741,5,4,0:0:0:0:
242,259,234807,1,0,0:0:0:0:
227,260,234872,1,0,0:0:0:0:
212,262,234939,1,0,0:0:0:0:
198,256,235004,1,0,0:0:0:0:
183,251,235070,1,0,0:0:0:0:
172,240,235135,1,0,0:0:0:0:
162,229,235202,1,0,0:0:0:0:
156,215,235267,1,0,0:0:0:0:
151,201,235333,1,0,0:0:0:0:
149,186,235398,1,0,0:0:0:0:
148,171,235465,1,0,0:0:0:0:
148,156,235530,1,0,0:0:0:0:
147,141,235597,1,0,0:0:0:0:
147,126,235662,1,0,0:0:0:0:
146,111,235728,1,0,0:0:0:0:
143,97,235793,1,0,0:0:0:0:
138,82,235860,1,0,0:0:0:0:
131,69,235925,1,0,0:0:0:0:
121,58,235991,1,0,0:0:0:0:
109,49,236056,1,0,0:0:0:0:
96,41,236123,1,0,0:0:0:0:
81,39,236188,1,0,0:0:0:0:
66,39,236255,1,0,0:0:0:0:
52,44,236320,102,0,L|33:52,11,15,2|0|0|0|0|0|0|0|0|0|0|0,0:0|0:0|0:0|0:0|0:0|0:0|0:0|0:0|0:0|0:0|0:0|0:0,0:0:0:0:
71,110,237110,2,0,L|51:117,11,15,4|0|0|0|0|0|0|0|0|0|0|0,0:0|0:0|0:0|0:0|0:0|0:0|0:0|0:0|0:0|0:0|0:0|0:0,0:0:0:0:
141,46,237900,6,0,L|160:38,15,15,4|0|0|0|0|0|0|0|0|0|0|0|0|0|0|0,0:0|0:0|0:0|0:0|0:0|0:0|0:0|0:0|0:0|0:0|0:0|0:0|0:0|0:0|0:0|0:0,0:0:0:0:
186,101,238952,2,0,L|206:102,3,15,8|0|0|0,0:0|0:0|0:0|0:0,0:0:0:0:
196,168,239215,2,0,L|214:177,3,15,4|0|0|0,0:0|0:0|0:0|0:0,0:0:0:0:
184,237,239479,102,0,L|196:252,11,15,8|0|0|0|0|0|0|0|0|0|0|0,0:0|0:0|0:0|0:0|0:0|0:0|0:0|0:0|0:0|0:0|0:0|0:0,0:0:0:0:
143,295,240268,2,0,L|147:314,11,15,2|0|0|0|0|0|0|0|0|0|0|0,0:0|0:0|0:0|0:0|0:0|0:0|0:0|0:0|0:0|0:0|0:0|0:0,0:0:0:0:
148,324,241058,5,4,0:0:0:0:
160,332,241124,1,0,0:0:0:0:
174,338,241189,1,0,0:0:0:0:
188,343,241255,1,0,0:0:0:0:
202,348,241321,1,0,0:0:0:0:
217,351,241387,1,0,0:0:0:0:
232,353,241452,1,0,0:0:0:0:
247,355,241518,1,0,0:0:0:0:
262,354,241584,1,0,0:0:0:0:
277,353,241650,1,0,0:0:0:0:
291,350,241715,1,0,0:0:0:0:
306,347,241782,1,0,0:0:0:0:
320,342,241847,1,0,0:0:0:0:
334,337,241913,1,0,0:0:0:0:
347,330,241979,1,0,0:0:0:0:
361,323,242045,1,0,0:0:0:0:
372,313,242110,1,0,0:0:0:0:
384,304,242176,1,0,0:0:0:0:
394,293,242242,1,0,0:0:0:0:
405,283,242308,1,0,0:0:0:0:
413,270,242373,1,0,0:0:0:0:
423,258,242439,1,0,0:0:0:0:
428,244,242505,1,0,0:0:0:0:
435,231,242571,1,0,0:0:0:0:
438,216,242637,101,0,0:0:0:0:
430,203,242703,1,2,0:0:0:0:
443,196,242768,1,0,0:0:0:0:
431,186,242834,1,2,0:0:0:0:
443,177,242900,1,0,0:0:0:0:
430,169,242966,1,2,0:0:0:0:
442,160,243032,1,0,0:0:0:0:
429,152,243097,1,2,0:0:0:0:
441,143,243163,1,0,0:0:0:0:
426,137,243229,1,2,0:0:0:0:
439,129,243295,1,0,0:0:0:0:
425,121,243361,1,2,0:0:0:0:
437,112,243426,1,0,0:0:0:0:
423,104,243492,1,2,0:0:0:0:
435,95,243558,1,0,0:0:0:0:
421,88,243624,1,2,0:0:0:0:
433,79,243690,1,0,0:0:0:0:
419,72,243755,1,2,0:0:0:0:
432,64,243821,1,0,0:0:0:0:
418,57,243887,1,2,0:0:0:0:
430,48,243953,1,0,0:0:0:0:
416,41,244019,1,2,0:0:0:0:
401,36,244084,1,0,0:0:0:0:
386,31,244150,1,2,0:0:0:0:
371,26,244216,6,0,L|323:35,47,30,4|0|0|0|0|0|0|0|0|0|0|0|0|0|0|0|0|0|0|0|0|0|0|0|0|0|0|0|0|0|0|0|0|0|0|0|0|0|0|0|0|0|0|0|0|0|0|0,0:0|0:0|0:0|0:0|0:0|0:0|0:0|0:0|0:0|0:0|0:0|0:0|0:0|0:0|0:0|0:0|0:0|0:0|0:0|0:0|0:0|0:0|0:0|0:0|0:0|0:0|0:0|0:0|0:0|0:0|0:0|0:0|0:0|0:0|0:0|0:0|0:0|0:0|0:0|0:0|0:0|0:0|0:0|0:0|0:0|0:0|0:0|0:0,0:0:0:0:
326,34,247374,37,14,0:0:0:0:
323,51,247472,1,0,0:0:0:0:
320,69,247571,1,0,0:0:0:0:
318,87,247670,1,0,0:0:0:0:
315,105,247768,1,0,0:0:0:0:
313,123,247867,1,0,0:0:0:0:
310,140,247966,1,0,0:0:0:0:
308,158,248064,1,0,0:0:0:0:
305,176,248164,1,0,0:0:0:0:
271,187,248262,1,0,0:0:0:0:
235,186,248361,1,0,0:0:0:0:
202,173,248460,1,0,0:0:0:0:
177,146,248559,1,10,0:0:0:0:
179,128,248657,1,0,0:0:0:0:
182,110,248756,1,0,0:0:0:0:
184,92,248855,1,0,0:0:0:0:
187,74,248953,6,0,L|192:29,1,33.7500012874604,10|0,0:0|0:0,0:0:0:0:
108,28,249151,2,0,L|103:73,1,33.7500012874604
34,116,249348,2,0,L|29:161,1,33.7500012874604
113,162,249546,2,0,L|118:117,1,33.7500012874604
43,209,249743,38,0,L|39:241,5,22.5000008583069,10|0|0|0|0|0,0:0|0:0|0:0|0:0|0:0|0:0,0:0:0:0:
38,249,250138,1,0,0:0:0:0:
59,243,250203,1,0,0:0:0:0:
81,243,250269,1,0,0:0:0:0:
102,253,250335,1,0,0:0:0:0:
118,268,250401,1,0,0:0:0:0:
128,288,250467,1,0,0:0:0:0:
130,310,250532,54,0,L|123:348,1,33.7500012874604,10|0,0:0|0:0,0:0:0:0:
232,291,250730,2,0,L|194:284,1,33.7500012874604
310,280,250927,2,0,L|317:242,1,33.7500012874604
231,179,251125,2,0,L|269:186,1,33.7500012874604
332,144,251322,5,0,0:0:0:0:
338,128,251421,1,0,0:0:0:0:
344,112,251519,1,0,0:0:0:0:
350,96,251618,1,0,0:0:0:0:
356,80,251717,1,0,0:0:0:0:
344,68,251815,1,0,0:0:0:0:
330,57,251914,1,0,0:0:0:0:
316,49,252013,1,0,0:0:0:0:
300,42,252111,1,10,0:0:0:0:
284,37,252210,1,0,0:0:0:0:
267,35,252309,1,0,0:0:0:0:
251,34,252407,1,0,0:0:0:0:
234,36,252506,101,0,0:0:0:0:
214,63,252605,1,0,0:0:0:0:
194,90,252704,1,0,0:0:0:0:
174,117,252802,1,0,0:0:0:0:
154,144,252901,1,0,0:0:0:0:
160,176,252999,1,0,0:0:0:0:
180,202,253098,1,0,0:0:0:0:
211,216,253197,1,0,0:0:0:0:
244,213,253295,1,0,0:0:0:0:
258,105,253493,1,0,0:0:0:0:
327,180,253691,5,14,0:0:0:0:
357,167,253789,1,0,0:0:0:0:
390,168,253888,1,0,0:0:0:0:
420,182,253987,1,0,0:0:0:0:
439,209,254085,1,0,0:0:0:0:
447,241,254184,1,0,0:0:0:0:
449,274,254283,1,0,0:0:0:0:
438,306,254382,1,0,0:0:0:0:
413,329,254480,1,0,0:0:0:0:
382,341,254579,1,0,0:0:0:0:
351,353,254677,1,0,0:0:0:0:
317,352,254776,1,0,0:0:0:0:
291,329,254875,1,10,0:0:0:0:
261,313,254973,1,0,0:0:0:0:
227,308,255072,1,0,0:0:0:0:
195,320,255171,1,0,0:0:0:0:
163,331,255270,38,0,L|133:321,5,22.5000008583069,10|0|0|0|0|0,0:0|0:0|0:0|0:0|0:0|0:0,0:0:0:0:
127,317,255665,1,0,0:0:0:0:
137,297,255730,1,0,0:0:0:0:
142,275,255796,1,0,0:0:0:0:
142,253,255862,1,0,0:0:0:0:
132,232,255928,1,0,0:0:0:0:
117,215,255994,1,0,0:0:0:0:
96,205,256059,5,10,0:0:0:0:
114,191,256125,1,0,0:0:0:0:
134,182,256190,1,0,0:0:0:0:
156,177,256257,1,0,0:0:0:0:
178,183,256322,1,0,0:0:0:0:
198,193,256388,1,0,0:0:0:0:
215,207,256454,2,0,L|219:245,5,22.5000008583069,0|0|0|0|0|0,0:0|0:0|0:0|0:0|0:0|0:0,0:0:0:0:
218,253,256849,102,0,L|211:294,2,22.5000008583069,14|0|0,0:0|0:0|0:0,0:0:0:0:
283,282,257046,2,0,L|309:313,2,22.5000008583069,0|0|0,0:0|0:0|0:0,0:0:0:0:
357,258,257244,54,0,L|414:254,1,33.7500012874604,0|0,0:0|0:0,0:0:0:0:
452,154,257441,2,0,L|456:211,1,33.7500012874604,0|0,0:0|0:0,0:0:0:0:
480,304,257737,1,0,0:0:0:0:
326,135,257935,1,0,0:0:0:0:
321,118,258033,1,0,0:0:0:0:
316,101,258132,1,0,0:0:0:0:
310,85,258231,1,0,0:0:0:0:
304,69,258329,1,0,0:0:0:0:
298,52,258428,2,0,P|252:32|153:39,1,135.000005149842,10|0,0:0|0:0,0:0:0:0:
63,104,259119,1,0,0:0:0:0:
77,112,259218,6,0,L|72:157,1,33.7500012874604,0|0,0:0|0:0,0:0:0:0:
45,206,259415,1,0,0:0:0:0:
47,222,259514,1,0,0:0:0:0:
49,238,259612,1,0,0:0:0:0:
51,254,259711,1,0,0:0:0:0:
53,270,259810,1,0,0:0:0:0:
170,346,260007,102,0,L|73:346,1,90,6|2,0:0|0:0,0:0:0:0:
255,280,260797,1,0,0:0:0:0:
158,244,261191,1,2,0:0:0:0:
235,183,261586,53,14,0:0:0:0:
225,171,261652,1,0,0:0:0:0:
215,160,261717,1,0,0:0:0:0:
202,151,261784,1,0,0:0:0:0:
189,145,261849,1,0,0:0:0:0:
175,141,261915,1,0,0:0:0:0:
160,140,261980,1,0,0:0:0:0:
144,139,262047,1,0,0:0:0:0:
130,144,262112,1,0,0:0:0:0:
116,149,262178,1,0,0:0:0:0:
104,158,262243,1,0,0:0:0:0:
93,169,262310,1,0,0:0:0:0:
87,182,262376,54,0,L|44:182,3,22.5,6|0|0|0,0:0|0:0|0:0|0:0,0:0:0:0:
155,246,262771,2,0,L|198:246,3,22.5,0|0|0|0,0:0|0:0|0:0|0:0,0:0:0:0:
170,346,263165,6,0,L|73:346,1,90,6|2,0:0|0:0,0:0:0:0:
255,280,263955,1,0,0:0:0:0:
342,346,264350,2,0,L|439:346,1,90,2|6,0:0|0:0,0:0:0:0:
449,331,264843,1,0,0:0:0:0:
461,317,264941,1,0,0:0:0:0:
470,302,265040,1,0,0:0:0:0:
476,285,265139,1,0,0:0:0:0:
477,267,265237,1,0,0:0:0:0:
475,249,265336,1,0,0:0:0:0:
488,252,265435,1,0,0:0:0:0:
501,255,265534,1,2,0:0:0:0:
427,149,265731,38,0,L|407:164,2,15,2|2|2,0:0|0:0|0:0,0:0:0:0:
351,79,265929,6,0,L|373:88,2,15,2|2|2,0:0|0:0|0:0,0:0:0:0:
319,171,266126,102,0,L|316:146,2,15,2|2|2,0:0|0:0|0:0,0:0:0:0:
329,238,266324,54,0,P|309:239|287:233,1,33.7500012874604,14|0,0:0|0:0,0:0:0:0:
247,189,266521,2,0,P|242:169|244:146,1,33.7500012874604
258,52,266718,2,0,P|262:71|260:94,1,33.7500012874604
162,101,266916,2,0,L|196:103,1,33.7500012874604
157,116,267113,1,0,0:0:0:0:
150,131,267212,1,0,0:0:0:0:
143,146,267311,1,0,0:0:0:0:
135,161,267409,1,0,0:0:0:0:
128,176,267508,1,0,0:0:0:0:
117,188,267606,1,0,0:0:0:0:
103,198,267705,1,0,0:0:0:0:
87,204,267804,1,0,0:0:0:0:
70,206,267903,54,0,L|37:202,5,22.5000008583069,10|0|0|0|0|0,0:0|0:0|0:0|0:0|0:0|0:0,0:0:0:0:
45,272,268297,2,0,L|20:295,5,22.5000008583069,0|0|0|0|0|0,0:0|0:0|0:0|0:0|0:0|0:0,0:0:0:0:
17,307,268692,1,10,0:0:0:0:
30,324,268758,1,0,0:0:0:0:
49,334,268823,1,0,0:0:0:0:
71,336,268890,1,0,0:0:0:0:
93,334,268955,1,0,0:0:0:0:
114,328,269021,1,0,0:0:0:0:
133,317,269087,6,0,L|146:278,5,22.5000008583069,0|0|0|0|0|0,0:0|0:0|0:0|0:0|0:0|0:0,0:0:0:0:
144,273,269482,1,10,0:0:0:0:
157,254,269548,1,0,0:0:0:0:
174,240,269613,1,0,0:0:0:0:
194,229,269679,1,0,0:0:0:0:
216,226,269745,1,0,0:0:0:0:
239,228,269811,1,0,0:0:0:0:
260,235,269876,1,0,0:0:0:0:
278,248,269942,1,0,0:0:0:0:
294,263,270008,1,0,0:0:0:0:
305,283,270074,1,0,0:0:0:0:
310,305,270139,1,0,0:0:0:0:
310,328,270206,1,0,0:0:0:0:
304,349,270271,102,0,L|343:344,5,22.5000008583069,0|0|0|0|0|0,0:0|0:0|0:0|0:0|0:0|0:0,0:0:0:0:
377,298,270666,2,0,L|415:292,5,22.5000008583069,0|0|0|0|0|0,0:0|0:0|0:0|0:0|0:0|0:0,0:0:0:0:
421,291,271061,1,0,0:0:0:0:
419,268,271127,1,0,0:0:0:0:
416,246,271192,1,0,0:0:0:0:
415,223,271258,1,0,0:0:0:0:
412,201,271324,1,0,0:0:0:0:
410,178,271390,1,0,0:0:0:0:
408,156,271455,1,0,0:0:0:0:
406,133,271522,1,0,0:0:0:0:
404,111,271587,1,0,0:0:0:0:
402,89,271653,1,0,0:0:0:0:
399,66,271718,1,0,0:0:0:0:
397,44,271785,1,0,0:0:0:0:
393,22,271850,54,0,L|436:16,2,33.7500012874604
328,58,272245,69,0,0:0:0:0:
328,58,272311,1,0,0:0:0:0:
328,58,272377,2,0,L|336:14,1,45.0000017166138,2|2,0:0|0:0,0:0:0:0:
266,25,272640,38,0,B|247:80|284:114|284:114|282:146|261:171|261:171|229:142|229:142|203:118|199:71|199:71|167:71|146:45|146:45|100:52|75:86|79:120|95:146|129:160|164:154|177:122|173:106,1,540.000020599366,14|4,0:0|0:0,0:0:0:0:
170,122,276193,5,0,0:0:0:0:
162,190,276588,1,0,0:0:0:0:
202,248,276983,1,0,0:0:0:0:
270,265,277378,1,0,0:0:0:0:
285,128,278167,102,0,L|280:172,1,45,2|0,0:0|0:0,0:0:0:0:
354,156,278956,2,0,P|356:110|328:70,1,90,2|0,0:0|0:0,0:0:0:0:
189,59,280536,5,2,0:0:0:0:
81,72,280930,1,0,0:0:0:0:
60,177,281325,1,0,0:0:0:0:
157,231,281720,1,0,0:0:0:0:
236,155,282115,102,0,L|337:152,1,90,4|0,0:0|0:0,0:0:0:0:
397,150,283167,1,0,0:0:0:0:
388,221,283431,1,0,0:0:0:0:
457,194,283694,2,0,P|469:170|451:101,1,90,2|0,0:0|0:0,0:0:0:0:
317,80,285273,5,2,0:0:0:0:
295,75,285470,1,2,0:0:0:0:
273,69,285668,1,2,0:0:0:0:
191,22,285865,101,2,0:0:0:0:
196,44,286063,1,2,0:0:0:0:
123,120,286260,1,2,0:0:0:0:
226,101,286457,1,2,0:0:0:0:
133,56,286655,1,2,0:0:0:0:
182,147,286852,1,4,0:0:0:0:
182,147,287642,5,2,0:0:0:0:
145,211,287905,1,0,0:0:0:0:
217,211,288168,1,0,0:0:0:0:
181,277,288431,101,2,0:0:0:0:
292,265,288826,1,0,0:0:0:0:
217,211,289221,1,0,0:0:0:0:
128,227,289616,1,0,0:0:0:0:
291,265,290010,1,2,0:0:0:0:
128,227,290405,1,0,0:0:0:0:
119,231,291063,5,0,0:0:0:0:
300,257,291326,1,0,0:0:0:0:
225,146,291589,1,4,0:0:0:0:
152,92,291984,101,0,0:0:0:0:
225,146,292379,1,0,0:0:0:0:
309,114,292774,1,0,0:0:0:0:
152,92,293169,1,2,0:0:0:0:
309,114,293563,1,0,0:0:0:0:
321,110,294155,5,2,0:0:0:0:
454,232,294353,1,2,0:0:0:0:
340,228,294550,1,2,0:0:0:0:
453,106,294748,5,4,0:0:0:0:
217,117,295142,1,2,0:0:0:0:
337,319,295340,1,2,0:0:0:0:
453,105,295537,1,2,0:0:0:0:
340,229,295932,2,0,L|337:319,1,90,2|0,0:2|1:2,0:0:0:0:
163,283,296327,6,0,P|188:205|280:194,1,180,2|2,1:2|0:0,0:0:0:0:
241,264,297116,2,0,L|122:119,1,180,2|2,0:0|0:0,0:0:0:0:
56,106,297708,1,0,1:2:0:0:
217,117,297906,102,0,L|269:119,7,45,4|0|0|0|0|0|0|0,1:2|0:0|0:0|0:0|0:0|0:0|0:0|0:0,0:0:0:0:
328,161,298695,2,0,L|380:163,7,45,4|0|0|0|0|0|0|0,1:2|0:0|0:0|0:0|0:0|0:0|0:0|0:0,0:0:0:0:
442,175,299485,22,0,L|440:205,5,30,2|2|2|2|2|2,1:2|0:0|0:0|0:0|0:0|0:0,0:0:0:0:
439,222,299879,1,0,0:0:0:0:
437,240,299945,1,0,0:0:0:0:
436,258,300011,1,0,0:0:0:0:
435,276,300077,1,0,0:0:0:0:
433,293,300142,1,0,0:0:0:0:
431,310,300208,1,0,0:0:0:0:
426,325,300274,102,0,L|396:338,7,22.5,0|0|0|0|0|0|0|0,0:2|0:0|0:0|0:0|0:0|0:0|0:0|0:0,0:0:0:0:
337,332,300669,2,0,L|321:294,7,22.5,0|0|0|0|0|0|0|0,0:2|0:0|0:0|0:0|0:0|0:0|0:0|0:0,0:0:0:0:
314,270,301064,102,0,L|206:262,1,90,12|0,0:0|0:0,0:0:0:0:
208,271,301360,1,0,0:0:0:0:
192,278,301458,2,0,L|243:281,1,45,8|0,0:0|0:0,0:0:0:0:
181,347,301656,2,0,L|130:344,1,45
73,371,301853,2,0,B|65:339|65:339|88:263,1,90,8|0,0:0|0:0,0:0:0:0:
100,219,302149,1,0,0:0:0:0:
100,219,302248,2,0,L|104:277,1,45,8|0,0:0|0:0,0:0:0:0:
18,209,302445,2,0,L|21:164,1,45
49,101,302643,5,8,0:0:0:0:
45,83,302741,1,0,0:0:0:0:
41,65,302840,1,0,0:0:0:0:
202,80,303037,2,0,B|132:88|132:88|115:79,1,90,8|0,0:0|0:0,0:0:0:0:
110,70,303333,1,0,0:0:0:0:
106,61,303432,2,0,L|126:159,1,90,8|0,0:0|0:0,0:0:0:0:
100,219,303728,1,0,0:0:0:0:
100,219,303827,2,0,L|90:277,1,45,8|0,0:0|0:0,0:0:0:0:
51,361,304024,2,0,L|61:303,1,45
7,273,304222,102,0,L|120:295,1,90,8|0,0:0|0:0,0:0:0:0:
207,324,304616,1,8,0:0:0:0:
189,327,304715,1,0,0:0:0:0:
171,329,304814,1,0,0:0:0:0:
153,332,304912,1,0,0:0:0:0:
160,315,305011,2,0,P|173:291|197:273,1,45,8|0,0:0|0:0,0:0:0:0:
257,270,305208,2,0,P|270:288|276:309,1,45
241,373,305406,2,0,L|335:359,1,90,8|0,0:0|0:0,0:0:0:0:
399,378,305702,1,0,0:0:0:0:
399,378,305801,6,0,B|376:352|376:352|385:284,1,90,8|0,0:0|0:0,0:0:0:0:
383,189,306195,1,8,0:0:0:0:
389,205,306294,1,0,0:0:0:0:
395,221,306393,2,0,L|410:168,1,45
476,158,306590,2,0,P|445:118|390:109,1,90,8|0,0:0|0:0,0:0:0:0:
339,126,306985,1,8,0:0:0:0:
195,201,307182,1,8,0:0:0:0:
214,39,307380,101,8,0:0:0:0:
217,56,307478,1,0,0:0:0:0:
220,73,307577,2,0,L|163:57,1,45
106,41,307774,2,0,P|82:80|81:126,1,90,8|0,0:0|0:0,0:0:0:0:
108,227,308169,1,8,0:0:0:0:
114,210,308268,1,0,0:0:0:0:
121,193,308366,2,0,P|138:217|139:246,1,45
119,301,308564,1,8,0:0:0:0:
135,307,308663,1,0,0:0:0:0:
151,313,308761,1,0,0:0:0:0:
168,317,308860,1,0,0:0:0:0:
201,302,308959,6,0,B|272:287|272:287|286:296,1,90,8|0,0:0|0:0,0:0:0:0:
250,361,309255,1,0,0:0:0:0:
249,360,309353,2,0,L|206:371,1,45,8|0,0:0|0:0,0:0:0:0:
324,357,309551,2,0,P|347:340|356:325,1,45
364,252,309748,2,0,B|353:235|353:235|363:155,1,90,8|0,0:0|0:0,0:0:0:0:
387,23,310143,1,8,0:0:0:0:
400,35,310242,1,0,0:0:0:0:
413,46,310340,1,0,0:0:0:0:
426,58,310439,1,0,0:0:0:0:
439,70,310538,102,0,B|415:82|415:82|339:75,1,90,8|0,0:0|0:0,0:0:0:0:
246,99,310932,1,8,0:0:0:0:
254,83,311031,1,0,0:0:0:0:
262,67,311130,2,0,P|240:57|211:56,1,45
147,54,311327,2,0,P|125:64|105:85,1,45,8|0,0:0|0:0,0:0:0:0:
76,142,311524,1,0,0:0:0:0:
71,159,311623,1,0,0:0:0:0:
65,176,311722,2,0,L|161:170,1,90,8|0,0:0|0:0,0:0:0:0:
308,158,312117,6,0,P|300:198|262:230,1,90,8|0,0:0|0:0,0:0:0:0:
129,318,312511,2,0,P|137:278|175:246,1,90,8|0,0:0|0:0,0:0:0:0:
190,248,312807,1,0,0:0:0:0:
207,253,312906,2,0,P|218:271|248:285,1,45,8|0,0:0|0:0,0:0:0:0:
302,287,313103,1,0,0:0:0:0:
302,287,313202,1,0,0:0:0:0:
302,287,313301,2,0,L|322:332,1,45,8|0,0:0|0:0,0:0:0:0:
433,297,313498,2,0,L|384:291,1,45
352,227,313696,101,14,0:0:0:0:
407,146,313893,2,0,L|413:193,1,45,0|2,0:0|0:0,0:0:0:0:
338,147,314090,2,0,P|342:108|390:77,1,90,10|2,0:0|0:0,0:0:0:0:
432,32,314386,1,0,0:0:0:0:
440,48,314485,2,0,L|385:41,1,45,10|2,0:0|0:0,0:0:0:0:
326,30,314682,2,0,L|271:23,1,45
213,45,314880,1,10,0:0:0:0:
213,45,314979,1,0,0:0:0:0:
213,45,315077,2,0,L|204:104,1,45,2|0,0:0|0:0,0:0:0:0:
195,161,315275,6,0,P|140:125|137:60,1,135,10|2,0:0|0:0,0:0:0:0:
141,43,315669,2,0,P|120:81|78:91,1,90,8|2,0:0|0:0,0:0:0:0:
18,71,315965,1,0,0:0:0:0:
33,60,316064,2,0,L|29:118,1,45,10|2,0:0|0:0,0:0:0:0:
48,176,316262,1,0,0:0:0:0:
51,319,316459,2,0,P|22:285|27:239,1,90,10|2,0:0|0:0,0:0:0:0:
94,262,316755,1,0,0:0:0:0:
94,262,316854,102,0,L|185:258,1,90,10|0,0:0|0:0,0:0:0:0:
250,285,317150,2,0,P|217:275|191:277,1,45,2|8,0:0|0:0,0:0:0:0:
214,346,317347,1,0,0:0:0:0:
214,346,317446,2,0,P|247:356|273:354,1,45,2|0,0:0|0:0,0:0:0:0:
317,316,317643,1,10,0:0:0:0:
317,316,317742,2,0,P|321:267|291:227,1,90,2|0,0:0|0:0,0:0:0:0:
273,166,318038,6,0,P|313:193|363:187,1,90,10|2,0:0|0:0,0:0:0:0:
369,184,318334,1,0,0:0:0:0:
385,175,318433,2,0,L|390:79,1,90,10|0,0:0|0:0,0:0:0:0:
376,14,318729,1,2,0:0:0:0:
386,28,318827,2,0,B|357:38|357:38|295:24,1,90,10|2,0:0|0:0,0:0:0:0:
228,41,319123,1,0,0:0:0:0:
228,41,319222,1,10,0:0:0:0:
228,41,319321,1,2,0:0:0:0:
228,41,319420,2,0,L|283:34,1,45
215,111,319617,2,0,P|172:90|160:38,1,90,10|10,0:0|0:0,0:0:0:0:
17,183,320012,102,0,P|56:156|107:171,1,90,10|0,0:0|0:0,0:0:0:0:
160,196,320308,2,0,L|108:192,1,45,2|8,0:0|0:0,0:0:0:0:
86,258,320505,1,0,0:0:0:0:
86,258,320604,2,0,L|138:262,1,45,2|0,0:0|0:0,0:0:0:0:
203,263,320801,1,10,0:0:0:0:
203,263,320900,2,0,P|192:305|147:332,1,90,2|0,0:0|0:0,0:0:0:0:
87,356,321196,2,0,P|128:344|174:369,1,90,10|2,0:0|0:0,0:0:0:0:
331,356,321591,6,0,L|232:352,1,90,10|0,0:0|0:0,0:0:0:0:
283,293,321887,2,0,L|286:337,1,45,2|8,0:0|0:0,0:0:0:0:
353,278,322084,1,0,0:0:0:0:
353,278,322183,2,0,P|342:253|325:236,1,45,2|0,0:0|0:0,0:0:0:0:
262,215,322380,1,10,0:0:0:0:
262,215,322479,2,0,P|314:197|328:153,1,90,2|0,0:0|0:0,0:0:0:0:
333,95,322775,1,10,0:0:0:0:
342,79,322874,1,0,0:0:0:0:
351,63,322972,1,2,0:0:0:0:
174,61,323170,102,0,B|201:75|201:75|261:71,1,90,10|0,0:0|0:0,0:0:0:0:
333,95,323466,2,0,L|283:91,1,45,2|8,0:0|0:0,0:0:0:0:
232,137,323663,1,0,0:0:0:0:
232,137,323762,2,0,L|182:133,1,45,2|0,0:0|0:0,0:0:0:0:
115,121,323959,1,10,0:0:0:0:
115,121,324058,2,0,L|112:213,1,90,2|0,0:0|0:0,0:0:0:0:
107,228,324354,2,0,L|110:320,1,90,10|2,0:0|0:0,0:0:0:0:
106,335,324650,1,0,0:0:0:0:
102,352,324749,6,0,B|129:337|129:337|204:348,1,90,10|0,0:0|0:0,0:0:0:0:
258,359,325045,2,0,P|257:327|246:310,1,45,2|8,0:0|0:0,0:0:0:0:
188,280,325242,1,0,0:0:0:0:
188,280,325341,2,0,L|244:289,1,45,2|0,0:0|0:0,0:0:0:0:
302,269,325538,101,0,1:0:0:0:
493,207,325736,1,0,1:0:0:0:
302,145,325933,1,2,1:2:0:0:
420,308,326130,1,2,1:2:0:0:
420,106,326328,5,6,1:2:0:0:
420,106,326426,1,0,0:0:0:0:
296,30,326624,1,2,0:0:0:0:
308,42,326722,2,0,L|400:39,1,90,2|0,1:2|0:0,0:0:0:0:
367,105,327019,1,2,0:0:0:0:
367,105,327117,2,0,L|314:107,1,45,0|0,1:2|0:0,0:0:0:0:
260,146,327315,1,0,0:0:0:0:
107,90,327512,1,2,1:2:0:0:
141,247,327709,1,2,0:0:0:0:
260,146,327907,101,2,1:2:0:0:
260,146,328005,1,0,0:0:0:0:
399,228,328203,1,0,0:0:0:0:
395,210,328301,2,0,B|373:217|373:217|305:205,1,90,2|2,1:2|0:0,0:0:0:0:
254,256,328598,1,0,0:0:0:0:
254,256,328696,2,0,L|276:307,1,45,2|0,1:2|0:0,0:0:0:0:
339,324,328894,1,2,0:0:0:0:
178,344,329091,1,2,1:2:0:0:
161,181,329288,1,2,0:0:0:0:
321,158,329486,5,2,1:2:0:0:
331,143,329584,2,0,L|326:39,1,90,2|2,0:0|0:0,0:0:0:0:
331,35,329880,2,0,B|307:48|307:48|230:39,1,90,2|0,1:2|0:0,0:0:0:0:
179,72,330177,1,2,0:0:0:0:
179,72,330275,2,0,P|196:94|218:107,1,45,0|0,1:2|0:0,0:0:0:0:
282,113,330473,1,2,0:0:0:0:
167,227,330670,1,2,1:2:0:0:
183,220,330769,1,0,0:0:0:0:
199,213,330867,1,2,0:0:0:0:
302,338,331065,102,0,L|195:333,1,90,2|2,1:2|0:0,0:0:0:0:
148,367,331361,1,0,0:0:0:0:
148,367,331459,2,0,P|140:324|166:280,1,90,2|0,1:2|0:0,0:0:0:0:
222,164,331854,2,0,L|226:254,1,90,2|0,1:2|0:0,0:0:0:0:
242,247,332150,1,0,0:0:0:0:
258,240,332249,2,0,P|284:232|314:237,1,45,2|2,1:2|0:0,0:0:0:0:
368,259,332446,22,0,L|362:219,2,30,2|2|2,0:0|0:0|0:0,0:0:0:0:
402,268,332644,102,0,L|409:321,1,45,2|2,1:2|0:0,0:0:0:0:
447,173,332940,1,2,0:0:0:0:
452,190,333038,2,0,P|467:151|448:100,1,90,2|0,1:2|0:0,0:0:0:0:
441,92,333335,1,2,0:0:0:0:
428,78,333433,2,0,P|410:62|384:52,1,45,0|0,1:2|0:0,0:0:0:0:
318,50,333631,2,0,L|324:149,2,90,2|2|2,0:0|1:2|0:0,0:0:0:0:
155,60,334223,101,2,1:2:0:0:
155,60,334321,1,2,0:0:0:0:
315,32,334519,1,0,0:0:0:0:
303,45,334617,2,0,L|309:144,1,90,2|0,1:2|0:0,0:0:0:0:
303,152,334914,1,2,0:0:0:0:
298,169,335012,2,0,P|293:199|296:224,1,45,0|0,1:2|0:0,0:0:0:0:
309,284,335210,2,0,P|328:307|349:320,1,45,2|0,0:0|0:0,0:0:0:0:
410,333,335407,1,2,1:2:0:0:
232,303,335604,1,2,0:0:0:0:
387,211,335802,5,2,1:2:0:0:
397,225,335900,2,0,P|412:187|391:132,1,90
390,124,336197,2,0,P|375:86|396:31,1,90,2|2,1:2|0:0,0:0:0:0:
403,31,336493,1,0,0:0:0:0:
419,23,336591,2,0,P|388:26|355:18,1,45,2|0,1:2|0:0,0:0:0:0:
302,11,336789,1,0,0:0:0:0:
275,152,336986,1,2,1:2:0:0:
248,294,337183,1,2,0:0:0:0:
151,187,337381,102,0,P|94:170|49:239,1,135,2|0,1:2|0:0,0:0:0:0:
91,269,337776,2,0,P|104:251|109:230,1,45,2|0,1:2|0:0,0:0:0:0:
113,157,337973,1,2,0:0:0:0:
110,139,338072,1,0,0:0:0:0:
107,121,338170,1,2,1:2:0:0:
286,100,338368,1,2,1:2:0:0:
464,78,338565,1,2,1:2:0:0:
284,81,338762,5,2,1:2:0:0:
463,99,338960,1,6,1:2:0:0:
461,116,339058,2,0,B|460:148|460:148|479:219,1,90,0|2,0:0|0:0,0:0:0:0:
499,272,339355,2,0,P|459:243|410:248,1,90,0|2,1:2|0:0,0:0:0:0:
365,291,339651,2,0,P|399:314|424:309,1,45,0|0,0:0|1:2,0:0:0:0:
468,339,339848,2,0,L|298:359,1,135,2|2,0:0|1:2,0:0:0:0:
190,349,340341,101,2,0:0:0:0:
206,356,340440,1,0,0:0:0:0:
222,363,340539,1,2,1:2:0:0:
237,371,340637,2,0,P|226:335|252:279,1,90,0|2,0:0|0:0,0:0:0:0:
376,287,340934,2,0,P|350:314|288:320,1,90,0|2,1:2|0:0,0:0:0:0:
319,255,341230,2,0,P|351:228|372:228,1,45,0|0,0:0|1:2,0:0:0:0:
423,238,341427,2,0,P|379:202|399:107,1,135,2|2,0:0|1:2,0:0:0:0:
434,73,341822,1,0,0:0:0:0:
443,88,341920,2,0,L|495:83,1,45
369,48,342118,5,2,1:2:0:0:
342,45,342216,1,2,0:0:0:0:
315,42,342315,1,2,0:0:0:0:
288,39,342414,1,2,0:0:0:0:
236,89,342513,101,2,1:2:0:0:
200,91,342611,1,2,0:2:0:0:
164,94,342710,1,2,0:0:0:0:
128,97,342809,1,2,0:0:0:0:
92,100,342907,5,2,1:2:0:0:
63,134,343005,1,2,0:0:0:0:
56,178,343104,1,2,0:0:0:0:
70,220,343203,1,2,0:0:0:0:
103,250,343302,1,2,1:2:0:0:
101,259,343401,1,2,0:0:0:0:
99,267,343499,1,2,0:0:0:0:
97,275,343598,1,2,0:0:0:0:
95,283,343697,101,2,1:2:0:0:
106,296,343795,1,2,0:0:0:0:
121,306,343894,1,2,0:0:0:0:
138,311,343993,1,2,0:0:0:0:
156,310,344092,1,2,1:2:0:0:
174,280,344190,1,2,0:0:0:0:
208,274,344289,1,2,0:0:0:0:
302,339,344486,6,0,P|259:352|217:340,1,90,0|2,1:2|0:0,0:0:0:0:
210,333,344782,1,2,0:0:0:0:
204,326,344881,1,2,1:2:0:0:
219,304,344979,1,2,0:0:0:0:
240,287,345078,1,2,0:0:0:0:
265,276,345177,1,2,0:0:0:0:
291,272,345276,102,0,P|346:281|373:327,1,90,6|0,1:2|0:0,0:0:0:0:
421,342,345572,2,0,P|401:290|427:244,1,90,2|0,0:0|0:0,0:0:0:0:
463,209,345868,2,0,L|473:317,1,90,2|0,0:0|1:2,0:0:0:0:
395,204,346164,2,0,P|415:158|457:143,1,90,2|0,0:0|0:0,0:0:0:0:
467,144,346460,1,2,1:2:0:0:
276,54,346657,1,2,1:2:0:0:
248,133,346855,6,0,P|206:104|195:55,1,90,6|0,1:2|0:0,0:0:0:0:
94,138,347151,2,0,P|134:119|177:129,1,90,2|0,0:0|0:0,0:0:0:0:
178,267,347447,2,0,P|147:234|144:190,1,90,2|0,0:0|1:2,0:0:0:0:
298,192,347743,2,0,P|261:212|209:204,1,90,2|0,0:0|0:0,0:0:0:0:
215,207,348039,1,2,1:2:0:0:
389,255,348236,1,2,1:2:0:0:
345,79,348434,102,0,L|352:43,7,22.5,6|0|2|0|0|0|2|0,0:2|0:0|0:2|0:0|0:0|0:0|0:2|0:0,0:0:0:0:
274,64,348829,2,0,L|281:28,7,22.5,2|0|2|0|2|0|0|0,0:2|0:0|0:2|0:0|0:2|0:0|0:0|0:0,0:0:0:0:
203,48,349223,2,0,L|210:12,7,22.5,4|0|2|0|0|0|0|0,0:2|0:0|0:2|0:0|0:0|0:0|0:0|0:0,0:0:0:0:
157,104,349618,6,0,L|128:96,1,22.5,2|0,0:2|0:0,0:0:0:0:
155,121,349717,2,0,L|127:108,1,22.5
153,138,349815,2,0,L|128:120,1,22.5,2|0,0:2|0:0,0:0:0:0:
151,155,349914,2,0,L|129:133,1,22.5
149,173,350013,101,6,1:2:0:0:
63,238,350210,1,2,0:0:0:0:
63,238,350309,1,2,0:0:0:0:
63,238,350408,1,2,0:0:0:0:
68,273,350506,1,2,0:0:0:0:
90,301,350605,1,2,0:0:0:0:
122,316,350704,1,2,0:0:0:0:
158,313,350802,22,0,L|165:351,2,30,2|2|2,0:0|0:0|0:0,0:0:0:0:
188,295,351000,101,2,0:0:0:0:
209,266,351098,1,2,0:0:0:0:
216,230,351197,1,2,0:0:0:0:
232,237,351296,1,2,0:0:0:0:
248,244,351394,1,2,0:0:0:0:
264,251,351493,1,2,0:0:0:0:
280,258,351592,1,2,0:0:0:0:
425,329,351789,101,4,0:2:0:0:
348,190,352085,1,0,0:0:0:0:
348,190,352184,1,0,0:0:0:0:
348,100,352381,1,0,0:0:0:0:
426,146,352578,1,0,0:0:0:0:
295,143,352776,5,0,0:0:0:0:
413,77,352973,1,0,0:0:0:0:
413,212,353170,1,0,0:0:0:0:
372,147,353368,101,4,0:2:0:0:
89,60,353664,1,0,0:0:0:0:
89,60,353763,1,0,0:0:0:0:
93,131,353960,1,0,0:0:0:0:
98,202,354157,1,0,0:0:0:0:
115,30,354355,5,0,0:0:0:0:
71,232,354552,1,0,0:0:0:0:
93,131,354750,1,0,0:0:0:0:
46,332,354947,101,4,0:2:0:0:
293,122,355243,1,0,0:0:0:0:
293,122,355342,1,0,0:0:0:0:
352,272,355539,1,0,0:0:0:0:
510,238,355737,1,0,0:0:0:0:
291,205,355934,5,0,0:0:0:0:
407,319,356132,1,0,0:0:0:0:
448,165,356329,1,2,0:2:0:0:
332,51,356526,101,4,0:2:0:0:
188,321,356822,1,0,0:0:0:0:
188,321,356921,1,0,0:0:0:0:
189,88,357118,2,0,P|215:67|248:61,1,45
391,205,357316,2,0,P|386:238|367:265,1,45
188,321,357513,2,0,L|202:286,1,22.5
170,325,357612,2,0,L|184:290,1,22.5
152,329,357711,2,0,L|166:294,1,22.5
134,333,357809,2,0,L|148:298,1,22.5
118,337,357908,6,0,P|138:270|115:221,1,90,6|2,1:2|0:0,0:0:0:0:
128,245,358204,1,2,0:0:0:0:
122,237,358303,1,2,1:2:0:0:
96,228,358401,1,2,0:0:0:0:
75,211,358500,1,2,0:0:0:0:
61,189,358599,1,2,0:0:0:0:
55,163,358697,1,2,1:2:0:0:
66,68,358895,101,2,0:0:0:0:
84,87,358993,1,2,0:0:0:0:
106,102,359092,1,2,1:2:0:0:
132,110,359191,1,2,0:0:0:0:
159,111,359289,1,2,1:2:0:0:
185,105,359388,1,2,0:0:0:0:
209,92,359487,1,6,1:2:0:0:
329,22,359684,5,2,0:0:0:0:
301,44,359782,1,2,0:0:0:0:
288,77,359881,1,2,1:2:0:0:
294,112,359980,1,2,0:0:0:0:
316,140,360078,1,2,0:0:0:0:
349,152,360177,1,2,0:0:0:0:
384,146,360276,1,2,1:2:0:0:
424,55,360474,101,2,0:0:0:0:
420,90,360572,1,2,0:0:0:0:
417,126,360671,1,2,1:2:0:0:
414,162,360770,1,2,0:0:0:0:
411,198,360868,1,2,1:2:0:0:
408,234,360967,1,2,0:0:0:0:
405,270,361066,1,6,1:2:0:0:
325,336,361263,5,2,1:2:0:0:
321,318,361362,1,2,0:0:0:0:
317,300,361461,1,2,1:2:0:0:
283,312,361559,1,2,0:0:0:0:
247,305,361658,1,2,1:2:0:0:
243,287,361757,1,2,0:0:0:0:
240,269,361855,1,6,1:2:0:0:
204,262,361953,1,2,0:0:0:0:
170,274,362052,1,2,1:2:0:0:
166,256,362151,1,2,0:0:0:0:
162,238,362250,102,0,L|155:195,8,22.5,2|0|2|0|2|0|2|0|4,0:2|0:0|0:2|0:0|0:2|0:0|0:2|0:0|0:0,0:0:0:0:
366,308,363434,1,2,0:0:0:0:
344,92,364224,1,2,0:0:0:0:
97,141,365013,2,0,P|138:113|149:65,1,101.250003862381,2|0,0:0|0:0,0:0:0:0:
40,165,365408,6,0,L|190:165,1,135,2|0,0:0|0:0,0:0:0:0:
265,164,365803,102,0,L|284:117,2,45,6|0|0,1:2|0:0|0:0,0:0:0:0:
219,219,366198,1,0,1:0:0:0:
174,275,366395,1,2,0:2:0:0:
170,292,366494,1,2,0:2:0:0:
166,309,366592,1,2,1:2:0:0:
254,329,366790,1,2,0:2:0:0:
77,292,366987,1,2,1:2:0:0:
198,158,367185,1,2,0:2:0:0:
166,309,367382,6,0,L|154:359,2,45,2|0|0,1:2|0:0|0:0,0:0:0:0:
184,239,367777,1,0,1:2:0:0:
335,296,367974,1,2,0:0:0:0:
281,172,368171,1,2,1:2:0:0:
379,81,368369,1,2,0:0:0:0:
496,148,368566,1,2,1:2:0:0:
469,281,368764,1,2,0:0:0:0:
281,172,368961,101,2,1:2:0:0:
262,171,369060,1,0,0:0:0:0:
244,170,369158,1,0,0:0:0:0:
172,162,369356,2,0,P|179:209|224:234,1,90,0|2,1:2|0:0,0:0:0:0:
283,242,369652,1,2,0:0:0:0:
283,242,369750,2,0,P|241:263|234:317,1,90,2|0,1:2|0:0,0:0:0:0:
372,328,370145,1,2,1:2:0:0:
302,161,370343,1,2,0:0:0:0:
477,198,370540,5,2,1:2:0:0:
477,198,370639,1,0,0:0:0:0:
477,198,370737,1,0,0:0:0:0:
443,49,370935,2,0,L|435:139,1,90,0|2,1:2|0:0,0:0:0:0:
377,182,371231,1,0,0:0:0:0:
364,168,371329,2,0,L|372:78,1,90,2|2,1:2|1:2,1:0:0:0:
373,69,371626,1,2,0:0:0:0:
373,60,371724,1,2,1:2:0:0:
347,51,371822,1,2,0:0:0:0:
320,51,371921,1,2,1:2:0:0:
294,57,372020,1,2,0:0:0:0:
270,70,372118,1,6,1:2:0:0:
247,151,372316,101,2,0:0:0:0:
273,116,372414,1,2,0:0:0:0:
271,71,372513,1,2,1:2:0:0:
243,37,372612,1,2,0:0:0:0:
200,27,372710,1,2,0:0:0:0:
160,46,372809,1,2,0:0:0:0:
139,85,372908,2,0,L|97:65,1,45,6|0,1:2|0:0,0:0:0:0:
209,95,373106,5,2,0:0:0:0:
209,95,373205,1,2,0:0:0:0:
209,95,373303,1,2,1:2:0:0:
178,126,373401,1,2,0:0:0:0:
173,170,373500,1,2,1:2:0:0:
197,207,373599,1,2,0:0:0:0:
239,220,373697,1,6,1:2:0:0:
323,185,373895,101,2,0:0:0:0:
331,200,373994,1,2,0:0:0:0:
339,215,374093,1,2,1:2:0:0:
357,184,374191,1,2,0:0:0:0:
366,149,374290,1,2,0:0:0:0:
365,113,374389,1,2,0:0:0:0:
353,79,374487,1,6,1:2:0:0:
276,85,374685,5,2,0:0:0:0:
274,89,374784,1,2,0:0:0:0:
272,93,374882,1,2,1:2:0:0:
227,88,374980,1,2,0:0:0:0:
182,84,375079,1,2,1:2:0:0:
137,79,375178,1,2,0:0:0:0:
92,75,375276,1,6,1:2:0:0:
32,159,375474,101,2,1:2:0:0:
47,167,375573,1,2,0:0:0:0:
62,175,375672,1,2,1:2:0:0:
35,209,375770,1,2,0:0:0:0:
36,253,375869,1,2,1:2:0:0:
67,285,375968,1,2,0:0:0:0:
111,290,376066,2,0,P|122:274|124:244,1,45,6|0,1:2|0:0,0:0:0:0:
129,153,376264,6,0,P|137:170|162:187,1,45,2|0,1:2|0:0,0:0:0:0:
199,169,376461,1,2,1:2:0:0:
240,153,376559,1,2,0:0:0:0:
282,166,376658,1,2,1:2:0:0:
288,183,376757,1,2,0:0:0:0:
293,200,376856,2,0,L|282:269,1,45,6|0,0:2|0:0,0:0:0:0:
353,287,377053,102,0,L|364:218,1,45,2|2,0:2|0:2,0:0:0:0:
364,224,377251,1,2,0:2:0:0:
368,208,377349,1,2,0:2:0:0:
372,192,377448,1,2,0:2:0:0:
376,176,377547,1,2,0:2:0:0:
372,160,377646,1,2,0:2:0:0:
368,144,377744,1,0,0:0:0:0:
364,128,377843,1,0,0:0:0:0:
368,112,377942,1,0,0:0:0:0:
372,96,378040,2,0,L|408:96,1,22.5,2|0,0:2|0:0,0:0:0:0:
376,80,378139,2,0,L|412:80,1,22.5,2|0,0:2|0:0,0:0:0:0:
372,64,378238,2,0,L|400:64,1,22.5
368,48,378336,2,0,L|400:48,1,22.5
364,32,378435,5,6,0:0:0:0:
342,30,378534,1,0,0:0:0:0:
320,28,378632,1,0,0:0:0:0:
298,26,378731,1,0,0:0:0:0:
276,25,378830,2,0,P|256:49|249:75,1,53.9999983520508,0|0,1:2|0:0,0:0:0:0:
256,145,379027,2,0,P|261:175|276:197,1,53.9999983520508
342,227,379225,101,2,1:2:0:0:
313,241,379323,1,0,0:0:0:0:
284,256,379422,1,0,0:0:0:0:
255,270,379521,1,0,0:0:0:0:
186,297,379619,5,2,1:2:0:0:
188,265,379717,1,0,0:0:0:0:
189,232,379816,1,0,0:0:0:0:
191,200,379915,1,0,0:0:0:0:
220,162,380014,101,2,1:2:0:0:
215,143,380113,1,0,0:0:0:0:
210,124,380211,1,0,0:0:0:0:
205,105,380310,1,0,0:0:0:0:
188,95,380409,1,0,1:2:0:0:
172,85,380507,1,0,0:0:0:0:
155,75,380606,1,0,0:0:0:0:
138,65,380705,1,0,0:0:0:0:
121,55,380804,6,0,P|86:63|56:56,1,53.9999983520508,2|0,1:2|0:0,0:0:0:0:
29,125,381001,2,0,P|64:133|94:126,1,53.9999983520508
150,152,381198,101,2,1:2:0:0:
146,184,381297,1,2,0:0:0:0:
142,216,381396,1,2,0:0:0:0:
138,247,381494,1,2,0:0:0:0:
108,315,381593,5,2,1:2:0:0:
140,313,381692,1,0,0:0:0:0:
172,311,381791,1,0,0:0:0:0:
203,310,381889,1,0,0:0:0:0:
235,305,381988,1,0,1:2:0:0:
234,294,382086,1,0,0:0:0:0:
233,283,382185,1,0,0:0:0:0:
232,272,382284,1,0,0:0:0:0:
224,208,382383,101,2,1:2:0:0:
265,214,382481,1,2,0:0:0:0:
293,246,382580,1,2,0:0:0:0:
302,289,382679,1,2,0:0:0:0:
300,331,382777,1,2,1:2:0:0:
322,354,382875,1,0,0:0:0:0:
352,364,382974,1,0,0:0:0:0:
383,357,383073,1,0,0:0:0:0:
406,334,383172,6,0,P|423:349|457:355,1,53.9999983520508,2|0,1:2|0:0,0:0:0:0:
464,280,383369,2,0,P|486:276|512:254,1,53.9999983520508
457,202,383567,2,0,P|468:182|468:148,1,53.9999983520508,0|0,1:2|0:0,0:0:0:0:
393,153,383764,2,0,P|385:131|359:109,1,53.9999983520508
323,176,383962,2,0,L|317:241,1,53.9999983520508,2|0,1:2|0:0,0:0:0:0:
255,307,384159,2,0,L|250:253,1,53.9999983520508
244,177,384356,101,0,1:2:0:0:
211,174,384454,1,0,0:0:0:0:
179,172,384553,1,0,1:0:0:0:
147,169,384652,1,0,0:0:0:0:
114,167,384751,1,6,1:2:0:0:
23,55,384948,1,2,0:0:0:0:
25,87,385047,1,2,0:0:0:0:
28,119,385146,1,2,1:2:0:0:
5,227,385343,5,0,0:0:0:0:
5,227,385442,1,0,0:0:0:0:
5,227,385541,1,2,1:2:0:0:
9,269,385639,1,0,0:0:0:0:
36,301,385738,1,0,0:0:0:0:
77,312,385837,1,0,0:0:0:0:
118,299,385935,1,2,1:2:0:0:
147,285,386033,1,0,0:0:0:0:
179,284,386132,1,0,0:0:0:0:
208,297,386231,1,0,0:0:0:0:
235,360,386330,101,6,1:2:0:0:
270,336,386428,1,0,0:0:0:0:
282,295,386527,1,0,0:0:0:0:
266,256,386626,1,0,0:0:0:0:
231,231,386725,1,0,1:2:0:0:
204,197,386823,1,0,0:0:0:0:
200,155,386922,1,0,0:0:0:0:
220,117,387021,1,0,0:0:0:0:
273,171,387120,5,2,1:2:0:0:
305,168,387218,1,0,0:0:0:0:
337,165,387317,1,0,0:0:0:0:
369,163,387416,1,0,0:0:0:0:
334,232,387514,101,2,1:2:0:0:
367,230,387612,1,0,0:0:0:0:
399,227,387711,1,0,1:0:0:0:
431,224,387810,1,0,0:0:0:0:
437,158,387909,5,6,1:2:0:0:
416,109,388007,1,0,0:0:0:0:
369,86,388106,1,0,0:0:0:0:
318,100,388205,1,0,0:0:0:0:
286,144,388304,2,0,P|278:172|262:201,1,53.9999983520508,0|0,1:0|0:0,0:0:0:0:
136,277,388501,2,0,P|144:249|160:220,1,53.9999983520508
201,145,388699,101,4,1:2:0:0:
152,123,388797,1,0,0:0:0:0:
133,74,388896,1,0,0:0:0:0:
155,27,388995,1,0,0:0:0:0:
205,7,389093,2,0,P|207:35|201:68,1,53.9999983520508,0|0,1:2|0:0,0:0:0:0:
74,184,389291,2,0,P|71:157|75:130,1,53.9999983520508
16,294,389488,22,0,L|8:253,2,35.9999989013672,2|2|2,1:2|0:0|0:0,0:0:0:0:
19,308,389685,85,0,1:0:0:0:
21,318,389784,1,0,0:0:0:0:
23,328,389883,1,2,1:2:0:0:
52,340,389982,1,0,0:0:0:0:
84,340,390080,1,0,1:0:0:0:
114,329,390179,1,0,0:0:0:0:
136,305,390278,22,0,L|129:266,2,35.9999989013672,2|2|2,1:2|0:0|0:0,0:0:0:0:
197,274,390475,2,0,L|190:235,2,35.9999989013672,2|2|2,1:2|0:0|0:0,0:0:0:0:
261,241,390672,5,2,1:2:0:0:
263,269,390737,1,2,0:0:0:0:
273,296,390803,1,2,0:0:0:0:
291,318,390869,1,2,1:2:0:0:
314,335,390935,1,2,0:0:0:0:
342,344,391000,1,2,0:0:0:0:
370,345,391067,70,0,P|408:341|445:288,1,90,6|0,1:2|0:0,0:0:0:0:
379,277,391363,1,0,0:0:0:0:
379,277,391462,2,0,L|386:227,1,45,2|0,1:2|0:0,0:0:0:0:
396,161,391659,1,0,0:0:0:0:
382,127,391758,1,0,0:0:0:0:
365,94,391857,2,0,P|405:108|459:86,1,90,2|2,1:2|0:0,0:0:0:0:
408,40,392153,1,0,0:0:0:0:
342,22,392251,5,2,1:2:0:0:
328,34,392350,1,0,0:0:0:0:
250,15,392449,1,2,0:0:0:0:
244,32,392548,1,0,0:0:0:0:
169,49,392646,1,2,1:2:0:0:
178,85,392745,1,0,0:0:0:0:
174,102,392843,1,0,0:0:0:0:
170,119,392942,1,0,0:0:0:0:
164,136,393041,102,0,P|167:169|185:191,1,45,2|0,1:2|0:0,0:0:0:0:
265,224,393238,2,0,L|275:167,1,45,2|2,0:0|0:0,0:0:0:0:
295,93,393436,22,0,L|258:83,2,30,2|2|2,1:2|0:0|0:0,0:0:0:0:
362,71,393633,102,0,L|411:79,1,45,2|2,0:0|0:0,0:0:0:0:
439,142,393830,1,0,1:2:0:0:
440,159,393929,1,0,0:0:0:0:
377,179,394028,1,0,0:0:0:0:
386,193,394126,1,0,0:0:0:0:
357,248,394225,102,0,P|334:208|269:193,1,90,2|0,1:2|0:0,0:0:0:0:
268,193,394521,1,0,0:0:0:0:
268,220,394620,1,2,1:2:0:0:
258,245,394718,1,0,0:0:0:0:
234,258,394817,1,2,0:0:0:0:
206,258,394916,1,0,0:0:0:0:
182,248,395015,22,0,L|169:294,2,30,2|2|2,1:2|0:0|0:0,0:0:0:0:
157,239,395212,2,0,L|172:195,2,30,2|2|2,0:0|0:0|0:0,0:0:0:0:
134,224,395409,101,2,1:2:0:0:
117,202,395508,1,0,0:0:0:0:
110,176,395607,1,2,0:0:0:0:
111,149,395705,1,0,0:0:0:0:
178,176,395804,101,2,1:2:0:0:
204,171,395902,1,0,0:0:0:0:
227,157,396001,1,0,0:0:0:0:
244,136,396100,1,0,0:0:0:0:
254,111,396199,5,2,1:2:0:0:
250,164,396297,1,2,0:0:0:0:
246,218,396396,1,2,0:0:0:0:
317,273,396594,1,0,1:2:0:0:
237,308,396725,5,2,0:0:0:0:
209,295,396790,1,2,0:0:0:0:
186,277,396856,1,2,0:0:0:0:
167,253,396922,1,2,0:0:0:0:
154,227,396988,1,2,1:2:0:0:
147,197,397053,1,2,0:0:0:0:
147,167,397119,1,2,0:0:0:0:
154,138,397186,1,2,1:2:0:0:
167,111,397251,1,2,0:0:0:0:
186,88,397317,1,2,0:0:0:0:
211,71,397383,86,0,L|264:58,1,45,6|0,1:2|0:0,0:0:0:0:
315,20,397581,1,0,0:0:0:0:
327,32,397679,2,0,L|325:80,1,45,2|0,0:0|1:2,0:0:0:0:
319,149,397877,1,0,0:0:0:0:
320,157,397975,1,2,0:0:0:0:
321,165,398074,1,0,0:0:0:0:
322,173,398173,2,0,P|336:198|363:216,1,45,2|0,1:2|0:0,0:0:0:0:
454,247,398370,2,0,L|424:287,1,45
352,367,398567,22,0,L|389:371,2,30,2|2|2,1:2|0:0|0:0,0:0:0:0:
290,326,398765,102,0,L|238:317,1,45,2|0,0:0|0:0,0:0:0:0:
174,328,398962,1,6,1:2:0:0:
176,310,399061,1,0,0:0:0:0:
103,313,399160,1,0,0:0:0:0:
111,297,399258,2,0,P|103:281|102:245,1,45,2|0,0:0|1:2,0:0:0:0:
132,188,399456,1,0,0:0:0:0:
137,170,399554,6,0,L|93:176,2,30,2|2|2,0:0|0:0|0:0,0:0:0:0:
197,142,399752,85,2,1:2:0:0:
202,125,399850,1,0,0:0:0:0:
268,136,399949,1,2,1:2:0:0:
278,120,400048,1,0,0:0:0:0:
339,145,400146,1,2,1:2:0:0:
353,134,400245,1,0,0:0:0:0:
405,172,400344,1,2,1:2:0:0:
422,168,400442,1,0,0:0:0:0:
443,236,400541,22,0,L|402:252,2,30,6|2|2,0:2|0:2|0:2,0:0:0:0:
346,225,400739,2,0,L|305:241,2,30,2|2|2,0:2|0:2|0:2,0:0:0:0:
303,311,400936,2,0,L|262:327,2,30,2|2|2,0:2|0:2|0:2,0:0:0:0:
206,300,401133,2,0,L|165:316,2,30,2|2|2,0:2|0:2|0:2,0:2:0:0:
114,339,401331,5,6,0:2:0:0:
98,329,401396,1,2,0:2:0:0:
86,316,401462,1,2,0:2:0:0:
77,301,401528,1,2,0:2:0:0:
73,283,401594,1,2,0:2:0:0:
73,265,401659,1,2,0:2:0:0:
78,248,401725,1,2,0:2:0:0:
102,222,401790,1,2,0:2:0:0:
118,189,401856,1,2,0:2:0:0:
123,154,401922,1,2,0:2:0:0:
118,119,401988,1,2,0:2:0:0:
102,86,402053,1,2,0:2:0:0:
77,60,402119,69,6,0:0:0:0:
182,30,402318,1,0,0:0:0:0:
191,39,402416,2,0,L|186:148,1,101.250003862381,2|2,0:0|0:0,0:0:0:0:
183,207,402910,1,2,0:0:0:0:
221,304,403107,1,2,0:0:0:0:
318,345,403304,1,2,0:0:0:0:
415,305,403502,1,2,0:0:0:0:
472,213,403699,6,0,P|492:168|392:84,1,180,6|8,1:2|1:2,0:0:0:0:
378,182,404291,1,2,0:0:0:0:
393,173,404390,1,2,0:0:0:0:
409,164,404489,1,2,1:2:0:0:
396,253,404686,1,2,0:0:0:0:
308,269,404884,1,10,1:2:0:0:
265,190,405081,1,2,0:0:0:0:
328,125,405278,1,2,1:2:0:0:
328,125,405673,101,8,1:2:0:0:
409,164,405870,1,0,0:0:0:0:
405,73,406068,2,0,L|457:67,1,45,0|8,1:2|0:0,0:0:0:0:
322,40,406265,1,0,0:0:0:0:
245,86,406462,1,8,1:2:0:0:
240,103,406561,1,0,0:0:0:0:
235,120,406660,1,0,0:0:0:0:
230,137,406759,1,0,0:0:0:0:
226,154,406857,6,0,P|174:166|122:135,1,90,2|0,1:2|0:0,0:0:0:0:
134,147,407153,1,0,0:0:0:0:
129,139,407252,1,8,1:2:0:0:
43,204,407449,1,2,0:0:0:0:
47,186,407548,1,2,0:0:0:0:
51,168,407647,2,0,L|104:155,1,45,2|8,1:2|0:0,0:0:0:0:
122,224,407844,1,2,0:0:0:0:
90,308,408041,1,10,1:2:0:0:
0,305,408239,1,2,0:0:0:0:
183,308,408436,1,2,1:2:0:0:
183,308,408831,101,10,1:2:0:0:
252,328,409028,1,0,0:0:0:0:
324,344,409226,2,0,L|376:336,1,45,0|8,1:2|0:0,0:0:0:0:
304,276,409423,1,2,0:0:0:0:
373,130,409620,1,10,1:2:0:0:
374,148,409719,1,2,0:0:0:0:
375,166,409818,1,2,1:2:0:0:
376,184,409917,1,2,0:0:0:0:
377,201,410015,6,0,P|424:220|476:188,1,90,6|0,1:2|0:0,0:0:0:0:
465,201,410311,1,0,0:0:0:0:
471,194,410410,1,8,1:2:0:0:
349,265,410607,1,2,0:0:0:0:
345,282,410706,1,2,0:0:0:0:
341,299,410805,2,0,L|266:291,1,45,2|8,1:2|0:0,0:0:0:0:
163,269,411002,1,2,0:0:0:0:
270,364,411199,1,10,1:2:0:0:
234,224,411397,1,2,0:0:0:0:
125,343,411594,101,6,1:2:0:0:
60,182,411792,1,2,0:0:0:0:
208,276,411989,1,10,1:2:0:0:
33,286,412186,1,2,0:0:0:0:
167,173,412384,2,0,L|165:128,1,45,2|8,1:2|0:0,0:0:0:0:
211,75,412580,1,0,0:0:0:0:
342,20,412778,21,10,1:2:0:0:
403,57,412910,1,2,0:0:0:0:
425,125,413042,1,2,0:0:0:0:
395,190,413173,1,6,1:2:0:0:
218,314,413568,6,0,P|241:342|282:349,1,60,2|2,1:2|0:0,0:0:0:0:
272,202,413831,2,0,L|281:284,1,60,2|6,0:0|1:2,0:0:0:0:
67,213,414357,101,2,1:2:0:0:
119,262,414489,1,2,0:0:0:0:
129,190,414621,1,2,0:0:0:0:
139,119,414752,85,6,0:2:0:0:
150,94,414850,1,0,0:0:0:0:
169,75,414949,1,0,0:0:0:0:
193,63,415048,1,0,0:0:0:0:
219,59,415146,1,2,0:2:0:0:
246,64,415245,1,0,0:0:0:0:
269,78,415344,1,0,0:0:0:0:
282,101,415442,1,0,0:0:0:0:
301,120,415541,1,2,0:2:0:0:
324,134,415640,1,0,0:0:0:0:
351,140,415738,1,0,0:0:0:0:
377,139,415837,1,0,0:0:0:0:
403,131,415936,1,2,0:2:0:0:
426,116,416034,1,0,0:0:0:0:
443,96,416133,1,0,0:0:0:0:
452,70,416233,1,0,0:0:0:0:
457,43,416331,22,0,L|360:21,2,71.9999978027344,6|2|2,1:2|0:0|0:0,0:0:0:0:
463,114,416726,1,10,1:2:0:0:
469,185,416857,1,0,0:0:0:0:
476,257,416989,1,0,0:0:0:0:
315,268,417121,5,2,1:2:0:0:
372,331,417252,1,0,0:0:0:0:
397,248,417384,1,0,0:0:0:0:
288,344,417516,101,10,1:2:0:0:
207,361,417647,1,0,0:0:0:0:
152,300,417779,1,0,0:0:0:0:
186,221,417910,6,0,P|195:191|184:146,1,71.9999978027344,2|0,1:2|0:0,0:0:0:0:
55,149,418173,1,0,0:0:0:0:
55,149,418305,2,0,P|76:171|120:184,1,71.9999978027344,10|0,1:2|0:0,0:0:0:0:
184,68,418568,1,0,0:0:0:0:
184,68,418700,2,0,P|153:75|120:107,1,71.9999978027344,2|0,1:2|0:0,0:0:0:0:
186,221,418963,1,0,0:0:0:0:
266,252,419095,1,10,1:2:0:0:
252,167,419226,1,0,0:0:0:0:
331,200,419358,1,0,0:0:0:0:
319,115,419490,69,2,1:2:0:0:
324,98,419588,1,2,0:0:0:0:
390,109,419687,5,2,0:0:0:0:
400,93,419786,1,2,0:0:0:0:
461,118,419884,6,0,L|489:48,2,71.9999978027344,10|0|0,1:2|0:0|0:0,0:0:0:0:
413,223,420279,1,2,1:2:0:0:
491,306,420410,1,0,0:0:0:0:
379,337,420542,1,0,0:0:0:0:
296,256,420674,5,10,1:2:0:0:
183,277,420805,1,0,0:0:0:0:
69,299,420937,1,0,0:0:0:0:
108,191,421068,69,2,1:2:0:0:
70,169,421167,1,2,0:0:0:0:
65,125,421266,2,0,L|76:67,1,53.9999983520508,2|2,0:0|0:0,0:0:0:0:
152,31,421463,22,0,L|192:37,2,35.9999989013672,10|2|2,1:2|0:0|0:0,0:0:0:0:
174,103,421660,102,0,P|203:114|224:135,1,53.9999983520508,2|2,0:0|0:0,0:0:0:0:
171,178,421858,2,0,P|211:226|200:292,1,107.999996704102,2|0,1:2|0:0,0:0:0:0:
167,344,422253,1,8,1:2:0:0:
204,364,422351,1,0,0:0:0:0:
246,358,422450,1,0,1:2:0:0:
276,328,422549,1,0,0:0:0:0:
286,285,422647,6,0,P|342:313|400:261,1,120,6|2,1:2|0:0,0:0:0:0:
340,235,423042,1,8,1:2:0:0:
394,187,423174,2,0,P|338:159|280:211,1,120,2|0,0:0|0:0,0:0:0:0:
237,230,423535,85,10,0:0:0:0:
254,233,423634,2,0,P|200:245|165:219,2,90,2|8|2,0:0|1:2|0:0,0:0:0:0:
168,153,424226,38,0,P|146:104|69:84,1,120,6|2,1:2|0:0,0:0:0:0:
82,153,424621,1,8,1:2:0:0:
73,224,424753,2,0,B|65:324|65:324|85:302,1,120,2|0,0:0|1:2,0:0:0:0:
137,269,425114,85,10,0:2:0:0:
143,285,425213,2,0,L|150:195,2,90,2|8|0,1:2|1:2|1:2,0:0:0:0:
215,339,425805,101,6,0:2:0:0:
232,336,425904,1,2,0:2:0:0:
249,332,426003,1,2,0:2:0:0:
266,328,426101,1,2,0:2:0:0:
264,255,426200,5,2,0:2:0:0:
281,261,426299,1,2,0:2:0:0:
297,266,426398,1,2,0:2:0:0:
314,271,426496,1,2,0:2:0:0:
330,276,426595,2,0,L|361:255,7,22.5,6|0|0|0|0|0|0|0,0:2|0:0|0:0|0:0|0:0|0:0|0:0|0:0,0:0:0:0:
401,308,426990,2,0,L|432:287,7,22.5,2|0|0|0|0|0|0|0,0:2|0:0|0:0|0:0|0:0|0:0|0:0|0:0,0:0:0:0:
474,338,427384,101,6,0:0:0:0:
385,84,427976,1,2,0:0:0:0:
394,68,428075,1,2,0:0:0:0:
404,53,428174,2,0,L|400:128,1,67.5,2|0,0:0|0:0,0:0:0:0:
375,198,428963,53,6,1:2:0:0:
313,160,429062,2,0,L|261:165,1,45,0|0,0:0|0:0,0:0:0:0:
124,176,429358,1,0,0:0:0:0:
131,192,429457,1,0,0:0:0:0:
138,207,429555,1,0,0:0:0:0:
80,251,429753,1,0,0:0:0:0:
87,267,429852,1,0,0:0:0:0:
94,282,429950,1,0,0:0:0:0:
165,275,430148,6,0,B|210:287|210:287|263:270,1,90,2|0,0:0|0:0,0:0:0:0:
360,348,430542,2,0,B|315:336|315:336|262:353,1,90,2|0,0:0|0:0,0:0:0:0:
343,269,430937,1,0,0:0:0:0:
359,275,431036,1,0,0:0:0:0:
375,281,431134,1,0,0:0:0:0:
385,120,431332,6,0,L|389:210,1,90,2|0,0:0|0:0,0:0:0:0:
445,256,431727,1,0,0:0:0:0:
461,262,431826,1,0,0:0:0:0:
477,268,431924,1,0,0:0:0:0:
435,326,432121,6,0,P|401:355|345:347,1,90,2|0,0:0|0:0,0:0:0:0:
288,331,432516,1,0,0:0:0:0:
285,313,432615,1,0,0:0:0:0:
282,295,432713,2,0,L|292:244,1,45
211,238,432911,1,0,0:0:0:0:
208,256,433010,1,0,0:0:0:0:
205,274,433108,1,0,0:0:0:0:
152,347,433306,6,0,P|170:362|191:370,1,45,2|0,0:0|0:0,0:0:0:0:
103,245,433503,2,0,P|103:267|111:289,1,45,2|0,0:0|0:0,0:0:0:0:
147,141,433700,2,0,P|130:155|119:175,2,45,2|0|0,0:0|0:0|0:0,0:0:0:0:
286,103,434095,1,0,0:0:0:0:
269,111,434194,1,0,0:0:0:0:
253,119,434292,1,0,0:0:0:0:
317,181,434490,1,0,0:0:0:0:
325,198,434589,1,0,0:0:0:0:
333,213,434687,1,0,0:0:0:0:
407,162,434885,1,2,0:0:0:0:
422,154,434983,1,2,0:0:0:0:
439,146,435082,1,2,0:0:0:0:
455,138,435181,1,2,0:0:0:0:
470,130,435279,6,0,L|467:233,1,90,6|0,1:2|0:0,0:0:0:0:
419,274,435674,1,0,0:0:0:0:
422,291,435773,1,0,0:0:0:0:
425,308,435871,1,0,0:0:0:0:
327,355,436069,1,0,0:0:0:0:
330,338,436168,1,0,0:0:0:0:
333,321,436266,1,0,0:0:0:0:
235,274,436464,1,0,0:0:0:0:
238,291,436563,1,0,0:0:0:0:
241,308,436661,1,0,0:0:0:0:
144,355,436858,37,0,0:0:0:0:
147,338,436957,1,0,0:0:0:0:
150,321,437055,1,0,0:0:0:0:
81,297,437253,1,0,0:0:0:0:
84,280,437352,1,0,0:0:0:0:
87,263,437450,1,0,0:0:0:0:
136,210,437648,1,0,0:0:0:0:
146,195,437747,2,0,P|111:195|71:140,1,90
121,108,438043,1,2,0:0:0:0:
138,110,438141,1,0,0:0:0:0:
155,112,438240,1,2,0:0:0:0:
172,114,438339,1,0,0:0:0:0:
189,116,438437,6,0,L|181:59,2,45,2|0|0,0:0|0:0|0:0,0:0:0:0:
231,174,438832,1,0,0:0:0:0:
222,190,438931,1,0,0:0:0:0:
184,251,439128,1,0,0:0:0:0:
189,268,439227,1,0,0:0:0:0:
205,356,439424,1,0,0:0:0:0:
188,348,439523,1,0,0:0:0:0:
121,307,439720,1,0,0:0:0:0:
104,315,439819,1,0,0:0:0:0:
87,323,439918,1,0,0:0:0:0:
87,305,440016,6,0,L|97:199,1,90,2|0,0:0|0:0,0:0:0:0:
102,143,440411,1,0,0:0:0:0:
94,126,440510,1,0,0:0:0:0:
86,109,440609,1,0,0:0:0:0:
171,137,440806,5,0,0:0:0:0:
179,153,440905,1,0,0:0:0:0:
186,168,441003,1,0,0:0:0:0:
194,184,441102,1,0,0:0:0:0:
202,200,441201,1,0,0:0:0:0:
219,159,441299,1,0,0:0:0:0:
255,132,441398,1,0,0:0:0:0:
299,126,441497,1,0,0:0:0:0:
340,142,441595,6,0,L|442:132,1,90,6|0,1:2|0:0,0:0:0:0:
502,126,441990,1,0,0:0:0:0:
500,143,442089,1,0,0:0:0:0:
498,161,442188,1,0,0:0:0:0:
444,209,442385,1,0,0:0:0:0:
442,226,442484,1,0,0:0:0:0:
440,244,442583,1,0,0:0:0:0:
388,294,442780,1,0,0:0:0:0:
386,311,442879,1,0,0:0:0:0:
384,329,442978,1,0,0:0:0:0:
313,320,443174,5,0,0:0:0:0:
295,325,443273,1,0,0:0:0:0:
278,331,443372,1,0,0:0:0:0:
253,263,443569,1,0,0:0:0:0:
238,252,443668,1,0,0:0:0:0:
222,243,443767,1,0,0:0:0:0:
268,188,443964,1,0,0:0:0:0:
266,170,444063,1,0,0:0:0:0:
263,152,444162,1,0,0:0:0:0:
213,67,444359,38,0,P|235:70|256:80,1,45,2|0,0:0|0:0,0:0:0:0:
104,98,444556,2,0,P|120:83|141:74,1,45,2|0,0:0|0:0,0:0:0:0:
66,207,444753,2,0,P|65:184|71:163,2,45,2|0|0,0:0|0:0|0:0,0:0:0:0:
126,350,445148,2,0,P|126:305|103:268,1,90,2|0,0:0|0:0,0:0:0:0:
245,182,445543,6,0,P|206:204|185:243,1,90,2|0,0:0|0:0,0:0:0:0:
301,341,445938,2,0,P|300:296|277:258,1,90,2|0,0:0|0:0,0:0:0:0:
129,304,446332,2,0,P|167:325|212:324,1,90,2|0,0:0|0:0,0:0:0:0:
374,326,446727,1,2,0:0:0:0:
391,330,446826,1,0,0:0:0:0:
408,334,446925,1,0,0:0:0:0:
408,244,447122,5,2,0:0:0:0:
414,227,447221,1,0,0:0:0:0:
413,209,447319,1,0,0:0:0:0:
419,192,447418,1,0,0:0:0:0:
414,174,447517,1,2,0:0:0:0:
390,126,447615,1,0,0:0:0:0:
344,98,447714,1,0,0:0:0:0:
291,99,447813,1,0,0:0:0:0:
246,128,447911,5,4,0:2:0:0:
173,75,448109,1,0,0:0:0:0:
219,124,448306,5,8,0:2:0:0:
114,94,448504,1,0,0:0:0:0:
186,130,448701,5,0,0:0:0:0:
56,139,448899,1,0,0:0:0:0:
157,153,449096,37,8,0:2:0:0:
21,213,449294,1,0,0:0:0:0:
164,283,449490,5,4,0:2:0:0:
347,100,449688,1,0,0:0:0:0:
255,321,449885,5,8,0:2:0:0:
256,62,450083,1,0,0:0:0:0:
347,283,450280,5,0,0:0:0:0:
164,100,450477,1,0,0:0:0:0:
385,192,450675,5,8,0:2:0:0:
126,191,450872,1,0,0:0:0:0:
64,318,451069,6,0,L|73:371,1,45,4|0,0:2|0:0,0:0:0:0:
67,257,451267,2,0,L|58:310,1,45
184,307,451464,38,0,L|194:370,1,45
187,233,451662,2,0,L|176:296,1,45
315,298,451859,6,0,L|327:374,1,45,4|0,0:2|0:0,0:0:0:0:
319,210,452057,2,0,L|306:286,1,45
459,286,452254,6,0,L|474:373,1,45
464,181,452452,2,0,L|449:266,1,45
401,49,452648,5,4,0:2:0:0:
440,64,452746,1,0,0:0:0:0:
442,107,452845,1,0,0:0:0:0:
404,125,452944,1,0,0:0:0:0:
371,99,453043,38,0,L|368:76,7,22.5
406,165,453438,6,0,L|432:186,7,33.7500012874604
329,160,453833,6,0,L|283:180,8,45,0|0|0|0|0|0|0|0|4,0:0|0:0|0:0|0:0|0:0|0:0|0:0|0:0|1:2,0:0:0:0:
256,192,454277,12,0,458965,0:0:0:0:
