osu file format v14

[General]
AudioFilename: Entrance.mp3
AudioLeadIn: 0
PreviewTime: 75182
Countdown: 1
SampleSet: Normal
StackLeniency: 0.7
Mode: 0
LetterboxInBreaks: 1
WidescreenStoryboard: 0

[Editor]
DistanceSpacing: 0.9
BeatDivisor: 4
GridSize: 8
TimelineZoom: 1

[Metadata]
Title:Entrance
TitleUnicode:Entrance
Artist:Ice
ArtistUnicode:Ice
Creator:zhag
Version:Normal Entrance
Source:Cytus
Tags:MUG Ice
BeatmapID:653637
BeatmapSetID:290088

[Difficulty]
HPDrainRate:1
CircleSize:2
OverallDifficulty:1
ApproachRate:0
SliderMultiplier:1.4
SliderTickRate:2

[Events]
//Background and Video events
0,0,"e1e591ec08fa513d9648867e3f6d55fbb3fbd91f.jpg",0,0
//Break Periods
2,43370,52097
//Storyboard Layer 0 (Background)
//Storyboard Layer 1 (Fail)
//Storyboard Layer 2 (Pass)
//Storyboard Layer 3 (Foreground)
//Storyboard Sound Samples

[TimingPoints]
768.929950715795,335.195530726257,4,1,0,40,1,0
10489,-90.9090909090909,4,1,0,60,0,0
21886,-83.3333333333333,4,1,0,80,0,0
32612,-71.4285714285714,4,1,0,100,0,1
36970,-133.333333333333,4,1,0,60,0,1
37808,-71.4285714285714,4,1,0,80,0,1
40657,-62.5,4,1,0,100,0,1
43338,-133.333333333333,4,1,0,40,0,0
53729,-90.9090909090909,4,1,0,60,0,0
58506,-133.333333333333,4,1,0,40,0,0
59271,-83.3333333333333,4,1,0,70,0,0
64456,-71.4285714285714,4,1,0,80,0,0
69816,-62.5,4,1,0,100,0,0
72518,-58.8235294117647,4,1,0,100,0,0
74511,-83.3333333333333,4,1,0,70,0,0
75182,-71.4285714285714,4,1,0,80,0,0
85322,-133.333333333333,4,1,0,40,0,0
86000,-71.4285714285714,4,1,0,80,0,1
91271,-62.5,4,1,0,90,0,1
93282,-55.5555555555556,4,1,0,100,0,1
96634,-133.333333333333,4,1,0,40,0,0

[Colours]
Combo1 : 0,0,0
Combo2 : 240,240,240
Combo3 : 213,213,213
Combo4 : 170,170,170
Combo5 : 105,105,105
Combo6 : 49,49,49

[HitObjects]
160,136,768,5,0,0:0:0:0:
288,136,1187,2,2,P|400:144|416:160,1,140
216,224,2361,1,0,0:0:0:0:
312,88,2780,5,0,0:0:0:0:
312,216,3199,2,2,P|304:328|288:344,1,140
224,144,4373,1,0,0:0:0:0:
296,144,4707,5,0,0:0:0:0:
376,152,5126,2,8,L|432:192,12,35
352,248,6551,5,0,0:0:0:0:
224,248,6970,2,2,P|112:240|96:224,1,140
296,160,8144,1,0,0:0:0:0:
352,248,8646,5,0,0:0:0:0:
224,248,9065,2,2,P|112:240|96:224,1,140
160,192,9819,2,0,L|304:192,1,140
256,192,10657,5,0,0:0:0:0:
160,80,11327,5,0,0:0:0:0:
256,80,11830,1,2,0:0:0:0:
352,80,12165,2,0,L|352:296,3,209.999993591309
368,104,13841,5,0,0:0:0:0:
368,288,14260,2,0,L|152:288,3,209.999993591309
160,176,16020,6,2,P|216:176|152:192,1,209.999993591309
352,304,16774,5,0,0:0:0:0:
160,304,17444,2,0,L|160:88,3,209.999993591309
144,80,19204,5,0,0:0:0:0:
280,80,19623,1,2,0:0:0:0:
256,192,19958,12,0,21718,0:0:0:0:
136,88,22053,5,0,0:0:0:0:
288,88,22724,1,0,0:0:0:0:
408,136,23394,5,0,0:0:0:0:
352,200,24065,1,0,0:0:0:0:
360,144,24735,5,0,0:0:0:0:
360,224,25406,1,0,0:0:0:0:
312,344,26076,5,0,0:0:0:0:
312,272,26662,2,0,P|360:224|376:232,1,97.9999970092774
376,296,27248,5,0,0:0:0:0:
304,296,27919,1,0,0:0:0:0:
104,248,28589,5,0,0:0:0:0:
224,248,29260,1,0,0:0:0:0:
152,312,29930,5,0,0:0:0:0:
152,224,30601,1,0,0:0:0:0:
200,40,31271,5,0,0:0:0:0:
232,192,31942,6,0,L|312:192,5,48.9999985046387
136,184,32863,6,0,P|400:184|400:216,1,391.99998803711
272,64,33869,6,0,P|272:328|240:328,1,391.99998803711
400,200,34875,6,0,P|136:200|136:168,1,391.99998803711
256,320,35880,6,0,P|256:56|288:56,1,391.99998803711
208,192,37053,6,0,L|320:192,2,105
184,120,38059,5,0,0:0:0:0:
256,120,38394,1,0,0:0:0:0:
328,120,38729,1,0,0:0:0:0:
328,256,39400,5,0,0:0:0:0:
256,256,39735,1,0,0:0:0:0:
184,256,40070,1,0,0:0:0:0:
144,192,40824,6,0,L|256:192,2,112
256,80,41495,6,0,L|256:192,2,112
368,192,42165,6,0,L|256:192,2,112
256,304,42835,6,0,L|256:192,2,112
192,160,53897,6,0,P|336:168|352:184,1,167.999994873047
336,256,54735,2,0,L|360:192,1,38.5000011749268
176,208,55238,6,0,P|320:288|336:280,1,167.999994873047
256,216,56076,2,0,L|304:216,1,38.5000011749268
200,160,56578,5,0,0:0:0:0:
352,160,57249,5,0,0:0:0:0:
432,232,57919,5,0,0:0:0:0:
312,232,58590,6,0,B|272:232|272:232|272:192|272:192|312:192|312:192|312:224|312:224|312:272,1,175
200,104,59428,5,0,0:0:0:0:
272,104,59763,1,0,0:0:0:0:
352,104,60098,1,0,0:0:0:0:
424,192,60433,2,0,L|56:192,1,342.999989532471
168,152,61439,5,0,0:0:0:0:
216,144,61690,1,0,0:0:0:0:
352,152,61942,1,0,0:0:0:0:
352,240,62528,5,0,0:0:0:0:
160,192,62780,1,0,0:0:0:0:
160,240,63031,1,0,0:0:0:0:
160,160,63618,6,0,P|328:160|424:336,1,342.999989532471
336,96,64958,6,0,L|336:280,2,183.750001752377
336,272,66299,6,0,L|144:272,2,183.750001752377
176,288,67724,6,0,L|176:96,2,183.750001752377
336,112,69065,6,0,L|336:304,2,183.750001752377
112,88,69986,6,0,P|176:96|208:136,3,66.4999982242585
360,48,70657,6,0,P|352:112|312:144,3,66.4999982242585
400,296,71327,6,0,P|336:288|304:248,3,66.4999982242585
152,336,71997,6,0,P|160:272|200:240,3,66.4999982242585
24,192,72668,6,0,B|104:168|176:192|176:192|368:192|368:192|440:160|536:200,2,476.00000907898
152,160,74344,5,0,0:0:0:0:
192,192,74679,2,0,L|320:192,1,125.999996154785
136,112,75349,5,0,0:0:0:0:
232,112,75852,5,0,0:0:0:0:
328,112,76355,5,0,0:0:0:0:
424,120,76858,5,0,0:0:0:0:
424,288,77361,5,0,0:0:0:0:
320,288,77863,5,0,0:0:0:0:
200,288,78366,5,0,0:0:0:0:
96,288,78869,5,0,0:0:0:0:
96,200,79372,5,0,0:0:0:0:
80,184,79875,6,2,B|152:160|152:160|256:192,1,183.750001752377
208,96,80545,5,0,0:0:0:0:
296,96,80964,5,0,0:0:0:0:
384,96,81467,5,0,0:0:0:0:
288,176,81970,5,0,0:0:0:0:
208,248,82472,5,0,0:0:0:0:
120,304,82975,5,0,0:0:0:0:
120,216,83478,5,0,0:0:0:0:
128,136,83981,5,0,0:0:0:0:
208,144,84484,5,0,0:0:0:0:
304,144,84986,5,0,0:0:0:0:
192,184,85322,6,0,P|272:192|296:184,2,105,2|0|0,0:0|0:0|0:0,0:0:0:0:
376,272,86411,5,0,0:0:0:0:
280,272,86830,5,0,0:0:0:0:
184,272,87249,5,0,0:0:0:0:
88,264,87752,5,0,0:0:0:0:
88,96,88255,5,0,0:0:0:0:
192,96,88757,5,0,0:0:0:0:
312,96,89260,5,0,0:0:0:0:
416,96,89763,5,0,0:0:0:0:
416,160,90266,5,0,0:0:0:0:
432,200,90768,6,2,B|360:224|360:224|256:192,1,183.750001752377
160,152,91439,5,0,0:0:0:0:
288,152,91942,5,0,0:0:0:0:
424,152,92444,5,0,0:0:0:0:
352,272,92947,5,0,0:0:0:0:
384,200,93534,6,0,P|152:200|384:184,3,692.999978851319
256,192,96634,12,0,99651,0:0:0:0:
