osu file format v14

[General]
AudioFilename: Entrance.mp3
AudioLeadIn: 0
PreviewTime: 85326
Countdown: 0
SampleSet: Soft
StackLeniency: 0.7
Mode: 3
LetterboxInBreaks: 1
SpecialStyle: 0
WidescreenStoryboard: 1

[Editor]
DistanceSpacing: 1
BeatDivisor: 3
GridSize: 4
TimelineZoom: 3.200001

[Metadata]
Title:Entrance
TitleUnicode:Entrance
Artist:Ice
ArtistUnicode:Ice
Creator:leqek
Version:7K Another
Source:Deemo
Tags:Cytus rhythm game instrumental
BeatmapID:487517
BeatmapSetID:206487

[Difficulty]
HPDrainRate:7
CircleSize:7
OverallDifficulty:4
ApproachRate:5
SliderMultiplier:1.7
SliderTickRate:1

[Events]
//Background and Video events
0,0,"Entrance.jpg",0,0
//Break Periods
//Storyboard Layer 0 (Background)
//Storyboard Layer 1 (Fail)
//Storyboard Layer 2 (Pass)
//Storyboard Layer 3 (Foreground)
//Storyboard Layer 4 (Overlay)
//Storyboard Sound Samples

[TimingPoints]
656,333.333333333333,4,2,0,22,1,0
38659,-100,4,2,0,22,0,1
41326,-100,4,2,0,22,0,0
62659,-100,4,2,0,22,0,1
62993,-100,4,2,0,22,0,0
85326,-100,4,2,0,22,0,1
106659,-100,4,2,0,22,0,0

[HitObjects]
109,192,1322,5,0,0:0:0:0:
256,192,1322,1,0,0:0:0:0:
36,192,1322,1,0,0:0:0:0:
475,192,1322,1,0,0:0:0:0:
402,192,1322,1,0,0:0:0:0:
329,192,1544,1,0,0:0:0:0:
182,192,1767,1,0,0:0:0:0:
475,192,1989,1,0,0:0:0:0:
329,192,1989,1,0,0:0:0:0:
182,192,2211,1,0,0:0:0:0:
36,192,2433,1,0,0:0:0:0:
256,192,2655,1,0,0:0:0:0:
109,192,2655,1,0,0:0:0:0:
402,192,2655,1,0,0:0:0:0:
182,192,2878,1,0,0:0:0:0:
329,192,3100,1,0,0:0:0:0:
475,192,3322,1,0,0:0:0:0:
256,192,3322,1,0,0:0:0:0:
402,192,3544,1,0,0:0:0:0:
182,192,3544,1,0,0:0:0:0:
329,192,3767,1,0,0:0:0:0:
109,192,3767,1,0,0:0:0:0:
256,192,3989,1,0,0:0:0:0:
475,192,3989,1,0,0:0:0:0:
36,192,3989,1,0,0:0:0:0:
109,192,4211,1,0,0:0:0:0:
182,192,4433,1,0,0:0:0:0:
36,192,4655,1,0,0:0:0:0:
256,192,4655,1,0,0:0:0:0:
475,192,4655,1,0,0:0:0:0:
402,192,4878,1,0,0:0:0:0:
329,192,5100,1,0,0:0:0:0:
182,192,5322,1,0,0:0:0:0:
256,192,5322,1,0,0:0:0:0:
402,192,5322,1,0,0:0:0:0:
36,192,5322,1,0,0:0:0:0:
329,192,5544,1,0,0:0:0:0:
109,192,5544,1,0,0:0:0:0:
182,192,5767,1,0,0:0:0:0:
402,192,5767,1,0,0:0:0:0:
329,192,5989,1,0,0:0:0:0:
475,192,5989,1,0,0:0:0:0:
109,192,5989,1,0,0:0:0:0:
256,192,6211,1,0,0:0:0:0:
402,192,6211,1,0,0:0:0:0:
329,192,6433,1,0,0:0:0:0:
182,192,6433,1,0,0:0:0:0:
256,192,6655,1,0,0:0:0:0:
109,192,6655,1,0,0:0:0:0:
36,192,6655,1,0,0:0:0:0:
182,192,6878,1,0,0:0:0:0:
475,192,7100,1,0,0:0:0:0:
329,192,7100,1,0,0:0:0:0:
37,192,7323,1,0,0:0:0:0:
183,192,7323,1,0,0:0:0:0:
330,192,7545,1,0,0:0:0:0:
476,192,7767,1,0,0:0:0:0:
256,192,7989,1,0,0:0:0:0:
403,192,7989,1,0,0:0:0:0:
36,192,7989,1,0,0:0:0:0:
329,192,8211,1,0,0:0:0:0:
183,192,8212,1,0,0:0:0:0:
109,192,8433,1,0,0:0:0:0:
256,192,8434,1,0,0:0:0:0:
36,192,8655,1,0,0:0:0:0:
476,192,8656,1,0,0:0:0:0:
330,192,8656,1,0,0:0:0:0:
109,192,8878,1,0,0:0:0:0:
256,192,8878,1,0,0:0:0:0:
182,192,9100,1,0,0:0:0:0:
329,192,9100,1,0,0:0:0:0:
403,192,9323,1,0,0:0:0:0:
256,192,9323,1,0,0:0:0:0:
476,192,9323,1,0,0:0:0:0:
329,192,9544,1,0,0:0:0:0:
183,192,9545,1,0,0:0:0:0:
110,192,9767,1,0,0:0:0:0:
256,192,9767,1,0,0:0:0:0:
330,192,9989,1,0,0:0:0:0:
183,192,9989,1,0,0:0:0:0:
403,192,9989,1,0,0:0:0:0:
256,192,10211,1,0,0:0:0:0:
110,192,10212,1,0,0:0:0:0:
182,192,10433,1,0,0:0:0:0:
37,192,10434,1,0,0:0:0:0:
330,192,10656,1,0,0:0:0:0:
256,192,10656,1,0,0:0:0:0:
110,192,10656,1,0,0:0:0:0:
476,192,10878,1,0,0:0:0:0:
182,192,10878,1,0,0:0:0:0:
109,192,11100,1,0,0:0:0:0:
330,192,11101,1,0,0:0:0:0:
183,192,11323,1,0,0:0:0:0:
37,192,11323,1,0,0:0:0:0:
256,192,11545,1,0,0:0:0:0:
110,192,11545,1,0,0:0:0:0:
330,192,11767,1,0,0:0:0:0:
476,192,11767,1,0,0:0:0:0:
403,192,11989,1,0,0:0:0:0:
256,192,11989,1,0,0:0:0:0:
109,192,11989,1,0,0:0:0:0:
36,192,11989,1,0,0:0:0:0:
182,192,12100,1,0,0:0:0:0:
256,192,12211,1,0,0:0:0:0:
329,192,12322,1,0,0:0:0:0:
109,192,12655,1,0,0:0:0:0:
256,192,12655,1,0,0:0:0:0:
402,192,12655,1,0,0:0:0:0:
329,192,12767,1,0,0:0:0:0:
256,192,12878,1,0,0:0:0:0:
182,192,12989,1,0,0:0:0:0:
36,192,13322,1,0,0:0:0:0:
109,192,13322,1,0,0:0:0:0:
402,192,13322,1,0,0:0:0:0:
182,192,13433,1,0,0:0:0:0:
256,192,13544,1,0,0:0:0:0:
329,192,13655,1,0,0:0:0:0:
402,192,13989,1,0,0:0:0:0:
475,192,13989,1,0,0:0:0:0:
109,192,13989,1,0,0:0:0:0:
329,192,14100,1,0,0:0:0:0:
256,192,14211,1,0,0:0:0:0:
182,192,14322,1,0,0:0:0:0:
36,192,14655,1,0,0:0:0:0:
182,192,14655,1,0,0:0:0:0:
475,192,14655,1,0,0:0:0:0:
256,192,14767,1,0,0:0:0:0:
329,192,14878,1,0,0:0:0:0:
402,192,14989,1,0,0:0:0:0:
36,192,15322,1,0,0:0:0:0:
329,192,15322,1,0,0:0:0:0:
475,192,15322,1,0,0:0:0:0:
256,192,15433,1,0,0:0:0:0:
182,192,15544,1,0,0:0:0:0:
109,192,15655,1,0,0:0:0:0:
36,192,15989,1,0,0:0:0:0:
475,192,15989,1,0,0:0:0:0:
329,192,15989,1,0,0:0:0:0:
109,192,16100,1,0,0:0:0:0:
182,192,16211,1,0,0:0:0:0:
256,192,16322,1,0,0:0:0:0:
182,192,16655,1,0,0:0:0:0:
402,192,16655,1,0,0:0:0:0:
109,192,16878,1,0,0:0:0:0:
329,192,16878,1,0,0:0:0:0:
36,192,17100,1,0,0:0:0:0:
256,192,17100,1,0,0:0:0:0:
329,192,17322,1,0,0:0:0:0:
109,192,17322,128,0,17655:0:0:0:0:
475,192,17322,1,0,0:0:0:0:
256,192,17655,1,0,0:0:0:0:
329,192,17767,1,0,0:0:0:0:
402,192,17878,1,0,0:0:0:0:
475,192,17989,1,0,0:0:0:0:
109,192,17989,1,0,0:0:0:0:
36,192,17989,1,0,0:0:0:0:
402,192,18100,1,0,0:0:0:0:
329,192,18211,1,0,0:0:0:0:
256,192,18322,1,0,0:0:0:0:
182,192,18433,1,0,0:0:0:0:
109,192,18544,1,0,0:0:0:0:
36,192,18655,1,0,0:0:0:0:
475,192,18655,1,0,0:0:0:0:
402,192,18655,1,0,0:0:0:0:
109,192,18767,1,0,0:0:0:0:
182,192,18878,1,0,0:0:0:0:
256,192,18989,1,0,0:0:0:0:
329,192,19100,1,0,0:0:0:0:
402,192,19211,1,0,0:0:0:0:
475,192,19322,1,0,0:0:0:0:
36,192,19322,1,0,0:0:0:0:
256,192,19322,1,0,0:0:0:0:
329,192,19322,1,0,0:0:0:0:
109,192,19433,1,0,0:0:0:0:
182,192,19544,1,0,0:0:0:0:
256,192,19655,1,0,0:0:0:0:
109,192,19767,1,0,0:0:0:0:
182,192,19878,1,0,0:0:0:0:
256,192,19989,1,0,0:0:0:0:
36,192,19989,1,0,0:0:0:0:
402,192,19989,1,0,0:0:0:0:
329,192,20100,1,0,0:0:0:0:
182,192,20211,1,0,0:0:0:0:
256,192,20322,1,0,0:0:0:0:
329,192,20433,1,0,0:0:0:0:
402,192,20544,1,0,0:0:0:0:
475,192,20655,1,0,0:0:0:0:
182,192,20655,1,0,0:0:0:0:
109,192,20655,1,0,0:0:0:0:
402,192,20767,1,0,0:0:0:0:
329,192,20878,1,0,0:0:0:0:
256,192,20989,1,0,0:0:0:0:
402,192,21100,1,0,0:0:0:0:
329,192,21211,1,0,0:0:0:0:
256,192,21322,1,0,0:0:0:0:
109,192,21322,1,0,0:0:0:0:
475,192,21322,1,0,0:0:0:0:
182,192,21433,1,0,0:0:0:0:
329,192,21544,1,0,0:0:0:0:
256,192,21655,1,0,0:0:0:0:
182,192,21767,1,0,0:0:0:0:
109,192,21878,1,0,0:0:0:0:
36,192,21989,1,0,0:0:0:0:
329,192,21989,1,0,0:0:0:0:
402,192,21989,1,0,0:0:0:0:
109,192,22100,1,0,0:0:0:0:
182,192,22211,1,0,0:0:0:0:
256,192,22322,1,0,0:0:0:0:
182,192,22433,1,0,0:0:0:0:
256,192,22544,1,0,0:0:0:0:
475,192,22655,1,0,0:0:0:0:
109,192,22655,1,0,0:0:0:0:
36,192,22655,1,0,0:0:0:0:
329,192,22655,1,0,0:0:0:0:
402,192,22767,1,0,0:0:0:0:
329,192,22878,1,0,0:0:0:0:
109,192,22878,1,0,0:0:0:0:
182,192,22989,1,0,0:0:0:0:
256,192,23100,1,0,0:0:0:0:
402,192,23100,1,0,0:0:0:0:
329,192,23211,1,0,0:0:0:0:
256,192,23322,1,0,0:0:0:0:
36,192,23322,1,0,0:0:0:0:
109,192,23433,1,0,0:0:0:0:
182,192,23544,1,0,0:0:0:0:
329,192,23544,1,0,0:0:0:0:
256,192,23655,1,0,0:0:0:0:
182,192,23767,1,0,0:0:0:0:
402,192,23767,1,0,0:0:0:0:
329,192,23878,1,0,0:0:0:0:
256,192,23989,1,0,0:0:0:0:
475,192,23989,1,0,0:0:0:0:
36,192,23989,1,0,0:0:0:0:
109,192,24100,1,0,0:0:0:0:
182,192,24211,1,0,0:0:0:0:
329,192,24211,1,0,0:0:0:0:
402,192,24322,1,0,0:0:0:0:
475,192,24433,1,0,0:0:0:0:
109,192,24433,1,0,0:0:0:0:
182,192,24544,1,0,0:0:0:0:
256,192,24655,1,0,0:0:0:0:
402,192,24655,1,0,0:0:0:0:
36,192,24767,1,0,0:0:0:0:
329,192,24767,1,0,0:0:0:0:
109,192,24878,1,0,0:0:0:0:
182,192,24989,1,0,0:0:0:0:
402,192,24989,1,0,0:0:0:0:
329,192,25100,1,0,0:0:0:0:
256,192,25211,1,0,0:0:0:0:
182,192,25322,1,0,0:0:0:0:
36,192,25322,1,0,0:0:0:0:
475,192,25322,1,0,0:0:0:0:
109,192,25433,1,0,0:0:0:0:
182,192,25544,1,0,0:0:0:0:
329,192,25544,1,0,0:0:0:0:
402,192,25655,1,0,0:0:0:0:
475,192,25767,1,0,0:0:0:0:
256,192,25767,1,0,0:0:0:0:
182,192,25878,1,0,0:0:0:0:
329,192,25989,1,0,0:0:0:0:
109,192,25989,1,0,0:0:0:0:
256,192,26100,1,0,0:0:0:0:
182,192,26211,1,0,0:0:0:0:
256,192,26322,1,0,0:0:0:0:
36,192,26322,1,0,0:0:0:0:
109,192,26433,1,0,0:0:0:0:
329,192,26433,1,0,0:0:0:0:
182,192,26544,1,0,0:0:0:0:
402,192,26544,1,0,0:0:0:0:
475,192,26655,1,0,0:0:0:0:
256,192,26655,1,0,0:0:0:0:
182,192,26767,1,0,0:0:0:0:
402,192,26767,1,0,0:0:0:0:
109,192,26878,1,0,0:0:0:0:
329,192,26878,1,0,0:0:0:0:
182,192,26989,1,0,0:0:0:0:
402,192,26989,1,0,0:0:0:0:
329,192,27100,1,0,0:0:0:0:
109,192,27100,1,0,0:0:0:0:
256,192,27211,1,0,0:0:0:0:
36,192,27211,1,0,0:0:0:0:
109,192,27322,1,0,0:0:0:0:
402,192,27322,1,0,0:0:0:0:
182,192,27433,1,0,0:0:0:0:
256,192,27544,1,0,0:0:0:0:
475,192,27544,1,0,0:0:0:0:
329,192,27655,1,0,0:0:0:0:
36,192,27767,1,0,0:0:0:0:
256,192,27767,1,0,0:0:0:0:
402,192,27767,1,0,0:0:0:0:
109,192,27878,1,0,0:0:0:0:
182,192,27989,1,0,0:0:0:0:
329,192,27989,1,0,0:0:0:0:
402,192,27989,1,0,0:0:0:0:
475,192,27989,1,0,0:0:0:0:
256,192,28100,1,0,0:0:0:0:
329,192,28211,1,0,0:0:0:0:
402,192,28322,1,0,0:0:0:0:
182,192,28322,1,0,0:0:0:0:
256,192,28433,1,0,0:0:0:0:
36,192,28433,1,0,0:0:0:0:
329,192,28544,1,0,0:0:0:0:
109,192,28544,1,0,0:0:0:0:
182,192,28655,1,0,0:0:0:0:
402,192,28655,1,0,0:0:0:0:
475,192,28655,1,0,0:0:0:0:
256,192,28767,1,0,0:0:0:0:
329,192,28878,1,0,0:0:0:0:
402,192,28989,1,0,0:0:0:0:
109,192,28989,1,0,0:0:0:0:
36,192,28989,1,0,0:0:0:0:
182,192,29211,1,0,0:0:0:0:
256,192,29211,1,0,0:0:0:0:
475,192,29211,1,0,0:0:0:0:
402,192,29322,1,0,0:0:0:0:
109,192,29322,1,0,0:0:0:0:
36,192,29433,1,0,0:0:0:0:
329,192,29433,1,0,0:0:0:0:
256,192,29544,1,0,0:0:0:0:
182,192,29655,1,0,0:0:0:0:
109,192,29655,1,0,0:0:0:0:
402,192,29655,1,0,0:0:0:0:
36,192,29767,1,0,0:0:0:0:
256,192,29767,1,0,0:0:0:0:
182,192,29878,1,0,0:0:0:0:
256,192,29989,1,0,0:0:0:0:
475,192,29989,1,0,0:0:0:0:
182,192,30100,1,0,0:0:0:0:
402,192,30100,1,0,0:0:0:0:
329,192,30211,1,0,0:0:0:0:
109,192,30211,1,0,0:0:0:0:
36,192,30322,1,0,0:0:0:0:
256,192,30322,1,0,0:0:0:0:
109,192,30433,1,0,0:0:0:0:
329,192,30433,1,0,0:0:0:0:
182,192,30544,1,0,0:0:0:0:
402,192,30544,1,0,0:0:0:0:
256,192,30655,1,0,0:0:0:0:
475,192,30655,1,0,0:0:0:0:
329,192,30767,1,0,0:0:0:0:
402,192,30878,1,0,0:0:0:0:
36,192,30878,1,0,0:0:0:0:
109,192,30989,1,0,0:0:0:0:
256,192,31100,1,0,0:0:0:0:
402,192,31100,1,0,0:0:0:0:
182,192,31211,1,0,0:0:0:0:
329,192,31211,1,0,0:0:0:0:
256,192,31322,1,0,0:0:0:0:
475,192,31322,1,0,0:0:0:0:
109,192,31433,1,0,0:0:0:0:
182,192,31544,1,0,0:0:0:0:
36,192,31655,1,0,0:0:0:0:
256,192,31655,1,0,0:0:0:0:
109,192,31767,1,0,0:0:0:0:
475,192,31767,1,0,0:0:0:0:
182,192,31878,1,0,0:0:0:0:
402,192,31878,1,0,0:0:0:0:
475,192,31989,1,0,0:0:0:0:
329,192,32100,1,0,0:0:0:0:
109,192,32100,1,0,0:0:0:0:
256,192,32211,1,0,0:0:0:0:
475,192,32322,1,0,0:0:0:0:
182,192,32322,1,0,0:0:0:0:
36,192,32322,1,0,0:0:0:0:
402,192,32433,1,0,0:0:0:0:
109,192,32433,1,0,0:0:0:0:
329,192,32544,1,0,0:0:0:0:
475,192,32655,1,0,0:0:0:0:
256,192,32655,128,0,33322:0:0:0:0:
182,192,32655,1,0,0:0:0:0:
402,192,32767,1,0,0:0:0:0:
329,192,32878,1,0,0:0:0:0:
36,192,32989,1,0,0:0:0:0:
109,192,33100,1,0,0:0:0:0:
182,192,33211,1,0,0:0:0:0:
36,192,33322,1,0,0:0:0:0:
402,192,33322,1,0,0:0:0:0:
475,192,33322,1,0,0:0:0:0:
329,192,33433,1,0,0:0:0:0:
256,192,33544,1,0,0:0:0:0:
402,192,33655,1,0,0:0:0:0:
329,192,33767,1,0,0:0:0:0:
256,192,33878,1,0,0:0:0:0:
475,192,33989,1,0,0:0:0:0:
402,192,34100,1,0,0:0:0:0:
329,192,34211,1,0,0:0:0:0:
256,192,34322,1,0,0:0:0:0:
182,192,34433,1,0,0:0:0:0:
109,192,34544,1,0,0:0:0:0:
475,192,34655,1,0,0:0:0:0:
402,192,34767,1,0,0:0:0:0:
329,192,34878,1,0,0:0:0:0:
36,192,34989,1,0,0:0:0:0:
109,192,35100,1,0,0:0:0:0:
182,192,35211,1,0,0:0:0:0:
475,192,35322,1,0,0:0:0:0:
402,192,35433,1,0,0:0:0:0:
329,192,35544,1,0,0:0:0:0:
256,192,35655,1,0,0:0:0:0:
182,192,35767,1,0,0:0:0:0:
109,192,35878,1,0,0:0:0:0:
36,192,35989,128,0,37989:0:0:0:0:
109,192,38655,1,0,0:0:0:0:
256,192,38655,1,0,0:0:0:0:
329,192,38655,1,0,0:0:0:0:
402,192,38767,1,0,0:0:0:0:
182,192,38767,1,0,0:0:0:0:
475,192,38878,1,0,0:0:0:0:
36,192,38878,1,0,0:0:0:0:
256,192,38878,1,0,0:0:0:0:
109,192,38989,1,0,0:0:0:0:
329,192,38989,1,0,0:0:0:0:
182,192,39100,1,0,0:0:0:0:
256,192,39100,1,0,0:0:0:0:
402,192,39100,1,0,0:0:0:0:
109,192,39211,1,0,0:0:0:0:
329,192,39211,1,0,0:0:0:0:
36,192,39322,1,0,0:0:0:0:
182,192,39322,1,0,0:0:0:0:
256,192,39322,1,0,0:0:0:0:
475,192,39322,1,0,0:0:0:0:
402,192,39433,1,0,0:0:0:0:
329,192,39544,1,0,0:0:0:0:
109,192,39544,1,0,0:0:0:0:
256,192,39655,1,0,0:0:0:0:
475,192,39655,1,0,0:0:0:0:
36,192,39655,1,0,0:0:0:0:
109,192,39767,1,0,0:0:0:0:
182,192,39878,1,0,0:0:0:0:
402,192,39878,1,0,0:0:0:0:
329,192,39989,1,0,0:0:0:0:
475,192,39989,1,0,0:0:0:0:
256,192,39989,1,0,0:0:0:0:
402,192,40100,1,0,0:0:0:0:
36,192,40100,1,0,0:0:0:0:
329,192,40211,1,0,0:0:0:0:
109,192,40211,1,0,0:0:0:0:
182,192,40211,1,0,0:0:0:0:
36,192,40322,1,0,0:0:0:0:
256,192,40322,1,0,0:0:0:0:
402,192,40322,1,0,0:0:0:0:
329,192,40433,1,0,0:0:0:0:
475,192,40433,1,0,0:0:0:0:
109,192,40433,1,0,0:0:0:0:
182,192,40544,1,0,0:0:0:0:
402,192,40544,1,0,0:0:0:0:
109,192,40655,1,0,0:0:0:0:
256,192,40655,1,0,0:0:0:0:
475,192,40655,1,0,0:0:0:0:
36,192,40767,1,0,0:0:0:0:
182,192,40767,1,0,0:0:0:0:
329,192,40878,1,0,0:0:0:0:
256,192,40878,1,0,0:0:0:0:
475,192,40878,1,0,0:0:0:0:
182,192,40989,1,0,0:0:0:0:
402,192,40989,1,0,0:0:0:0:
36,192,40989,1,0,0:0:0:0:
256,192,41100,1,0,0:0:0:0:
109,192,41100,1,0,0:0:0:0:
475,192,41211,1,0,0:0:0:0:
329,192,41211,1,0,0:0:0:0:
402,192,41322,1,0,0:0:0:0:
256,192,41322,1,0,0:0:0:0:
182,192,41322,1,0,0:0:0:0:
36,192,41322,1,0,0:0:0:0:
329,192,41433,1,0,0:0:0:0:
256,192,41544,1,0,0:0:0:0:
182,192,41655,1,0,0:0:0:0:
402,192,41655,1,0,0:0:0:0:
329,192,41655,1,0,0:0:0:0:
109,192,41767,1,0,0:0:0:0:
36,192,41878,1,0,0:0:0:0:
109,192,41989,1,0,0:0:0:0:
329,192,41989,1,0,0:0:0:0:
475,192,41989,1,0,0:0:0:0:
182,192,42100,1,0,0:0:0:0:
256,192,42211,1,0,0:0:0:0:
329,192,42322,1,0,0:0:0:0:
36,192,42322,1,0,0:0:0:0:
182,192,42322,1,0,0:0:0:0:
402,192,42433,1,0,0:0:0:0:
475,192,42544,1,0,0:0:0:0:
109,192,42655,1,0,0:0:0:0:
256,192,42655,1,0,0:0:0:0:
329,192,42655,1,0,0:0:0:0:
182,192,42767,1,0,0:0:0:0:
256,192,42878,1,0,0:0:0:0:
402,192,42989,1,0,0:0:0:0:
109,192,42989,1,0,0:0:0:0:
182,192,42989,1,0,0:0:0:0:
329,192,43100,1,0,0:0:0:0:
256,192,43211,1,0,0:0:0:0:
182,192,43322,1,0,0:0:0:0:
329,192,43322,1,0,0:0:0:0:
402,192,43322,1,0,0:0:0:0:
109,192,43433,1,0,0:0:0:0:
36,192,43544,1,0,0:0:0:0:
329,192,43655,1,0,0:0:0:0:
182,192,43655,1,0,0:0:0:0:
109,192,43655,1,0,0:0:0:0:
402,192,43767,1,0,0:0:0:0:
475,192,43878,1,0,0:0:0:0:
109,192,43989,1,0,0:0:0:0:
329,192,43989,1,0,0:0:0:0:
402,192,43989,1,0,0:0:0:0:
256,192,44100,1,0,0:0:0:0:
402,192,44211,1,0,0:0:0:0:
36,192,44322,1,0,0:0:0:0:
182,192,44322,1,0,0:0:0:0:
109,192,44322,1,0,0:0:0:0:
256,192,44433,1,0,0:0:0:0:
475,192,44544,1,0,0:0:0:0:
402,192,44655,1,0,0:0:0:0:
182,192,44655,1,0,0:0:0:0:
329,192,44655,1,0,0:0:0:0:
256,192,44767,1,0,0:0:0:0:
109,192,44878,1,0,0:0:0:0:
402,192,44878,1,0,0:0:0:0:
36,192,44989,1,0,0:0:0:0:
256,192,44989,1,0,0:0:0:0:
109,192,45100,1,0,0:0:0:0:
329,192,45100,1,0,0:0:0:0:
182,192,45211,1,0,0:0:0:0:
402,192,45211,1,0,0:0:0:0:
109,192,45322,1,0,0:0:0:0:
256,192,45322,1,0,0:0:0:0:
475,192,45322,1,0,0:0:0:0:
182,192,45433,1,0,0:0:0:0:
329,192,45433,1,0,0:0:0:0:
256,192,45544,1,0,0:0:0:0:
402,192,45544,1,0,0:0:0:0:
109,192,45655,1,0,0:0:0:0:
36,192,45655,1,0,0:0:0:0:
329,192,45655,1,0,0:0:0:0:
402,192,45767,1,0,0:0:0:0:
182,192,45767,1,0,0:0:0:0:
256,192,45878,1,0,0:0:0:0:
109,192,45878,1,0,0:0:0:0:
402,192,45989,1,0,0:0:0:0:
36,192,45989,1,0,0:0:0:0:
182,192,45989,1,0,0:0:0:0:
475,192,45989,128,0,46100:0:0:0:0:
329,192,46100,1,0,0:0:0:0:
109,192,46100,1,0,0:0:0:0:
182,192,46211,1,0,0:0:0:0:
402,192,46211,1,0,0:0:0:0:
475,192,46322,1,0,0:0:0:0:
329,192,46322,1,0,0:0:0:0:
256,192,46322,1,0,0:0:0:0:
182,192,46433,1,0,0:0:0:0:
402,192,46433,1,0,0:0:0:0:
475,192,46544,1,0,0:0:0:0:
109,192,46544,1,0,0:0:0:0:
329,192,46544,1,0,0:0:0:0:
475,192,46655,1,0,0:0:0:0:
36,192,46655,1,0,0:0:0:0:
256,192,46655,1,0,0:0:0:0:
109,192,46767,1,0,0:0:0:0:
182,192,46878,1,0,0:0:0:0:
256,192,46989,1,0,0:0:0:0:
475,192,46989,1,0,0:0:0:0:
36,192,46989,1,0,0:0:0:0:
402,192,47100,1,0,0:0:0:0:
329,192,47211,1,0,0:0:0:0:
475,192,47322,1,0,0:0:0:0:
256,192,47322,1,0,0:0:0:0:
109,192,47322,1,0,0:0:0:0:
36,192,47322,1,0,0:0:0:0:
182,192,47433,1,0,0:0:0:0:
402,192,47433,1,0,0:0:0:0:
256,192,47544,1,0,0:0:0:0:
329,192,47655,1,0,0:0:0:0:
109,192,47655,1,0,0:0:0:0:
36,192,47655,1,0,0:0:0:0:
182,192,47767,1,0,0:0:0:0:
256,192,47878,1,0,0:0:0:0:
402,192,47989,1,0,0:0:0:0:
475,192,47989,1,0,0:0:0:0:
36,192,47989,1,0,0:0:0:0:
329,192,48100,1,0,0:0:0:0:
109,192,48100,1,0,0:0:0:0:
256,192,48211,1,0,0:0:0:0:
36,192,48211,1,0,0:0:0:0:
475,192,48322,1,0,0:0:0:0:
109,192,48322,1,0,0:0:0:0:
182,192,48322,1,0,0:0:0:0:
402,192,48433,1,0,0:0:0:0:
256,192,48433,1,0,0:0:0:0:
329,192,48544,1,0,0:0:0:0:
182,192,48544,1,0,0:0:0:0:
256,192,48655,1,0,0:0:0:0:
109,192,48655,1,0,0:0:0:0:
36,192,48655,1,0,0:0:0:0:
182,192,48767,1,0,0:0:0:0:
329,192,48878,1,0,0:0:0:0:
475,192,48989,1,0,0:0:0:0:
109,192,48989,1,0,0:0:0:0:
402,192,48989,1,0,0:0:0:0:
256,192,48989,1,0,0:0:0:0:
329,192,49100,1,0,0:0:0:0:
402,192,49211,1,0,0:0:0:0:
475,192,49322,1,0,0:0:0:0:
329,192,49322,1,0,0:0:0:0:
36,192,49322,1,0,0:0:0:0:
109,192,49322,1,0,0:0:0:0:
256,192,49433,1,0,0:0:0:0:
402,192,49433,1,0,0:0:0:0:
329,192,49544,1,0,0:0:0:0:
109,192,49544,1,0,0:0:0:0:
36,192,49655,1,0,0:0:0:0:
182,192,49655,1,0,0:0:0:0:
109,192,49767,1,0,0:0:0:0:
256,192,49767,1,0,0:0:0:0:
182,192,49878,1,0,0:0:0:0:
329,192,49878,1,0,0:0:0:0:
256,192,49989,1,0,0:0:0:0:
402,192,49989,1,0,0:0:0:0:
109,192,49989,1,0,0:0:0:0:
36,192,50100,1,0,0:0:0:0:
182,192,50100,1,0,0:0:0:0:
329,192,50211,1,0,0:0:0:0:
402,192,50211,1,0,0:0:0:0:
256,192,50322,1,0,0:0:0:0:
475,192,50322,1,0,0:0:0:0:
109,192,50433,1,0,0:0:0:0:
182,192,50433,1,0,0:0:0:0:
329,192,50433,1,0,0:0:0:0:
36,192,50544,1,0,0:0:0:0:
109,192,50655,1,0,0:0:0:0:
475,192,50655,1,0,0:0:0:0:
256,192,50655,1,0,0:0:0:0:
402,192,50767,1,0,0:0:0:0:
182,192,50767,1,0,0:0:0:0:
329,192,50878,1,0,0:0:0:0:
36,192,50878,1,0,0:0:0:0:
256,192,50989,1,0,0:0:0:0:
402,192,50989,1,0,0:0:0:0:
475,192,50989,1,0,0:0:0:0:
109,192,50989,1,0,0:0:0:0:
329,192,51100,1,0,0:0:0:0:
256,192,51211,1,0,0:0:0:0:
182,192,51322,1,0,0:0:0:0:
329,192,51322,1,0,0:0:0:0:
109,192,51322,1,0,0:0:0:0:
36,192,51322,1,0,0:0:0:0:
256,192,51433,1,0,0:0:0:0:
402,192,51433,1,0,0:0:0:0:
475,192,51433,1,0,0:0:0:0:
329,192,51544,1,0,0:0:0:0:
109,192,51544,1,0,0:0:0:0:
182,192,51544,1,0,0:0:0:0:
256,192,51655,1,0,0:0:0:0:
36,192,51655,1,0,0:0:0:0:
475,192,51655,1,0,0:0:0:0:
109,192,51767,1,0,0:0:0:0:
402,192,51767,1,0,0:0:0:0:
109,192,51878,1,0,0:0:0:0:
402,192,51878,1,0,0:0:0:0:
475,192,51989,1,0,0:0:0:0:
36,192,51989,1,0,0:0:0:0:
182,192,51989,1,0,0:0:0:0:
329,192,51989,1,0,0:0:0:0:
329,192,52211,1,0,0:0:0:0:
256,192,52211,1,0,0:0:0:0:
109,192,52211,1,0,0:0:0:0:
36,192,52322,1,0,0:0:0:0:
182,192,52322,1,0,0:0:0:0:
475,192,52322,1,0,0:0:0:0:
256,192,52433,1,0,0:0:0:0:
402,192,52433,1,0,0:0:0:0:
329,192,52544,1,0,0:0:0:0:
182,192,52655,1,0,0:0:0:0:
256,192,52655,1,0,0:0:0:0:
475,192,52655,1,0,0:0:0:0:
36,192,52655,1,0,0:0:0:0:
182,192,52878,1,0,0:0:0:0:
402,192,52878,1,0,0:0:0:0:
475,192,52989,1,0,0:0:0:0:
109,192,52989,1,0,0:0:0:0:
329,192,52989,1,0,0:0:0:0:
256,192,52989,1,0,0:0:0:0:
182,192,53100,1,0,0:0:0:0:
402,192,53100,1,0,0:0:0:0:
329,192,53211,1,0,0:0:0:0:
109,192,53211,1,0,0:0:0:0:
36,192,53322,1,0,0:0:0:0:
182,192,53322,1,0,0:0:0:0:
256,192,53322,1,0,0:0:0:0:
475,192,53322,1,0,0:0:0:0:
329,192,53544,1,0,0:0:0:0:
109,192,53544,1,0,0:0:0:0:
256,192,53655,1,0,0:0:0:0:
36,192,53655,1,0,0:0:0:0:
402,192,53655,1,0,0:0:0:0:
475,192,53655,1,0,0:0:0:0:
182,192,53767,1,0,0:0:0:0:
109,192,53767,1,0,0:0:0:0:
329,192,53767,1,0,0:0:0:0:
256,192,53878,1,0,0:0:0:0:
402,192,53878,1,0,0:0:0:0:
329,192,53989,1,0,0:0:0:0:
475,192,53989,1,0,0:0:0:0:
36,192,53989,1,0,0:0:0:0:
109,192,54100,1,0,0:0:0:0:
256,192,54100,1,0,0:0:0:0:
182,192,54211,1,0,0:0:0:0:
402,192,54211,1,0,0:0:0:0:
475,192,54322,1,0,0:0:0:0:
329,192,54322,1,0,0:0:0:0:
109,192,54322,1,0,0:0:0:0:
36,192,54322,1,0,0:0:0:0:
402,192,54433,1,0,0:0:0:0:
182,192,54433,1,0,0:0:0:0:
329,192,54544,1,0,0:0:0:0:
475,192,54544,1,0,0:0:0:0:
256,192,54655,1,0,0:0:0:0:
36,192,54655,1,0,0:0:0:0:
402,192,54655,1,0,0:0:0:0:
182,192,54655,1,0,0:0:0:0:
182,192,54878,1,0,0:0:0:0:
402,192,54878,1,0,0:0:0:0:
109,192,54878,1,0,0:0:0:0:
256,192,54989,1,0,0:0:0:0:
329,192,54989,1,0,0:0:0:0:
475,192,54989,1,0,0:0:0:0:
182,192,55100,1,0,0:0:0:0:
36,192,55100,1,0,0:0:0:0:
256,192,55211,1,0,0:0:0:0:
402,192,55211,1,0,0:0:0:0:
109,192,55211,1,0,0:0:0:0:
329,192,55322,1,0,0:0:0:0:
475,192,55322,1,0,0:0:0:0:
182,192,55322,1,0,0:0:0:0:
256,192,55433,1,0,0:0:0:0:
402,192,55433,1,0,0:0:0:0:
329,192,55544,1,0,0:0:0:0:
182,192,55544,1,0,0:0:0:0:
109,192,55655,1,0,0:0:0:0:
256,192,55655,1,0,0:0:0:0:
36,192,55655,1,0,0:0:0:0:
329,192,55767,1,0,0:0:0:0:
475,192,55767,1,0,0:0:0:0:
109,192,55878,1,0,0:0:0:0:
256,192,55878,1,0,0:0:0:0:
182,192,55989,1,0,0:0:0:0:
402,192,55989,1,0,0:0:0:0:
36,192,55989,1,0,0:0:0:0:
109,192,56100,1,0,0:0:0:0:
329,192,56100,1,0,0:0:0:0:
475,192,56211,1,0,0:0:0:0:
36,192,56211,1,0,0:0:0:0:
256,192,56211,1,0,0:0:0:0:
402,192,56322,1,0,0:0:0:0:
182,192,56322,1,0,0:0:0:0:
475,192,56433,1,0,0:0:0:0:
329,192,56433,1,0,0:0:0:0:
36,192,56433,1,0,0:0:0:0:
109,192,56544,1,0,0:0:0:0:
402,192,56655,1,0,0:0:0:0:
329,192,56655,1,0,0:0:0:0:
36,192,56655,128,0,56989:0:0:0:0:
256,192,56767,1,0,0:0:0:0:
182,192,56878,1,0,0:0:0:0:
475,192,56989,128,0,57322:0:0:0:0:
329,192,56989,1,0,0:0:0:0:
256,192,56989,1,0,0:0:0:0:
182,192,57100,1,0,0:0:0:0:
109,192,57211,1,0,0:0:0:0:
36,192,57322,1,0,0:0:0:0:
256,192,57322,1,0,0:0:0:0:
182,192,57322,1,0,0:0:0:0:
329,192,57322,1,0,0:0:0:0:
109,192,57433,1,0,0:0:0:0:
402,192,57433,1,0,0:0:0:0:
36,192,57544,1,0,0:0:0:0:
182,192,57544,1,0,0:0:0:0:
402,192,57655,1,0,0:0:0:0:
329,192,57655,1,0,0:0:0:0:
256,192,57767,1,0,0:0:0:0:
182,192,57767,1,0,0:0:0:0:
475,192,57767,1,0,0:0:0:0:
109,192,57878,1,0,0:0:0:0:
402,192,57878,1,0,0:0:0:0:
256,192,57989,1,0,0:0:0:0:
182,192,57989,1,0,0:0:0:0:
36,192,57989,1,0,0:0:0:0:
329,192,57989,1,0,0:0:0:0:
402,192,58211,1,0,0:0:0:0:
182,192,58322,1,0,0:0:0:0:
109,192,58322,1,0,0:0:0:0:
475,192,58322,1,0,0:0:0:0:
329,192,58322,1,0,0:0:0:0:
256,192,58433,1,0,0:0:0:0:
36,192,58433,1,0,0:0:0:0:
109,192,58544,1,0,0:0:0:0:
402,192,58544,1,0,0:0:0:0:
182,192,58655,1,0,0:0:0:0:
256,192,58655,1,0,0:0:0:0:
329,192,58655,1,0,0:0:0:0:
475,192,58655,1,0,0:0:0:0:
36,192,58878,1,0,0:0:0:0:
256,192,58878,1,0,0:0:0:0:
182,192,58989,1,0,0:0:0:0:
475,192,58989,1,0,0:0:0:0:
109,192,58989,1,0,0:0:0:0:
329,192,58989,1,0,0:0:0:0:
402,192,59100,1,0,0:0:0:0:
36,192,59100,1,0,0:0:0:0:
329,192,59211,1,0,0:0:0:0:
256,192,59211,1,0,0:0:0:0:
109,192,59211,1,0,0:0:0:0:
182,192,59322,1,0,0:0:0:0:
402,192,59322,1,0,0:0:0:0:
256,192,59433,1,0,0:0:0:0:
36,192,59433,1,0,0:0:0:0:
109,192,59544,1,0,0:0:0:0:
329,192,59544,1,0,0:0:0:0:
256,192,59655,1,0,0:0:0:0:
402,192,59655,1,0,0:0:0:0:
36,192,59655,1,0,0:0:0:0:
329,192,59767,1,0,0:0:0:0:
475,192,59767,1,0,0:0:0:0:
402,192,59878,1,0,0:0:0:0:
182,192,59878,1,0,0:0:0:0:
329,192,59989,1,0,0:0:0:0:
475,192,59989,1,0,0:0:0:0:
36,192,59989,1,0,0:0:0:0:
109,192,59989,1,0,0:0:0:0:
182,192,60211,1,0,0:0:0:0:
402,192,60211,1,0,0:0:0:0:
36,192,60211,1,0,0:0:0:0:
109,192,60322,1,0,0:0:0:0:
256,192,60322,1,0,0:0:0:0:
475,192,60322,1,0,0:0:0:0:
329,192,60433,1,0,0:0:0:0:
182,192,60433,1,0,0:0:0:0:
402,192,60433,1,0,0:0:0:0:
256,192,60544,1,0,0:0:0:0:
36,192,60544,1,0,0:0:0:0:
109,192,60655,1,0,0:0:0:0:
402,192,60655,1,0,0:0:0:0:
182,192,60767,1,0,0:0:0:0:
329,192,60767,1,0,0:0:0:0:
109,192,60878,1,0,0:0:0:0:
256,192,60878,1,0,0:0:0:0:
402,192,60878,1,0,0:0:0:0:
182,192,60989,1,0,0:0:0:0:
36,192,60989,1,0,0:0:0:0:
109,192,61100,1,0,0:0:0:0:
402,192,61100,1,0,0:0:0:0:
329,192,61100,1,0,0:0:0:0:
256,192,61211,1,0,0:0:0:0:
475,192,61211,1,0,0:0:0:0:
402,192,61322,1,0,0:0:0:0:
329,192,61322,1,0,0:0:0:0:
109,192,61322,1,0,0:0:0:0:
36,192,61322,1,0,0:0:0:0:
182,192,61544,1,0,0:0:0:0:
475,192,61544,1,0,0:0:0:0:
329,192,61544,1,0,0:0:0:0:
402,192,61655,1,0,0:0:0:0:
109,192,61655,1,0,0:0:0:0:
36,192,61655,1,0,0:0:0:0:
256,192,61655,1,0,0:0:0:0:
402,192,61878,1,0,0:0:0:0:
109,192,61878,1,0,0:0:0:0:
256,192,61878,1,0,0:0:0:0:
329,192,61989,1,0,0:0:0:0:
475,192,61989,1,0,0:0:0:0:
182,192,61989,1,0,0:0:0:0:
36,192,61989,1,0,0:0:0:0:
109,192,62100,1,0,0:0:0:0:
182,192,62100,1,0,0:0:0:0:
329,192,62100,1,0,0:0:0:0:
402,192,62100,1,0,0:0:0:0:
36,192,62211,1,0,0:0:0:0:
475,192,62211,1,0,0:0:0:0:
402,192,62211,1,0,0:0:0:0:
109,192,62211,1,0,0:0:0:0:
256,192,62322,1,0,0:0:0:0:
182,192,62322,1,0,0:0:0:0:
329,192,62322,1,0,0:0:0:0:
182,192,62544,1,0,0:0:0:0:
329,192,62544,1,0,0:0:0:0:
109,192,62655,1,0,0:0:0:0:
256,192,62655,1,0,0:0:0:0:
36,192,62655,1,0,0:0:0:0:
402,192,62655,1,0,0:0:0:0:
475,192,62655,1,0,0:0:0:0:
36,192,62989,1,0,0:0:0:0:
36,192,63322,1,0,0:0:0:0:
329,192,63322,1,0,0:0:0:0:
36,192,63655,1,0,0:0:0:0:
36,192,63989,1,0,0:0:0:0:
36,192,64322,1,0,0:0:0:0:
329,192,64322,1,0,0:0:0:0:
36,192,64655,1,0,0:0:0:0:
182,192,64655,1,0,0:0:0:0:
36,192,64989,1,0,0:0:0:0:
329,192,64989,1,0,0:0:0:0:
36,192,65322,1,0,0:0:0:0:
475,192,65322,1,0,0:0:0:0:
36,192,65655,1,0,0:0:0:0:
36,192,65989,1,0,0:0:0:0:
402,192,66211,1,0,0:0:0:0:
36,192,66322,1,0,0:0:0:0:
329,192,66433,1,0,0:0:0:0:
36,192,66655,1,0,0:0:0:0:
256,192,66655,1,0,0:0:0:0:
36,192,66989,1,0,0:0:0:0:
182,192,66989,1,0,0:0:0:0:
36,192,67322,1,0,0:0:0:0:
109,192,67322,1,0,0:0:0:0:
36,192,67544,1,0,0:0:0:0:
36,192,67655,1,0,0:0:0:0:
329,192,67655,1,0,0:0:0:0:
109,192,67655,1,0,0:0:0:0:
109,192,67878,1,0,0:0:0:0:
36,192,67989,1,0,0:0:0:0:
256,192,67989,1,0,0:0:0:0:
402,192,67989,1,0,0:0:0:0:
109,192,67989,1,0,0:0:0:0:
36,192,68322,1,0,0:0:0:0:
36,192,68655,1,0,0:0:0:0:
329,192,68655,1,0,0:0:0:0:
36,192,68989,1,0,0:0:0:0:
36,192,69322,1,0,0:0:0:0:
36,192,69655,1,0,0:0:0:0:
182,192,69655,1,0,0:0:0:0:
36,192,69989,1,0,0:0:0:0:
329,192,69989,1,0,0:0:0:0:
36,192,70322,1,0,0:0:0:0:
475,192,70322,1,0,0:0:0:0:
36,192,70655,1,0,0:0:0:0:
329,192,70655,1,0,0:0:0:0:
475,192,70655,1,0,0:0:0:0:
402,192,70767,1,0,0:0:0:0:
256,192,70767,1,0,0:0:0:0:
182,192,70878,1,0,0:0:0:0:
329,192,70878,1,0,0:0:0:0:
36,192,70989,1,0,0:0:0:0:
256,192,70989,1,0,0:0:0:0:
402,192,70989,1,0,0:0:0:0:
329,192,71100,1,0,0:0:0:0:
182,192,71100,1,0,0:0:0:0:
109,192,71211,1,0,0:0:0:0:
256,192,71211,1,0,0:0:0:0:
36,192,71322,1,0,0:0:0:0:
182,192,71322,1,0,0:0:0:0:
329,192,71322,1,0,0:0:0:0:
256,192,71433,1,0,0:0:0:0:
109,192,71433,1,0,0:0:0:0:
182,192,71544,1,0,0:0:0:0:
329,192,71544,1,0,0:0:0:0:
36,192,71655,1,0,0:0:0:0:
256,192,71655,1,0,0:0:0:0:
402,192,71655,1,0,0:0:0:0:
329,192,71767,1,0,0:0:0:0:
475,192,71767,1,0,0:0:0:0:
402,192,71878,1,0,0:0:0:0:
256,192,71878,1,0,0:0:0:0:
36,192,71989,1,0,0:0:0:0:
182,192,71989,1,0,0:0:0:0:
329,192,71989,1,0,0:0:0:0:
109,192,72100,1,0,0:0:0:0:
256,192,72100,1,0,0:0:0:0:
182,192,72211,1,0,0:0:0:0:
329,192,72211,1,0,0:0:0:0:
36,192,72322,1,0,0:0:0:0:
256,192,72322,1,0,0:0:0:0:
402,192,72322,1,0,0:0:0:0:
329,192,72433,1,0,0:0:0:0:
475,192,72433,1,0,0:0:0:0:
402,192,72544,1,0,0:0:0:0:
256,192,72544,1,0,0:0:0:0:
36,192,72655,1,0,0:0:0:0:
182,192,72655,1,0,0:0:0:0:
109,192,72767,1,0,0:0:0:0:
256,192,72767,1,0,0:0:0:0:
475,192,72767,1,0,0:0:0:0:
36,192,72878,1,0,0:0:0:0:
182,192,72878,1,0,0:0:0:0:
475,192,72989,1,0,0:0:0:0:
329,192,72989,1,0,0:0:0:0:
256,192,73100,1,0,0:0:0:0:
402,192,73100,1,0,0:0:0:0:
36,192,73100,1,0,0:0:0:0:
475,192,73211,1,0,0:0:0:0:
329,192,73211,1,0,0:0:0:0:
36,192,73322,1,0,0:0:0:0:
256,192,73322,1,0,0:0:0:0:
402,192,73322,1,0,0:0:0:0:
109,192,73322,1,0,0:0:0:0:
36,192,73655,1,0,0:0:0:0:
256,192,73655,1,0,0:0:0:0:
329,192,73767,1,0,0:0:0:0:
402,192,73878,1,0,0:0:0:0:
36,192,73989,1,0,0:0:0:0:
475,192,73989,1,0,0:0:0:0:
329,192,73989,1,0,0:0:0:0:
182,192,74100,1,0,0:0:0:0:
256,192,74211,1,0,0:0:0:0:
36,192,74322,1,0,0:0:0:0:
329,192,74322,1,0,0:0:0:0:
402,192,74433,1,0,0:0:0:0:
256,192,74544,1,0,0:0:0:0:
36,192,74655,1,0,0:0:0:0:
329,192,74655,1,0,0:0:0:0:
402,192,74767,1,0,0:0:0:0:
475,192,74878,1,0,0:0:0:0:
36,192,74989,1,0,0:0:0:0:
402,192,74989,1,0,0:0:0:0:
256,192,74989,1,0,0:0:0:0:
329,192,75100,1,0,0:0:0:0:
256,192,75211,1,0,0:0:0:0:
36,192,75322,1,0,0:0:0:0:
402,192,75322,1,0,0:0:0:0:
182,192,75322,1,0,0:0:0:0:
329,192,75433,1,0,0:0:0:0:
256,192,75544,1,0,0:0:0:0:
36,192,75655,1,0,0:0:0:0:
182,192,75655,1,0,0:0:0:0:
329,192,75655,1,0,0:0:0:0:
256,192,75767,1,0,0:0:0:0:
182,192,75878,1,0,0:0:0:0:
36,192,75989,1,0,0:0:0:0:
109,192,75989,1,0,0:0:0:0:
402,192,75989,1,0,0:0:0:0:
182,192,76100,1,0,0:0:0:0:
256,192,76211,1,0,0:0:0:0:
36,192,76322,1,0,0:0:0:0:
402,192,76322,1,0,0:0:0:0:
329,192,76433,1,0,0:0:0:0:
256,192,76544,1,0,0:0:0:0:
36,192,76655,1,0,0:0:0:0:
109,192,76655,1,0,0:0:0:0:
182,192,76767,1,0,0:0:0:0:
256,192,76878,1,0,0:0:0:0:
402,192,76878,1,0,0:0:0:0:
36,192,76989,1,0,0:0:0:0:
475,192,76989,1,0,0:0:0:0:
402,192,77100,1,0,0:0:0:0:
182,192,77100,1,0,0:0:0:0:
329,192,77211,1,0,0:0:0:0:
36,192,77322,1,0,0:0:0:0:
256,192,77322,1,0,0:0:0:0:
109,192,77322,1,0,0:0:0:0:
329,192,77433,1,0,0:0:0:0:
402,192,77544,1,0,0:0:0:0:
36,192,77655,1,0,0:0:0:0:
329,192,77655,1,0,0:0:0:0:
256,192,77655,1,0,0:0:0:0:
109,192,77767,1,0,0:0:0:0:
182,192,77878,1,0,0:0:0:0:
36,192,77989,128,0,78322:0:0:0:0:
256,192,77989,1,0,0:0:0:0:
402,192,77989,1,0,0:0:0:0:
329,192,78100,1,0,0:0:0:0:
402,192,78211,1,0,0:0:0:0:
475,192,78322,128,0,78655:0:0:0:0:
329,192,78322,1,0,0:0:0:0:
182,192,78322,1,0,0:0:0:0:
256,192,78433,1,0,0:0:0:0:
36,192,78544,1,0,0:0:0:0:
182,192,78544,1,0,0:0:0:0:
36,192,78655,1,0,0:0:0:0:
329,192,78655,1,0,0:0:0:0:
256,192,78655,1,0,0:0:0:0:
109,192,78655,1,0,0:0:0:0:
36,192,78989,1,0,0:0:0:0:
182,192,78989,1,0,0:0:0:0:
36,192,79322,1,0,0:0:0:0:
329,192,79322,1,0,0:0:0:0:
109,192,79322,1,0,0:0:0:0:
36,192,79655,1,0,0:0:0:0:
182,192,79655,1,0,0:0:0:0:
36,192,79989,1,0,0:0:0:0:
256,192,80100,1,0,0:0:0:0:
329,192,80211,1,0,0:0:0:0:
36,192,80322,1,0,0:0:0:0:
182,192,80322,1,0,0:0:0:0:
402,192,80322,1,0,0:0:0:0:
475,192,80433,1,0,0:0:0:0:
402,192,80544,1,0,0:0:0:0:
36,192,80655,1,0,0:0:0:0:
109,192,80655,1,0,0:0:0:0:
329,192,80655,1,0,0:0:0:0:
256,192,80767,1,0,0:0:0:0:
109,192,80878,1,0,0:0:0:0:
36,192,80989,1,0,0:0:0:0:
182,192,80989,1,0,0:0:0:0:
329,192,80989,1,0,0:0:0:0:
256,192,81100,1,0,0:0:0:0:
329,192,81211,1,0,0:0:0:0:
36,192,81322,1,0,0:0:0:0:
109,192,81322,1,0,0:0:0:0:
402,192,81322,1,0,0:0:0:0:
256,192,81433,1,0,0:0:0:0:
329,192,81544,1,0,0:0:0:0:
36,192,81655,1,0,0:0:0:0:
182,192,81655,1,0,0:0:0:0:
402,192,81655,1,0,0:0:0:0:
475,192,81767,1,0,0:0:0:0:
256,192,81767,1,0,0:0:0:0:
329,192,81878,1,0,0:0:0:0:
36,192,81989,1,0,0:0:0:0:
109,192,81989,1,0,0:0:0:0:
402,192,81989,1,0,0:0:0:0:
256,192,82100,1,0,0:0:0:0:
402,192,82211,1,0,0:0:0:0:
36,192,82322,1,0,0:0:0:0:
182,192,82322,1,0,0:0:0:0:
475,192,82322,1,0,0:0:0:0:
329,192,82433,1,0,0:0:0:0:
256,192,82544,1,0,0:0:0:0:
402,192,82544,1,0,0:0:0:0:
36,192,82655,1,0,0:0:0:0:
109,192,82655,1,0,0:0:0:0:
329,192,82655,1,0,0:0:0:0:
475,192,82655,1,0,0:0:0:0:
256,192,82767,1,0,0:0:0:0:
402,192,82767,1,0,0:0:0:0:
329,192,82878,1,0,0:0:0:0:
36,192,82989,1,0,0:0:0:0:
182,192,82989,1,0,0:0:0:0:
475,192,82989,1,0,0:0:0:0:
256,192,82989,1,0,0:0:0:0:
329,192,83100,1,0,0:0:0:0:
475,192,83211,1,0,0:0:0:0:
402,192,83211,1,0,0:0:0:0:
256,192,83211,1,0,0:0:0:0:
36,192,83322,1,0,0:0:0:0:
109,192,83322,1,0,0:0:0:0:
182,192,83322,1,0,0:0:0:0:
329,192,83322,1,0,0:0:0:0:
109,192,83544,1,0,0:0:0:0:
182,192,83544,1,0,0:0:0:0:
256,192,83544,1,0,0:0:0:0:
402,192,83544,1,0,0:0:0:0:
182,192,83767,1,0,0:0:0:0:
256,192,83767,1,0,0:0:0:0:
329,192,83767,1,0,0:0:0:0:
475,192,83767,1,0,0:0:0:0:
475,192,83989,1,0,0:0:0:0:
402,192,83989,1,0,0:0:0:0:
329,192,83989,1,0,0:0:0:0:
182,192,83989,1,0,0:0:0:0:
402,192,84211,1,0,0:0:0:0:
329,192,84211,1,0,0:0:0:0:
256,192,84211,1,0,0:0:0:0:
109,192,84211,1,0,0:0:0:0:
256,192,84433,1,0,0:0:0:0:
329,192,84433,1,0,0:0:0:0:
182,192,84433,1,0,0:0:0:0:
36,192,84433,1,0,0:0:0:0:
402,192,84655,1,0,0:0:0:0:
36,192,84655,1,0,0:0:0:0:
109,192,84655,1,0,0:0:0:0:
475,192,84655,1,0,0:0:0:0:
182,192,84878,1,0,0:0:0:0:
329,192,84878,1,0,0:0:0:0:
256,192,84878,1,0,0:0:0:0:
36,192,85100,1,0,0:0:0:0:
109,192,85100,1,0,0:0:0:0:
256,192,85100,1,0,0:0:0:0:
475,192,85100,1,0,0:0:0:0:
402,192,85100,1,0,0:0:0:0:
182,192,85322,1,0,0:0:0:0:
329,192,85322,1,0,0:0:0:0:
402,192,85322,128,0,85544:0:0:0:0:
256,192,85433,1,0,0:0:0:0:
109,192,85433,1,0,0:0:0:0:
36,192,85544,1,0,0:0:0:0:
182,192,85544,1,0,0:0:0:0:
256,192,85655,1,0,0:0:0:0:
109,192,85655,1,0,0:0:0:0:
329,192,85655,128,0,85767:0:0:0:0:
402,192,85767,1,0,0:0:0:0:
182,192,85767,128,0,85878:0:0:0:0:
475,192,85878,1,0,0:0:0:0:
256,192,85878,128,0,85989:0:0:0:0:
109,192,85989,1,0,0:0:0:0:
36,192,85989,1,0,0:0:0:0:
402,192,85989,128,0,86322:0:0:0:0:
329,192,86100,1,0,0:0:0:0:
256,192,86211,1,0,0:0:0:0:
109,192,86211,1,0,0:0:0:0:
36,192,86322,1,0,0:0:0:0:
475,192,86322,1,0,0:0:0:0:
182,192,86322,128,0,86433:0:0:0:0:
329,192,86433,1,0,0:0:0:0:
109,192,86433,1,0,0:0:0:0:
402,192,86433,128,0,86544:0:0:0:0:
256,192,86544,128,0,86655:0:0:0:0:
109,192,86655,1,0,0:0:0:0:
329,192,86655,1,0,0:0:0:0:
36,192,86655,128,0,86878:0:0:0:0:
182,192,86767,1,0,0:0:0:0:
402,192,86767,1,0,0:0:0:0:
256,192,86767,1,0,0:0:0:0:
475,192,86878,1,0,0:0:0:0:
329,192,86878,1,0,0:0:0:0:
402,192,86989,1,0,0:0:0:0:
109,192,86989,128,0,87100:0:0:0:0:
36,192,87100,1,0,0:0:0:0:
182,192,87100,128,0,87211:0:0:0:0:
109,192,87211,1,0,0:0:0:0:
256,192,87211,128,0,87322:0:0:0:0:
182,192,87322,1,0,0:0:0:0:
329,192,87322,1,0,0:0:0:0:
475,192,87322,128,0,87433:0:0:0:0:
256,192,87433,1,0,0:0:0:0:
402,192,87433,128,0,87544:0:0:0:0:
182,192,87544,1,0,0:0:0:0:
329,192,87544,128,0,87655:0:0:0:0:
109,192,87655,1,0,0:0:0:0:
256,192,87655,128,0,87767:0:0:0:0:
182,192,87767,1,0,0:0:0:0:
36,192,87767,128,0,87878:0:0:0:0:
256,192,87878,1,0,0:0:0:0:
109,192,87878,128,0,87989:0:0:0:0:
182,192,87989,1,0,0:0:0:0:
329,192,87989,1,0,0:0:0:0:
402,192,87989,128,0,88211:0:0:0:0:
109,192,88211,1,0,0:0:0:0:
182,192,88211,1,0,0:0:0:0:
329,192,88211,128,0,88322:0:0:0:0:
256,192,88322,1,0,0:0:0:0:
402,192,88322,1,0,0:0:0:0:
36,192,88322,128,0,88433:0:0:0:0:
329,192,88433,1,0,0:0:0:0:
109,192,88433,128,0,88544:0:0:0:0:
182,192,88544,1,0,0:0:0:0:
475,192,88544,128,0,88655:0:0:0:0:
329,192,88655,1,0,0:0:0:0:
402,192,88655,128,0,88767:0:0:0:0:
256,192,88767,1,0,0:0:0:0:
109,192,88767,128,0,88878:0:0:0:0:
182,192,88878,1,0,0:0:0:0:
475,192,88878,1,0,0:0:0:0:
36,192,88878,128,0,88989:0:0:0:0:
329,192,88989,1,0,0:0:0:0:
402,192,88989,128,0,89100:0:0:0:0:
475,192,89100,1,0,0:0:0:0:
182,192,89100,128,0,89211:0:0:0:0:
402,192,89211,1,0,0:0:0:0:
109,192,89211,128,0,89322:0:0:0:0:
36,192,89322,1,0,0:0:0:0:
329,192,89322,1,0,0:0:0:0:
256,192,89322,128,0,89544:0:0:0:0:
182,192,89433,1,0,0:0:0:0:
402,192,89433,1,0,0:0:0:0:
329,192,89544,1,0,0:0:0:0:
475,192,89544,1,0,0:0:0:0:
402,192,89655,1,0,0:0:0:0:
182,192,89655,1,0,0:0:0:0:
36,192,89655,1,0,0:0:0:0:
256,192,89655,128,0,89767:0:0:0:0:
109,192,89767,1,0,0:0:0:0:
329,192,89767,128,0,89878:0:0:0:0:
182,192,89878,1,0,0:0:0:0:
402,192,89878,128,0,89989:0:0:0:0:
256,192,89989,1,0,0:0:0:0:
329,192,89989,1,0,0:0:0:0:
475,192,89989,1,0,0:0:0:0:
36,192,89989,128,0,90100:0:0:0:0:
182,192,90100,1,0,0:0:0:0:
109,192,90211,1,0,0:0:0:0:
402,192,90211,1,0,0:0:0:0:
256,192,90211,1,0,0:0:0:0:
36,192,90211,1,0,0:0:0:0:
182,192,90322,1,0,0:0:0:0:
329,192,90322,1,0,0:0:0:0:
475,192,90322,1,0,0:0:0:0:
36,192,90322,1,0,0:0:0:0:
182,192,90544,1,0,0:0:0:0:
475,192,90544,1,0,0:0:0:0:
36,192,90544,128,0,90655:0:0:0:0:
109,192,90655,1,0,0:0:0:0:
402,192,90655,1,0,0:0:0:0:
256,192,90655,128,0,90767:0:0:0:0:
182,192,90767,1,0,0:0:0:0:
329,192,90767,1,0,0:0:0:0:
109,192,90878,1,0,0:0:0:0:
256,192,90878,128,0,90989:0:0:0:0:
36,192,90989,1,0,0:0:0:0:
402,192,90989,1,0,0:0:0:0:
475,192,90989,1,0,0:0:0:0:
182,192,90989,128,0,91100:0:0:0:0:
329,192,91100,128,0,91211:0:0:0:0:
109,192,91211,1,0,0:0:0:0:
256,192,91211,128,0,91322:0:0:0:0:
36,192,91322,1,0,0:0:0:0:
182,192,91322,128,0,91433:0:0:0:0:
109,192,91433,1,0,0:0:0:0:
256,192,91544,1,0,0:0:0:0:
36,192,91544,128,0,91655:0:0:0:0:
329,192,91655,1,0,0:0:0:0:
182,192,91655,1,0,0:0:0:0:
402,192,91655,128,0,91767:0:0:0:0:
109,192,91767,1,0,0:0:0:0:
256,192,91767,128,0,91878:0:0:0:0:
182,192,91878,1,0,0:0:0:0:
329,192,91878,128,0,91989:0:0:0:0:
402,192,91989,1,0,0:0:0:0:
36,192,91989,1,0,0:0:0:0:
256,192,91989,1,0,0:0:0:0:
475,192,91989,128,0,92211:0:0:0:0:
109,192,92100,1,0,0:0:0:0:
182,192,92100,1,0,0:0:0:0:
256,192,92211,1,0,0:0:0:0:
329,192,92211,1,0,0:0:0:0:
182,192,92322,128,0,92433:0:0:0:0:
402,192,92322,1,0,0:0:0:0:
36,192,92322,1,0,0:0:0:0:
329,192,92433,128,0,92544:0:0:0:0:
256,192,92433,1,0,0:0:0:0:
475,192,92544,128,0,92655:0:0:0:0:
109,192,92544,1,0,0:0:0:0:
256,192,92655,128,0,92767:0:0:0:0:
329,192,92655,1,0,0:0:0:0:
36,192,92655,1,0,0:0:0:0:
402,192,92767,128,0,92878:0:0:0:0:
109,192,92767,1,0,0:0:0:0:
182,192,92878,128,0,92989:0:0:0:0:
475,192,92878,1,0,0:0:0:0:
329,192,92989,128,0,93100:0:0:0:0:
36,192,92989,1,0,0:0:0:0:
402,192,92989,1,0,0:0:0:0:
109,192,93100,128,0,93211:0:0:0:0:
256,192,93100,1,0,0:0:0:0:
182,192,93211,128,0,93322:0:0:0:0:
329,192,93211,1,0,0:0:0:0:
36,192,93322,128,0,93544:0:0:0:0:
402,192,93322,1,0,0:0:0:0:
475,192,93322,1,0,0:0:0:0:
329,192,93433,1,0,0:0:0:0:
182,192,93433,1,0,0:0:0:0:
256,192,93544,1,0,0:0:0:0:
109,192,93655,128,0,93878:0:0:0:0:
402,192,93655,1,0,0:0:0:0:
329,192,93655,1,0,0:0:0:0:
182,192,93767,1,0,0:0:0:0:
36,192,93767,1,0,0:0:0:0:
475,192,93878,1,0,0:0:0:0:
402,192,93878,1,0,0:0:0:0:
182,192,93989,128,0,94211:0:0:0:0:
36,192,93989,1,0,0:0:0:0:
256,192,93989,1,0,0:0:0:0:
109,192,94100,1,0,0:0:0:0:
329,192,94100,1,0,0:0:0:0:
402,192,94211,1,0,0:0:0:0:
256,192,94211,1,0,0:0:0:0:
475,192,94322,128,0,94544:0:0:0:0:
329,192,94322,1,0,0:0:0:0:
109,192,94322,1,0,0:0:0:0:
256,192,94433,1,0,0:0:0:0:
36,192,94433,1,0,0:0:0:0:
109,192,94544,1,0,0:0:0:0:
329,192,94544,1,0,0:0:0:0:
182,192,94544,1,0,0:0:0:0:
402,192,94655,128,0,94878:0:0:0:0:
256,192,94655,1,0,0:0:0:0:
36,192,94655,1,0,0:0:0:0:
475,192,94655,1,0,0:0:0:0:
182,192,94767,1,0,0:0:0:0:
109,192,94878,1,0,0:0:0:0:
256,192,94878,1,0,0:0:0:0:
329,192,94989,128,0,95211:0:0:0:0:
36,192,94989,1,0,0:0:0:0:
182,192,94989,1,0,0:0:0:0:
109,192,95100,1,0,0:0:0:0:
182,192,95211,1,0,0:0:0:0:
402,192,95211,1,0,0:0:0:0:
256,192,95322,128,0,95989:0:0:0:0:
475,192,95322,1,0,0:0:0:0:
402,192,95364,1,0,0:0:0:0:
329,192,95405,1,0,0:0:0:0:
182,192,95447,1,0,0:0:0:0:
109,192,95489,1,0,0:0:0:0:
36,192,95530,1,0,0:0:0:0:
475,192,95530,1,0,0:0:0:0:
402,192,95572,1,0,0:0:0:0:
329,192,95614,1,0,0:0:0:0:
182,192,95655,1,0,0:0:0:0:
109,192,95697,1,0,0:0:0:0:
36,192,95739,1,0,0:0:0:0:
475,192,95739,1,0,0:0:0:0:
402,192,95780,1,0,0:0:0:0:
329,192,95822,1,0,0:0:0:0:
182,192,95864,1,0,0:0:0:0:
109,192,95905,1,0,0:0:0:0:
36,192,95947,1,0,0:0:0:0:
475,192,95947,1,0,0:0:0:0:
402,192,95989,1,0,0:0:0:0:
329,192,95989,1,0,0:0:0:0:
182,192,95989,1,0,0:0:0:0:
109,192,96100,1,0,0:0:0:0:
256,192,96100,1,0,0:0:0:0:
36,192,96211,1,0,0:0:0:0:
182,192,96211,1,0,0:0:0:0:
256,192,96322,1,0,0:0:0:0:
402,192,96322,1,0,0:0:0:0:
36,192,96322,1,0,0:0:0:0:
329,192,96433,1,0,0:0:0:0:
475,192,96433,1,0,0:0:0:0:
109,192,96433,1,0,0:0:0:0:
402,192,96544,1,0,0:0:0:0:
256,192,96544,1,0,0:0:0:0:
182,192,96655,1,0,0:0:0:0:
329,192,96655,1,0,0:0:0:0:
36,192,96655,1,0,0:0:0:0:
109,192,96767,1,0,0:0:0:0:
256,192,96767,1,0,0:0:0:0:
182,192,96878,1,0,0:0:0:0:
329,192,96878,1,0,0:0:0:0:
36,192,96989,1,0,0:0:0:0:
256,192,96989,1,0,0:0:0:0:
402,192,96989,1,0,0:0:0:0:
329,192,97100,1,0,0:0:0:0:
475,192,97100,1,0,0:0:0:0:
402,192,97211,1,0,0:0:0:0:
256,192,97211,1,0,0:0:0:0:
36,192,97322,1,0,0:0:0:0:
182,192,97322,1,0,0:0:0:0:
329,192,97322,1,0,0:0:0:0:
256,192,97433,1,0,0:0:0:0:
402,192,97433,1,0,0:0:0:0:
182,192,97544,1,0,0:0:0:0:
329,192,97544,1,0,0:0:0:0:
36,192,97655,1,0,0:0:0:0:
402,192,97655,1,0,0:0:0:0:
475,192,97655,1,0,0:0:0:0:
256,192,97655,1,0,0:0:0:0:
109,192,97767,1,0,0:0:0:0:
329,192,97767,1,0,0:0:0:0:
256,192,97878,1,0,0:0:0:0:
402,192,97878,1,0,0:0:0:0:
36,192,97989,1,0,0:0:0:0:
182,192,97989,1,0,0:0:0:0:
329,192,97989,1,0,0:0:0:0:
109,192,98100,1,0,0:0:0:0:
256,192,98100,1,0,0:0:0:0:
329,192,98211,1,0,0:0:0:0:
475,192,98211,1,0,0:0:0:0:
36,192,98322,1,0,0:0:0:0:
256,192,98322,1,0,0:0:0:0:
402,192,98322,1,0,0:0:0:0:
182,192,98433,1,0,0:0:0:0:
329,192,98433,1,0,0:0:0:0:
256,192,98544,1,0,0:0:0:0:
109,192,98544,1,0,0:0:0:0:
36,192,98544,1,0,0:0:0:0:
36,192,98655,1,0,0:0:0:0:
402,192,98655,1,0,0:0:0:0:
475,192,98655,1,0,0:0:0:0:
256,192,98767,1,0,0:0:0:0:
329,192,98767,1,0,0:0:0:0:
109,192,98878,1,0,0:0:0:0:
182,192,98878,1,0,0:0:0:0:
402,192,98878,1,0,0:0:0:0:
36,192,98989,1,0,0:0:0:0:
256,192,98989,1,0,0:0:0:0:
329,192,98989,1,0,0:0:0:0:
402,192,99100,1,0,0:0:0:0:
475,192,99100,1,0,0:0:0:0:
182,192,99100,1,0,0:0:0:0:
109,192,99211,1,0,0:0:0:0:
329,192,99211,1,0,0:0:0:0:
36,192,99322,1,0,0:0:0:0:
182,192,99322,1,0,0:0:0:0:
402,192,99322,1,0,0:0:0:0:
256,192,99433,1,0,0:0:0:0:
475,192,99433,1,0,0:0:0:0:
329,192,99544,1,0,0:0:0:0:
402,192,99544,1,0,0:0:0:0:
182,192,99544,1,0,0:0:0:0:
36,192,99655,1,0,0:0:0:0:
109,192,99655,1,0,0:0:0:0:
256,192,99655,1,0,0:0:0:0:
182,192,99767,1,0,0:0:0:0:
329,192,99767,1,0,0:0:0:0:
402,192,99878,1,0,0:0:0:0:
256,192,99878,1,0,0:0:0:0:
36,192,99989,1,0,0:0:0:0:
109,192,99989,1,0,0:0:0:0:
329,192,99989,1,0,0:0:0:0:
256,192,100100,1,0,0:0:0:0:
475,192,100100,1,0,0:0:0:0:
402,192,100100,1,0,0:0:0:0:
329,192,100211,1,0,0:0:0:0:
182,192,100211,1,0,0:0:0:0:
36,192,100322,1,0,0:0:0:0:
109,192,100322,1,0,0:0:0:0:
256,192,100322,1,0,0:0:0:0:
182,192,100433,1,0,0:0:0:0:
402,192,100433,1,0,0:0:0:0:
329,192,100544,1,0,0:0:0:0:
475,192,100544,1,0,0:0:0:0:
256,192,100655,1,0,0:0:0:0:
402,192,100655,1,0,0:0:0:0:
182,192,100655,1,0,0:0:0:0:
36,192,100655,128,0,100878:0:0:0:0:
109,192,100767,1,0,0:0:0:0:
329,192,100767,1,0,0:0:0:0:
402,192,100878,1,0,0:0:0:0:
182,192,100878,1,0,0:0:0:0:
256,192,100989,1,0,0:0:0:0:
329,192,100989,1,0,0:0:0:0:
475,192,100989,128,0,101211:0:0:0:0:
36,192,100989,1,0,0:0:0:0:
109,192,100989,1,0,0:0:0:0:
182,192,101100,1,0,0:0:0:0:
402,192,101100,1,0,0:0:0:0:
329,192,101211,1,0,0:0:0:0:
109,192,101211,1,0,0:0:0:0:
182,192,101322,1,0,0:0:0:0:
402,192,101322,1,0,0:0:0:0:
36,192,101322,1,0,0:0:0:0:
256,192,101322,1,0,0:0:0:0:
329,192,101433,1,0,0:0:0:0:
109,192,101433,1,0,0:0:0:0:
475,192,101433,1,0,0:0:0:0:
402,192,101544,1,0,0:0:0:0:
36,192,101544,1,0,0:0:0:0:
182,192,101544,1,0,0:0:0:0:
109,192,101655,1,0,0:0:0:0:
475,192,101655,1,0,0:0:0:0:
256,192,101655,1,0,0:0:0:0:
329,192,101655,1,0,0:0:0:0:
182,192,101767,1,0,0:0:0:0:
402,192,101767,1,0,0:0:0:0:
256,192,101878,1,0,0:0:0:0:
475,192,101878,1,0,0:0:0:0:
36,192,101878,1,0,0:0:0:0:
329,192,101989,1,0,0:0:0:0:
402,192,101989,1,0,0:0:0:0:
182,192,101989,1,0,0:0:0:0:
109,192,101989,1,0,0:0:0:0:
256,192,102100,1,0,0:0:0:0:
475,192,102100,1,0,0:0:0:0:
36,192,102100,1,0,0:0:0:0:
109,192,102211,1,0,0:0:0:0:
329,192,102211,1,0,0:0:0:0:
475,192,102211,1,0,0:0:0:0:
256,192,102322,1,0,0:0:0:0:
182,192,102322,1,0,0:0:0:0:
36,192,102322,1,0,0:0:0:0:
402,192,102322,1,0,0:0:0:0:
109,192,102433,1,0,0:0:0:0:
475,192,102433,1,0,0:0:0:0:
329,192,102433,1,0,0:0:0:0:
182,192,102544,1,0,0:0:0:0:
36,192,102544,1,0,0:0:0:0:
402,192,102655,1,0,0:0:0:0:
475,192,102655,1,0,0:0:0:0:
256,192,102655,1,0,0:0:0:0:
109,192,102655,1,0,0:0:0:0:
329,192,102767,1,0,0:0:0:0:
36,192,102767,1,0,0:0:0:0:
402,192,102878,1,0,0:0:0:0:
182,192,102878,1,0,0:0:0:0:
109,192,102878,1,0,0:0:0:0:
329,192,102989,1,0,0:0:0:0:
256,192,102989,1,0,0:0:0:0:
36,192,102989,1,0,0:0:0:0:
475,192,102989,1,0,0:0:0:0:
109,192,103100,1,0,0:0:0:0:
402,192,103100,1,0,0:0:0:0:
182,192,103211,1,0,0:0:0:0:
402,192,103211,1,0,0:0:0:0:
329,192,103211,1,0,0:0:0:0:
36,192,103322,1,0,0:0:0:0:
109,192,103322,1,0,0:0:0:0:
256,192,103322,1,0,0:0:0:0:
475,192,103322,1,0,0:0:0:0:
182,192,103433,1,0,0:0:0:0:
402,192,103433,1,0,0:0:0:0:
329,192,103433,1,0,0:0:0:0:
109,192,103544,1,0,0:0:0:0:
329,192,103544,1,0,0:0:0:0:
256,192,103544,1,0,0:0:0:0:
182,192,103655,1,0,0:0:0:0:
36,192,103655,1,0,0:0:0:0:
475,192,103655,1,0,0:0:0:0:
402,192,103655,1,0,0:0:0:0:
402,192,103767,1,0,0:0:0:0:
256,192,103767,1,0,0:0:0:0:
109,192,103767,1,0,0:0:0:0:
36,192,103767,1,0,0:0:0:0:
329,192,103878,1,0,0:0:0:0:
182,192,103878,1,0,0:0:0:0:
329,192,103989,1,0,0:0:0:0:
256,192,103989,1,0,0:0:0:0:
36,192,103989,1,0,0:0:0:0:
475,192,103989,1,0,0:0:0:0:
109,192,104044,1,0,0:0:0:0:
182,192,104100,1,0,0:0:0:0:
256,192,104155,1,0,0:0:0:0:
329,192,104211,1,0,0:0:0:0:
402,192,104267,1,0,0:0:0:0:
475,192,104322,1,0,0:0:0:0:
402,192,104378,1,0,0:0:0:0:
329,192,104433,1,0,0:0:0:0:
256,192,104489,1,0,0:0:0:0:
182,192,104544,1,0,0:0:0:0:
109,192,104600,1,0,0:0:0:0:
36,192,104655,1,0,0:0:0:0:
475,192,104655,1,0,0:0:0:0:
109,192,104711,1,0,0:0:0:0:
182,192,104767,1,0,0:0:0:0:
402,192,104767,1,0,0:0:0:0:
256,192,104822,1,0,0:0:0:0:
329,192,104878,1,0,0:0:0:0:
109,192,104878,1,0,0:0:0:0:
402,192,104933,1,0,0:0:0:0:
475,192,104989,1,0,0:0:0:0:
36,192,104989,1,0,0:0:0:0:
182,192,104989,1,0,0:0:0:0:
256,192,105044,1,0,0:0:0:0:
329,192,105100,1,0,0:0:0:0:
402,192,105155,1,0,0:0:0:0:
109,192,105155,1,0,0:0:0:0:
182,192,105211,1,0,0:0:0:0:
256,192,105267,1,0,0:0:0:0:
475,192,105322,1,0,0:0:0:0:
36,192,105322,1,0,0:0:0:0:
402,192,105378,1,0,0:0:0:0:
329,192,105433,1,0,0:0:0:0:
256,192,105489,1,0,0:0:0:0:
182,192,105544,1,0,0:0:0:0:
109,192,105600,1,0,0:0:0:0:
36,192,105655,1,0,0:0:0:0:
109,192,105711,1,0,0:0:0:0:
182,192,105767,1,0,0:0:0:0:
256,192,105822,1,0,0:0:0:0:
329,192,105878,1,0,0:0:0:0:
402,192,105933,1,0,0:0:0:0:
475,192,105989,1,0,0:0:0:0:
36,192,105989,1,0,0:0:0:0:
109,192,106030,1,0,0:0:0:0:
402,192,106030,1,0,0:0:0:0:
182,192,106072,1,0,0:0:0:0:
329,192,106072,1,0,0:0:0:0:
256,192,106114,1,0,0:0:0:0:
475,192,106155,1,0,0:0:0:0:
36,192,106155,1,0,0:0:0:0:
109,192,106196,1,0,0:0:0:0:
402,192,106196,1,0,0:0:0:0:
182,192,106238,1,0,0:0:0:0:
329,192,106238,1,0,0:0:0:0:
256,192,106280,1,0,0:0:0:0:
36,192,106322,1,0,0:0:0:0:
475,192,106322,1,0,0:0:0:0:
402,192,106363,1,0,0:0:0:0:
109,192,106363,1,0,0:0:0:0:
329,192,106405,1,0,0:0:0:0:
182,192,106405,1,0,0:0:0:0:
256,192,106447,1,0,0:0:0:0:
475,192,106489,1,0,0:0:0:0:
36,192,106489,1,0,0:0:0:0:
109,192,106530,1,0,0:0:0:0:
402,192,106530,1,0,0:0:0:0:
182,192,106572,1,0,0:0:0:0:
329,192,106572,1,0,0:0:0:0:
256,192,106614,1,0,0:0:0:0:
109,192,106655,1,0,0:0:0:0:
36,192,106655,1,0,0:0:0:0:
402,192,106655,1,0,0:0:0:0:
475,192,106655,1,0,0:0:0:0:
