osu file format v13

[General]
AudioFilename: Entrance.mp3
AudioLeadIn: 2000
PreviewTime: 75148
Countdown: 0
SampleSet: Normal
StackLeniency: 0.7
Mode: 3
LetterboxInBreaks: 0
EpilepsyWarning: 1
SpecialStyle: 0
WidescreenStoryboard: 0

[Editor]
DistanceSpacing: 1.6
BeatDivisor: 3
GridSize: 8
TimelineZoom: 1

[Metadata]
Title:Entrance
TitleUnicode:Entrance
Artist:Ice
ArtistUnicode:Ice
Creator:Hellgert
Version:NM
Source:Cytus
Tags:Deemo rayark [FX]_AEM chapter II Fullerene- XeroiZi HD Darkvortex -eternal love-
BeatmapID:450416
BeatmapSetID:188614

[Difficulty]
HPDrainRate:4
CircleSize:4
OverallDifficulty:7
ApproachRate:5
SliderMultiplier:1.4
SliderTickRate:1

[Events]
//Background and Video events
0,0,"base_bg.png",0,0
//Break Periods
//Storyboard Layer 0 (Background)
//Storyboard Layer 1 (Fail)
//Storyboard Layer 2 (Pass)
//Storyboard Layer 3 (Foreground)
//Storyboard Sound Samples
//Background Colour Transformations
3,100,163,162,255

[TimingPoints]
593,333.3333,4,1,0,30,1,0
75259,-100,4,1,0,30,0,1
96592,-100,4,1,0,30,0,0

[HitObjects]
448,192,593,5,0,0:0:0:0:
192,192,593,1,0,0:0:0:0:
320,192,926,1,0,0:0:0:0:
448,192,1259,1,0,0:0:0:0:
320,192,1592,1,0,0:0:0:0:
192,192,1926,1,0,0:0:0:0:
320,192,2259,1,0,0:0:0:0:
64,192,2592,1,0,0:0:0:0:
320,192,2926,1,0,0:0:0:0:
192,192,3259,1,0,0:0:0:0:
448,192,3592,1,0,0:0:0:0:
320,192,3926,1,0,0:0:0:0:
192,192,4259,1,0,0:0:0:0:
320,192,4592,1,0,0:0:0:0:
64,192,4926,1,0,0:0:0:0:
320,192,5259,1,0,0:0:0:0:
192,192,5592,128,0,5926:0:0:0:0:
320,192,5926,1,0,0:0:0:0:
448,192,6259,1,0,0:0:0:0:
192,192,6592,1,0,0:0:0:0:
320,192,6926,1,0,0:0:0:0:
64,192,7259,1,0,0:0:0:0:
192,192,7592,1,0,0:0:0:0:
320,192,7926,1,0,0:0:0:0:
64,192,8259,1,0,0:0:0:0:
320,192,8592,1,0,0:0:0:0:
192,192,8926,1,0,0:0:0:0:
448,192,9259,1,0,0:0:0:0:
320,192,9592,1,0,0:0:0:0:
192,192,9926,128,0,11259:0:0:0:0:
64,192,11259,1,0,0:0:0:0:
320,192,11259,1,0,0:0:0:0:
320,192,11592,1,0,0:0:0:0:
320,192,11926,1,0,0:0:0:0:
192,192,12259,1,0,0:0:0:0:
192,192,12592,1,0,0:0:0:0:
320,192,12926,1,0,0:0:0:0:
448,192,13259,1,0,0:0:0:0:
448,192,13592,1,0,0:0:0:0:
64,192,13926,1,0,0:0:0:0:
192,192,14259,1,0,0:0:0:0:
192,192,14592,1,0,0:0:0:0:
320,192,14926,1,0,0:0:0:0:
64,192,15259,1,0,0:0:0:0:
64,192,15592,1,0,0:0:0:0:
448,192,15926,128,0,16259:0:0:0:0:
192,192,16259,128,0,16592:0:0:0:0:
320,192,16592,1,0,0:0:0:0:
64,192,16926,1,0,0:0:0:0:
448,192,17259,1,0,0:0:0:0:
448,192,17592,1,0,0:0:0:0:
320,192,17926,1,0,0:0:0:0:
192,192,18259,1,0,0:0:0:0:
192,192,18592,1,0,0:0:0:0:
448,192,18926,1,0,0:0:0:0:
448,192,19259,1,0,0:0:0:0:
192,192,19592,1,0,0:0:0:0:
320,192,19926,1,0,0:0:0:0:
64,192,20259,1,0,0:0:0:0:
192,192,20592,128,0,21259:0:0:0:0:
320,192,21259,128,0,21926:0:0:0:0:
448,192,21926,128,0,22259:0:0:0:0:
192,192,22259,128,0,22592:0:0:0:0:
320,192,22592,128,0,22926:0:0:0:0:
64,192,22926,128,0,23259:0:0:0:0:
192,192,23259,128,0,23592:0:0:0:0:
64,192,23592,128,0,23926:0:0:0:0:
192,192,23926,128,0,24259:0:0:0:0:
320,192,24259,128,0,24592:0:0:0:0:
192,192,24592,128,0,24926:0:0:0:0:
448,192,24926,128,0,25259:0:0:0:0:
320,192,25259,128,0,25592:0:0:0:0:
64,192,25592,128,0,25926:0:0:0:0:
320,192,25926,128,0,26259:0:0:0:0:
64,192,26259,128,0,26592:0:0:0:0:
192,192,26592,128,0,26926:0:0:0:0:
320,192,26926,128,0,27259:0:0:0:0:
64,192,27259,128,0,27592:0:0:0:0:
192,192,27592,128,0,27926:0:0:0:0:
448,192,27926,128,0,28259:0:0:0:0:
320,192,28259,128,0,28592:0:0:0:0:
448,192,28592,128,0,28926:0:0:0:0:
192,192,28926,128,0,29259:0:0:0:0:
320,192,29259,128,0,29592:0:0:0:0:
64,192,29592,128,0,29926:0:0:0:0:
448,192,29926,128,0,30259:0:0:0:0:
192,192,30259,128,0,30592:0:0:0:0:
320,192,30592,128,0,30926:0:0:0:0:
64,192,30926,128,0,31259:0:0:0:0:
448,192,31259,128,0,31592:0:0:0:0:
320,192,31592,128,0,31926:0:0:0:0:
192,192,31926,128,0,32259:0:0:0:0:
448,192,32259,128,0,32592:0:0:0:0:
320,192,32592,128,0,32926:0:0:0:0:
64,192,32592,1,0,0:0:0:0:
192,192,32926,128,0,33259:0:0:0:0:
320,192,33259,128,0,33592:0:0:0:0:
192,192,33592,128,0,33926:0:0:0:0:
64,192,33926,128,0,34259:0:0:0:0:
192,192,34259,128,0,34592:0:0:0:0:
320,192,34592,128,0,34926:0:0:0:0:
448,192,34926,128,0,35259:0:0:0:0:
320,192,35259,128,0,35592:0:0:0:0:
192,192,35592,128,0,35926:0:0:0:0:
448,192,35926,128,0,36259:0:0:0:0:
320,192,36259,128,0,36592:0:0:0:0:
64,192,36592,128,0,36926:0:0:0:0:
192,192,36926,128,0,37259:0:0:0:0:
448,192,37259,128,0,37592:0:0:0:0:
64,192,37259,128,0,37592:0:0:0:0:
320,192,37592,128,0,37926:0:0:0:0:
192,192,37592,128,0,37926:0:0:0:0:
64,192,37926,128,0,38259:0:0:0:0:
192,192,38259,128,0,38592:0:0:0:0:
320,192,38592,128,0,38926:0:0:0:0:
448,192,38926,128,0,39259:0:0:0:0:
64,192,39259,128,0,39592:0:0:0:0:
192,192,39592,128,0,39926:0:0:0:0:
320,192,39926,128,0,40259:0:0:0:0:
448,192,40259,128,0,40592:0:0:0:0:
320,192,40592,128,0,40926:0:0:0:0:
192,192,40926,128,0,41259:0:0:0:0:
64,192,41259,128,0,41592:0:0:0:0:
192,192,41592,128,0,41926:0:0:0:0:
320,192,41926,128,0,42259:0:0:0:0:
448,192,42259,128,0,42592:0:0:0:0:
320,192,42592,128,0,42926:0:0:0:0:
192,192,42926,128,0,43259:0:0:0:0:
320,192,43259,128,0,45926:0:0:0:0:
448,192,43259,1,0,0:0:0:0:
64,192,45926,128,0,47259:0:0:0:0:
192,192,47259,128,0,48592:0:0:0:0:
320,192,48592,128,0,51259:0:0:0:0:
64,192,51259,128,0,52592:0:0:0:0:
192,192,52592,128,0,53926:0:0:0:0:
448,192,53926,1,0,0:0:0:0:
448,192,54259,1,0,0:0:0:0:
448,192,54592,1,0,0:0:0:0:
448,192,54926,1,0,0:0:0:0:
320,192,55259,1,0,0:0:0:0:
320,192,55592,1,0,0:0:0:0:
320,192,55926,1,0,0:0:0:0:
320,192,56259,1,0,0:0:0:0:
192,192,56592,1,0,0:0:0:0:
192,192,56926,1,0,0:0:0:0:
192,192,57259,1,0,0:0:0:0:
192,192,57592,1,0,0:0:0:0:
64,192,57926,1,0,0:0:0:0:
64,192,58259,1,0,0:0:0:0:
64,192,58592,128,0,58926:0:0:0:0:
192,192,58926,128,0,59259:0:0:0:0:
320,192,59592,1,0,0:0:0:0:
192,192,59926,1,0,0:0:0:0:
192,192,60259,1,0,0:0:0:0:
320,192,60592,1,0,0:0:0:0:
320,192,60926,1,0,0:0:0:0:
192,192,61259,1,0,0:0:0:0:
192,192,61592,1,0,0:0:0:0:
64,192,61926,1,0,0:0:0:0:
64,192,62259,1,0,0:0:0:0:
192,192,62592,1,0,0:0:0:0:
192,192,62926,1,0,0:0:0:0:
320,192,63259,1,0,0:0:0:0:
320,192,63592,1,0,0:0:0:0:
448,192,63926,1,0,0:0:0:0:
448,192,64259,1,0,0:0:0:0:
64,192,64592,128,0,64926:0:0:0:0:
320,192,64592,1,0,0:0:0:0:
192,192,64926,1,0,0:0:0:0:
320,192,64926,128,0,65259:0:0:0:0:
448,192,65259,1,0,0:0:0:0:
192,192,65259,128,0,65592:0:0:0:0:
320,192,65592,1,0,0:0:0:0:
448,192,65592,128,0,65926:0:0:0:0:
320,192,65926,128,0,66259:0:0:0:0:
64,192,65926,1,0,0:0:0:0:
192,192,66259,128,0,66592:0:0:0:0:
448,192,66259,1,0,0:0:0:0:
64,192,66592,1,0,0:0:0:0:
320,192,66592,128,0,66926:0:0:0:0:
192,192,66926,128,0,67259:0:0:0:0:
448,192,66926,1,0,0:0:0:0:
448,192,67259,128,0,67592:0:0:0:0:
64,192,67259,1,0,0:0:0:0:
320,192,67592,128,0,67926:0:0:0:0:
192,192,67592,1,0,0:0:0:0:
64,192,67926,128,0,68259:0:0:0:0:
192,192,67926,1,0,0:0:0:0:
192,192,68259,128,0,68592:0:0:0:0:
320,192,68259,1,0,0:0:0:0:
448,192,68592,1,0,0:0:0:0:
320,192,68592,128,0,68926:0:0:0:0:
448,192,68926,128,0,69259:0:0:0:0:
192,192,68926,1,0,0:0:0:0:
192,192,69259,1,0,0:0:0:0:
64,192,69259,128,0,69592:0:0:0:0:
192,192,69592,128,0,69926:0:0:0:0:
448,192,69592,1,0,0:0:0:0:
448,192,69926,128,0,71259:0:0:0:0:
320,192,69926,1,0,0:0:0:0:
320,192,71259,128,0,72592:0:0:0:0:
64,192,72592,128,0,73259:0:0:0:0:
448,192,72592,128,0,73259:0:0:0:0:
192,192,73259,128,0,73926:0:0:0:0:
320,192,73259,128,0,73926:0:0:0:0:
64,192,73926,128,0,74592:0:0:0:0:
448,192,73926,128,0,74592:0:0:0:0:
64,192,74926,1,0,0:0:0:0:
192,192,74926,1,0,0:0:0:0:
192,192,75259,1,0,0:0:0:0:
320,192,75259,1,0,0:0:0:0:
64,192,75592,1,0,0:0:0:0:
192,192,75592,1,0,0:0:0:0:
320,192,75926,1,0,0:0:0:0:
448,192,75926,1,0,0:0:0:0:
448,192,76259,1,0,0:0:0:0:
320,192,76259,1,0,0:0:0:0:
64,192,76592,1,0,0:0:0:0:
320,192,76592,1,0,0:0:0:0:
192,192,76926,1,0,0:0:0:0:
448,192,76926,1,0,0:0:0:0:
320,192,77259,1,0,0:0:0:0:
192,192,77259,1,0,0:0:0:0:
320,192,77592,1,0,0:0:0:0:
448,192,77592,1,0,0:0:0:0:
320,192,77815,1,0,0:0:0:0:
192,192,77926,1,0,0:0:0:0:
64,192,77926,1,0,0:0:0:0:
320,192,78259,1,0,0:0:0:0:
448,192,78259,1,0,0:0:0:0:
192,192,78592,1,0,0:0:0:0:
320,192,78592,1,0,0:0:0:0:
320,192,78926,1,0,0:0:0:0:
448,192,78926,1,0,0:0:0:0:
192,192,79259,1,0,0:0:0:0:
320,192,79259,1,0,0:0:0:0:
64,192,79592,1,0,0:0:0:0:
192,192,79592,1,0,0:0:0:0:
320,192,79926,1,0,0:0:0:0:
448,192,79926,1,0,0:0:0:0:
320,192,80148,1,0,0:0:0:0:
448,192,80259,1,0,0:0:0:0:
64,192,80481,1,0,0:0:0:0:
448,192,80592,1,0,0:0:0:0:
192,192,80592,1,0,0:0:0:0:
320,192,80926,1,0,0:0:0:0:
64,192,80926,1,0,0:0:0:0:
64,192,81259,1,0,0:0:0:0:
192,192,81259,1,0,0:0:0:0:
320,192,81592,1,0,0:0:0:0:
448,192,81592,1,0,0:0:0:0:
192,192,81926,1,0,0:0:0:0:
320,192,81926,1,0,0:0:0:0:
64,192,82259,1,0,0:0:0:0:
192,192,82259,1,0,0:0:0:0:
192,192,82592,1,0,0:0:0:0:
320,192,82592,1,0,0:0:0:0:
64,192,82926,1,0,0:0:0:0:
192,192,82926,1,0,0:0:0:0:
192,192,83148,1,0,0:0:0:0:
320,192,83259,1,0,0:0:0:0:
448,192,83259,1,0,0:0:0:0:
192,192,83592,1,0,0:0:0:0:
320,192,83592,1,0,0:0:0:0:
320,192,83926,1,0,0:0:0:0:
448,192,83926,1,0,0:0:0:0:
320,192,84259,1,0,0:0:0:0:
448,192,84259,1,0,0:0:0:0:
64,192,84592,1,0,0:0:0:0:
448,192,84926,1,0,0:0:0:0:
64,192,85259,1,0,0:0:0:0:
192,192,85592,1,0,0:0:0:0:
320,192,85592,1,0,0:0:0:0:
64,192,85926,1,0,0:0:0:0:
448,192,85926,1,0,0:0:0:0:
64,192,86259,1,0,0:0:0:0:
448,192,86259,1,0,0:0:0:0:
64,192,86592,1,0,0:0:0:0:
448,192,86592,1,0,0:0:0:0:
192,192,86926,1,0,0:0:0:0:
320,192,86926,1,0,0:0:0:0:
64,192,87259,1,0,0:0:0:0:
320,192,87259,1,0,0:0:0:0:
192,192,87592,1,0,0:0:0:0:
448,192,87592,1,0,0:0:0:0:
320,192,87926,1,0,0:0:0:0:
64,192,87926,1,0,0:0:0:0:
192,192,88259,1,0,0:0:0:0:
448,192,88259,1,0,0:0:0:0:
448,192,88481,1,0,0:0:0:0:
64,192,88592,1,0,0:0:0:0:
320,192,88592,1,0,0:0:0:0:
448,192,88926,1,0,0:0:0:0:
320,192,88926,1,0,0:0:0:0:
192,192,89259,1,0,0:0:0:0:
448,192,89259,1,0,0:0:0:0:
320,192,89592,1,0,0:0:0:0:
64,192,89592,1,0,0:0:0:0:
192,192,89926,1,0,0:0:0:0:
448,192,89926,1,0,0:0:0:0:
64,192,90259,1,0,0:0:0:0:
320,192,90259,1,0,0:0:0:0:
192,192,90592,1,0,0:0:0:0:
448,192,90592,1,0,0:0:0:0:
64,192,90926,1,0,0:0:0:0:
192,192,91259,1,0,0:0:0:0:
448,192,91259,1,0,0:0:0:0:
320,192,91481,1,0,0:0:0:0:
192,192,91592,1,0,0:0:0:0:
64,192,91592,1,0,0:0:0:0:
320,192,91815,1,0,0:0:0:0:
192,192,91926,1,0,0:0:0:0:
64,192,91926,1,0,0:0:0:0:
320,192,92148,1,0,0:0:0:0:
64,192,92259,1,0,0:0:0:0:
192,192,92259,1,0,0:0:0:0:
192,192,92481,1,0,0:0:0:0:
320,192,92592,1,0,0:0:0:0:
448,192,92592,1,0,0:0:0:0:
192,192,92815,1,0,0:0:0:0:
320,192,92926,1,0,0:0:0:0:
448,192,92926,1,0,0:0:0:0:
192,192,93148,1,0,0:0:0:0:
320,192,93259,1,0,0:0:0:0:
448,192,93259,1,0,0:0:0:0:
320,192,93481,1,0,0:0:0:0:
64,192,93592,1,0,0:0:0:0:
192,192,93592,1,0,0:0:0:0:
320,192,93815,1,0,0:0:0:0:
448,192,93926,128,0,95259:0:0:0:0:
64,192,93926,128,0,95259:0:0:0:0:
320,192,94592,128,0,95259:0:0:0:0:
192,192,95259,128,0,95926:0:0:0:0:
320,192,95926,128,0,96592:0:0:0:0:
448,192,96592,128,0,99092:0:0:0:0:
64,192,96592,128,0,99092:0:0:0:0:
