osu file format v13

[General]
AudioFilename: Entrance by Ice.mp3
AudioLeadIn: 0
PreviewTime: 367883
Countdown: 0
SampleSet: None
StackLeniency: 0.7
Mode: 3
LetterboxInBreaks: 0
SpecialStyle: 0
WidescreenStoryboard: 0

[Editor]
Bookmarks: 1345,12011,22678,33344,44011,54678,65344,76011,86678,98011,111594,122260,132927,143593,154260,164927,175593,186260,196927,209593,213522,224188,234855,245521,256188,266855,277521,290855,301521,312188,318855,330550,341216,351883,365216,367883,381216,391883,402549,414549,425216,436716
DistanceSpacing: 0.8
BeatDivisor: 3
GridSize: 16
TimelineZoom: 1.6

[Metadata]
Title:Entrance (All Version)
TitleUnicode:Entrance (All Version)
Artist:Ice
ArtistUnicode:Ice
Creator:Eternalie
Version:7K Collab
Source:Cytus , Deemo
Tags:Piano Instrumental LordRaika HinagikuKatsura Remillion_Cross [Sakura]
BeatmapID:479745
BeatmapSetID:202072

[Difficulty]
HPDrainRate:7.7
CircleSize:7
OverallDifficulty:8
ApproachRate:5
SliderMultiplier:1.4
SliderTickRate:1

[Events]
//Background and Video events
0,0,"entrance.jpg",0,0
//Break Periods
2,98211,110394
2,319055,329350
//Storyboard Layer 0 (Background)
//Storyboard Layer 1 (Fail)
//Storyboard Layer 2 (Pass)
//Storyboard Layer 3 (Foreground)
//Storyboard Sound Samples

[TimingPoints]
1345,333.333333333333,4,1,0,16,1,0
44011,-100,4,1,0,16,0,1
44094,-100,4,1,0,16,0,0
65344,-100,4,1,0,16,0,1
65428,-100,4,1,0,16,0,0
76011,-100,4,1,0,16,0,1
97344,-100,4,1,0,16,0,0
111594,333.333333333333,4,1,0,16,1,0
122260,-100,4,1,0,16,0,1
122343,-100,4,1,0,16,0,0
175593,-100,4,1,0,16,0,1
196927,-100,4,1,0,16,0,0
213522,333.333333333333,4,1,0,16,1,0
224188,-100,4,1,0,16,0,1
224272,-100,4,1,0,16,0,0
266855,-100,4,1,0,16,0,1
266938,-100,4,1,0,16,0,0
290855,-100,4,1,0,16,0,1
317521,-100,4,1,0,16,0,0
330550,333.333333333333,4,1,0,16,1,0
351883,-100,4,1,0,16,0,1
351966,-100,4,1,0,16,0,0
367883,-100,4,1,0,16,0,1
367966,-100,4,1,0,16,0,0
414549,-100,4,1,0,16,0,1
435883,-100,4,1,0,16,0,0

[Colours]
Combo1 : 255,55,65
Combo2 : 140,210,255

[HitObjects]
109,192,1345,5,0,0:0:0:0:
329,192,1345,1,0,0:0:0:0:
256,192,1345,1,0,0:0:0:0:
475,192,1345,1,0,0:0:0:0:
402,192,1511,1,0,0:0:0:0:
36,192,1678,1,0,0:0:0:0:
182,192,1678,1,0,0:0:0:0:
402,192,1678,1,0,0:0:0:0:
109,192,1844,1,0,0:0:0:0:
109,192,2011,1,0,0:0:0:0:
329,192,2011,1,0,0:0:0:0:
475,192,2011,1,0,0:0:0:0:
402,192,2178,1,0,0:0:0:0:
182,192,2344,1,0,0:0:0:0:
402,192,2344,1,0,0:0:0:0:
36,192,2345,1,0,0:0:0:0:
109,192,2511,1,0,0:0:0:0:
109,192,2678,1,0,0:0:0:0:
329,192,2678,1,0,0:0:0:0:
475,192,2678,1,0,0:0:0:0:
402,192,2844,1,0,0:0:0:0:
36,192,3011,1,0,0:0:0:0:
182,192,3011,1,0,0:0:0:0:
402,192,3011,1,0,0:0:0:0:
109,192,3178,1,0,0:0:0:0:
109,192,3344,1,0,0:0:0:0:
329,192,3344,1,0,0:0:0:0:
475,192,3344,1,0,0:0:0:0:
402,192,3511,1,0,0:0:0:0:
36,192,3678,1,0,0:0:0:0:
182,192,3678,1,0,0:0:0:0:
402,192,3678,1,0,0:0:0:0:
109,192,3844,1,0,0:0:0:0:
109,192,4011,1,0,0:0:0:0:
329,192,4011,1,0,0:0:0:0:
475,192,4011,1,0,0:0:0:0:
402,192,4178,1,0,0:0:0:0:
182,192,4344,1,0,0:0:0:0:
402,192,4344,1,0,0:0:0:0:
36,192,4345,1,0,0:0:0:0:
109,192,4511,1,0,0:0:0:0:
256,192,4678,1,0,0:0:0:0:
109,192,4678,1,0,0:0:0:0:
475,192,4678,1,0,0:0:0:0:
182,192,4844,1,0,0:0:0:0:
475,192,5011,1,0,0:0:0:0:
182,192,5011,1,0,0:0:0:0:
329,192,5011,1,0,0:0:0:0:
109,192,5178,1,0,0:0:0:0:
109,192,5344,1,0,0:0:0:0:
256,192,5344,1,0,0:0:0:0:
402,192,5344,1,0,0:0:0:0:
36,192,5511,1,0,0:0:0:0:
36,192,5678,1,0,0:0:0:0:
182,192,5678,1,0,0:0:0:0:
329,192,5678,1,0,0:0:0:0:
256,192,5844,1,0,0:0:0:0:
109,192,6011,1,0,0:0:0:0:
256,192,6011,1,0,0:0:0:0:
475,192,6011,1,0,0:0:0:0:
402,192,6178,1,0,0:0:0:0:
109,192,6344,1,0,0:0:0:0:
402,192,6344,1,0,0:0:0:0:
256,192,6344,1,0,0:0:0:0:
36,192,6456,1,0,0:0:0:0:
329,192,6456,1,0,0:0:0:0:
402,192,6567,1,0,0:0:0:0:
109,192,6567,1,0,0:0:0:0:
475,192,6678,1,0,0:0:0:0:
182,192,6678,1,0,0:0:0:0:
329,192,6678,1,0,0:0:0:0:
402,192,6844,1,0,0:0:0:0:
109,192,7011,1,0,0:0:0:0:
256,192,7011,1,0,0:0:0:0:
402,192,7011,1,0,0:0:0:0:
329,192,7178,1,0,0:0:0:0:
36,192,7344,1,0,0:0:0:0:
182,192,7344,1,0,0:0:0:0:
329,192,7344,1,0,0:0:0:0:
402,192,7511,1,0,0:0:0:0:
109,192,7678,1,0,0:0:0:0:
256,192,7678,1,0,0:0:0:0:
402,192,7678,1,0,0:0:0:0:
475,192,7844,1,0,0:0:0:0:
182,192,8011,1,0,0:0:0:0:
329,192,8011,1,0,0:0:0:0:
475,192,8011,1,0,0:0:0:0:
402,192,8178,1,0,0:0:0:0:
256,192,8344,1,0,0:0:0:0:
402,192,8344,1,0,0:0:0:0:
109,192,8344,1,0,0:0:0:0:
329,192,8511,1,0,0:0:0:0:
36,192,8678,1,0,0:0:0:0:
329,192,8678,1,0,0:0:0:0:
475,192,8678,1,0,0:0:0:0:
182,192,8844,1,0,0:0:0:0:
36,192,9011,1,0,0:0:0:0:
182,192,9011,1,0,0:0:0:0:
475,192,9011,1,0,0:0:0:0:
329,192,9178,1,0,0:0:0:0:
36,192,9344,1,0,0:0:0:0:
329,192,9344,1,0,0:0:0:0:
475,192,9344,1,0,0:0:0:0:
182,192,9511,1,0,0:0:0:0:
36,192,9678,1,0,0:0:0:0:
182,192,9678,1,0,0:0:0:0:
475,192,9678,1,0,0:0:0:0:
329,192,9844,1,0,0:0:0:0:
36,192,10011,1,0,0:0:0:0:
329,192,10011,1,0,0:0:0:0:
475,192,10011,1,0,0:0:0:0:
182,192,10178,1,0,0:0:0:0:
36,192,10344,1,0,0:0:0:0:
182,192,10344,1,0,0:0:0:0:
475,192,10344,1,0,0:0:0:0:
182,192,10511,1,0,0:0:0:0:
182,192,10678,1,0,0:0:0:0:
182,192,10844,1,0,0:0:0:0:
182,192,11011,1,0,0:0:0:0:
182,192,11178,1,0,0:0:0:0:
329,192,11344,1,0,0:0:0:0:
182,192,11344,1,0,0:0:0:0:
109,192,11456,1,0,0:0:0:0:
402,192,11456,1,0,0:0:0:0:
36,192,11567,1,0,0:0:0:0:
475,192,11567,1,0,0:0:0:0:
402,192,11678,1,0,0:0:0:0:
109,192,11678,1,0,0:0:0:0:
329,192,11789,1,0,0:0:0:0:
182,192,11789,1,0,0:0:0:0:
402,192,11900,1,0,0:0:0:0:
109,192,11900,1,0,0:0:0:0:
256,192,12011,1,0,0:0:0:0:
475,192,12011,1,0,0:0:0:0:
36,192,12011,1,0,0:0:0:0:
182,192,12261,128,0,12511:0:0:0:0:
36,192,12344,1,0,0:0:0:0:
475,192,12344,1,0,0:0:0:0:
329,192,12511,128,0,12761:0:0:0:0:
475,192,12678,1,0,2:0:0:0:
36,192,12678,1,0,0:0:0:0:
256,192,12678,1,0,0:0:0:0:
475,192,12761,128,0,13011:0:0:0:0:
329,192,13011,128,0,13261:0:0:0:0:
256,192,13011,1,0,0:0:0:0:
36,192,13011,1,0,0:0:0:0:
182,192,13261,128,0,13511:0:0:0:0:
475,192,13344,1,0,0:0:0:0:
109,192,13344,1,0,0:0:0:0:
36,192,13678,1,0,0:0:0:0:
109,192,13678,1,0,0:0:0:0:
475,192,13678,1,0,0:0:0:0:
36,192,14011,1,0,0:0:0:0:
329,192,14011,1,0,0:0:0:0:
475,192,14012,1,0,2:0:0:0:
402,192,14344,1,0,0:0:0:0:
36,192,14345,1,0,0:0:0:0:
36,192,14678,128,0,14928:0:0:0:0:
256,192,14678,1,0,0:0:0:0:
475,192,14678,1,0,0:0:0:0:
182,192,14928,128,0,15178:0:0:0:0:
36,192,15011,1,0,0:0:0:0:
475,192,15011,1,0,0:0:0:0:
256,192,15011,1,0,0:0:0:0:
329,192,15178,128,0,15428:0:0:0:0:
182,192,15344,1,0,0:0:0:0:
36,192,15344,1,0,0:0:0:0:
475,192,15345,1,0,2:0:0:0:
475,192,15428,128,0,15678:0:0:0:0:
329,192,15678,128,0,15928:0:0:0:0:
36,192,15678,1,0,0:0:0:0:
182,192,15678,1,0,0:0:0:0:
182,192,15928,128,0,16178:0:0:0:0:
36,192,16011,1,0,0:0:0:0:
475,192,16011,1,0,0:0:0:0:
475,192,16344,1,0,0:0:0:0:
36,192,16344,1,0,0:0:0:0:
256,192,16678,128,0,17011:0:0:0:0:
36,192,16678,1,0,0:0:0:0:
475,192,16678,1,0,0:0:0:0:
109,192,17011,128,0,17344:0:0:0:0:
402,192,17011,128,0,17344:0:0:0:0:
475,192,17011,1,0,0:0:0:0:
36,192,17011,1,0,0:0:0:0:
256,192,17344,128,0,17594:0:0:0:0:
36,192,17344,1,0,0:0:0:0:
475,192,17344,1,0,0:0:0:0:
402,192,17594,128,0,17844:0:0:0:0:
36,192,17678,1,0,0:0:0:0:
329,192,17678,1,0,0:0:0:0:
182,192,17844,128,0,18094:0:0:0:0:
36,192,18011,1,0,0:0:0:0:
256,192,18011,1,0,0:0:0:0:
329,192,18094,128,0,18344:0:0:0:0:
182,192,18344,128,0,18594:0:0:0:0:
36,192,18344,1,0,0:0:0:0:
475,192,18344,1,0,0:0:0:0:
36,192,18594,128,0,18844:0:0:0:0:
475,192,18678,1,0,0:0:0:0:
182,192,18678,1,0,0:0:0:0:
402,192,18789,1,0,0:0:0:0:
329,192,18900,1,0,0:0:0:0:
402,192,19011,1,0,0:0:0:0:
109,192,19011,1,0,0:0:0:0:
329,192,19122,1,0,0:0:0:0:
256,192,19233,1,0,0:0:0:0:
329,192,19344,1,0,0:0:0:0:
36,192,19344,1,0,0:0:0:0:
256,192,19456,1,0,0:0:0:0:
182,192,19567,1,0,0:0:0:0:
256,192,19678,1,0,0:0:0:0:
475,192,19678,1,0,0:0:0:0:
182,192,19789,1,0,0:0:0:0:
109,192,19900,1,0,0:0:0:0:
36,192,20011,1,0,0:0:0:0:
475,192,20011,1,0,0:0:0:0:
329,192,20122,1,0,0:0:0:0:
182,192,20233,1,0,0:0:0:0:
402,192,20344,1,0,0:0:0:0:
36,192,20344,1,0,0:0:0:0:
256,192,20456,1,0,0:0:0:0:
109,192,20567,1,0,0:0:0:0:
329,192,20678,1,0,0:0:0:0:
475,192,20678,1,0,0:0:0:0:
182,192,20789,1,0,0:0:0:0:
36,192,20900,1,0,0:0:0:0:
256,192,21011,1,0,0:0:0:0:
402,192,21011,1,0,0:0:0:0:
109,192,21122,1,0,0:0:0:0:
256,192,21233,1,0,0:0:0:0:
36,192,21344,1,0,0:0:0:0:
475,192,21344,1,0,0:0:0:0:
402,192,21456,1,0,0:0:0:0:
329,192,21567,5,0,0:0:0:0:
36,192,21678,1,0,0:0:0:0:
402,192,21678,1,0,0:0:0:0:
329,192,21789,1,0,0:0:0:0:
256,192,21900,1,0,0:0:0:0:
475,192,22011,1,0,0:0:0:0:
109,192,22011,1,0,0:0:0:0:
182,192,22122,1,0,0:0:0:0:
256,192,22233,1,0,0:0:0:0:
475,192,22344,1,0,0:0:0:0:
182,192,22344,1,0,0:0:0:0:
256,192,22456,1,0,0:0:0:0:
329,192,22567,1,0,0:0:0:0:
109,192,22678,5,0,0:0:0:0:
36,192,22678,5,0,0:0:0:0:
402,192,22678,1,0,0:0:0:0:
475,192,22678,1,0,0:0:0:0:
475,192,22900,1,0,0:0:0:0:
36,192,23011,1,0,0:0:0:0:
256,192,23011,1,0,0:0:0:0:
329,192,23011,1,0,0:0:0:0:
109,192,23122,1,0,0:0:0:0:
475,192,23233,1,0,0:0:0:0:
256,192,23344,1,0,0:0:0:0:
329,192,23344,1,0,0:0:0:0:
402,192,23344,1,0,0:0:0:0:
182,192,23456,1,0,0:0:0:0:
36,192,23567,1,0,0:0:0:0:
256,192,23678,1,0,0:0:0:0:
329,192,23678,1,0,0:0:0:0:
182,192,23678,1,0,0:0:0:0:
256,192,24011,1,0,0:0:0:0:
329,192,24011,1,0,0:0:0:0:
109,192,24011,1,0,0:0:0:0:
475,192,24233,1,0,0:0:0:0:
256,192,24344,1,0,0:0:0:0:
329,192,24344,1,0,0:0:0:0:
36,192,24344,1,0,0:0:0:0:
182,192,24456,1,0,0:0:0:0:
109,192,24567,1,0,0:0:0:0:
256,192,24678,1,0,0:0:0:0:
475,192,24678,1,0,0:0:0:0:
182,192,24678,1,0,0:0:0:0:
402,192,24789,1,0,0:0:0:0:
36,192,24900,1,0,0:0:0:0:
256,192,25011,1,0,0:0:0:0:
475,192,25011,1,0,0:0:0:0:
109,192,25011,1,0,0:0:0:0:
256,192,25344,1,0,0:0:0:0:
329,192,25344,1,0,0:0:0:0:
36,192,25344,1,0,0:0:0:0:
182,192,25456,1,0,0:0:0:0:
109,192,25567,1,0,0:0:0:0:
256,192,25678,1,0,0:0:0:0:
402,192,25678,1,0,0:0:0:0:
182,192,25678,1,0,0:0:0:0:
36,192,25789,1,0,0:0:0:0:
475,192,25900,1,0,0:0:0:0:
256,192,26011,1,0,0:0:0:0:
109,192,26011,1,0,0:0:0:0:
329,192,26011,1,0,0:0:0:0:
402,192,26122,1,0,0:0:0:0:
182,192,26233,1,0,0:0:0:0:
256,192,26344,1,0,0:0:0:0:
475,192,26344,1,0,0:0:0:0:
109,192,26344,1,0,0:0:0:0:
329,192,26456,1,0,0:0:0:0:
109,192,26567,1,0,0:0:0:0:
256,192,26678,1,0,0:0:0:0:
182,192,26678,1,0,0:0:0:0:
402,192,26678,1,0,0:0:0:0:
36,192,26789,1,0,0:0:0:0:
402,192,26900,1,0,0:0:0:0:
256,192,27011,1,0,0:0:0:0:
109,192,27011,1,0,0:0:0:0:
329,192,27011,1,0,0:0:0:0:
475,192,27122,1,0,0:0:0:0:
109,192,27233,1,0,0:0:0:0:
256,192,27344,1,0,0:0:0:0:
182,192,27344,1,0,0:0:0:0:
402,192,27344,1,0,0:0:0:0:
329,192,27567,1,0,0:0:0:0:
256,192,27567,1,0,0:0:0:0:
109,192,27567,1,0,0:0:0:0:
256,192,27678,1,0,0:0:0:0:
329,192,27678,1,0,0:0:0:0:
109,192,27678,1,0,0:0:0:0:
182,192,27900,1,0,0:0:0:0:
402,192,27900,1,0,0:0:0:0:
256,192,27900,1,0,0:0:0:0:
182,192,28011,1,0,0:0:0:0:
256,192,28011,1,0,0:0:0:0:
402,192,28011,1,0,0:0:0:0:
329,192,28122,1,0,0:0:0:0:
109,192,28233,1,0,0:0:0:0:
402,192,28344,1,0,0:0:0:0:
256,192,28344,1,0,0:0:0:0:
36,192,28344,1,0,0:0:0:0:
182,192,28456,1,0,0:0:0:0:
329,192,28567,1,0,0:0:0:0:
256,192,28678,1,0,0:0:0:0:
402,192,28678,1,0,0:0:0:0:
36,192,28678,1,0,0:0:0:0:
109,192,28789,1,0,0:0:0:0:
329,192,28900,1,0,0:0:0:0:
475,192,29011,1,0,0:0:0:0:
402,192,29011,1,0,0:0:0:0:
109,192,29011,1,0,0:0:0:0:
256,192,29011,1,0,0:0:0:0:
329,192,29344,1,0,0:0:0:0:
256,192,29344,1,0,0:0:0:0:
36,192,29344,1,0,0:0:0:0:
182,192,29456,1,0,0:0:0:0:
402,192,29567,1,0,0:0:0:0:
256,192,29678,1,0,0:0:0:0:
109,192,29678,1,0,0:0:0:0:
475,192,29678,1,0,0:0:0:0:
402,192,29789,1,0,0:0:0:0:
182,192,29900,1,0,0:0:0:0:
256,192,30011,1,0,0:0:0:0:
329,192,30011,1,0,0:0:0:0:
36,192,30011,1,0,0:0:0:0:
182,192,30122,1,0,0:0:0:0:
109,192,30233,1,0,0:0:0:0:
475,192,30344,1,0,0:0:0:0:
329,192,30344,1,0,0:0:0:0:
256,192,30344,1,0,0:0:0:0:
109,192,30678,1,0,0:0:0:0:
256,192,30678,1,0,0:0:0:0:
329,192,30678,1,0,0:0:0:0:
475,192,30789,1,0,0:0:0:0:
182,192,30900,1,0,0:0:0:0:
402,192,31011,1,0,0:0:0:0:
256,192,31011,1,0,0:0:0:0:
36,192,31011,1,0,0:0:0:0:
109,192,31122,1,0,0:0:0:0:
329,192,31233,1,0,0:0:0:0:
256,192,31344,1,0,0:0:0:0:
182,192,31344,1,0,0:0:0:0:
402,192,31344,1,0,0:0:0:0:
109,192,31456,1,0,0:0:0:0:
329,192,31567,1,0,0:0:0:0:
256,192,31678,1,0,0:0:0:0:
36,192,31678,1,0,0:0:0:0:
475,192,31678,1,0,0:0:0:0:
256,192,32011,1,0,0:0:0:0:
182,192,32011,1,0,0:0:0:0:
402,192,32011,1,0,0:0:0:0:
329,192,32122,1,0,0:0:0:0:
109,192,32233,5,0,0:0:0:0:
402,192,32344,1,0,0:0:0:0:
256,192,32344,1,0,0:0:0:0:
36,192,32344,1,0,0:0:0:0:
182,192,32456,1,0,0:0:0:0:
475,192,32567,1,0,0:0:0:0:
329,192,32678,1,0,0:0:0:0:
256,192,32678,1,0,0:0:0:0:
109,192,32789,1,0,0:0:0:0:
36,192,32789,1,0,0:0:0:0:
329,192,32900,1,0,0:0:0:0:
402,192,32900,1,0,0:0:0:0:
182,192,33011,1,0,0:0:0:0:
109,192,33011,1,0,0:0:0:0:
475,192,33122,1,0,0:0:0:0:
402,192,33122,1,0,0:0:0:0:
36,192,33233,1,0,0:0:0:0:
329,192,33233,1,0,0:0:0:0:
109,192,33344,5,0,0:0:0:0:
402,192,33344,1,0,0:0:0:0:
256,192,33344,1,0,0:0:0:0:
329,192,33456,1,0,0:0:0:0:
36,192,33567,1,0,0:0:0:0:
402,192,33678,1,0,0:0:0:0:
182,192,33678,1,0,0:0:0:0:
475,192,33789,1,0,0:0:0:0:
402,192,33900,1,0,0:0:0:0:
329,192,34011,1,0,0:0:0:0:
182,192,34011,1,0,0:0:0:0:
36,192,34122,1,0,0:0:0:0:
256,192,34233,1,0,0:0:0:0:
475,192,34344,1,0,0:0:0:0:
182,192,34344,1,0,0:0:0:0:
109,192,34456,1,0,0:0:0:0:
36,192,34567,1,0,0:0:0:0:
329,192,34678,1,0,0:0:0:0:
109,192,34678,1,0,0:0:0:0:
475,192,34789,1,0,0:0:0:0:
182,192,34900,1,0,0:0:0:0:
36,192,35011,1,0,0:0:0:0:
329,192,35011,1,0,0:0:0:0:
256,192,35122,1,0,0:0:0:0:
402,192,35233,1,0,0:0:0:0:
109,192,35344,1,0,0:0:0:0:
475,192,35344,1,0,0:0:0:0:
329,192,35456,1,0,0:0:0:0:
182,192,35567,1,0,0:0:0:0:
475,192,35678,1,0,0:0:0:0:
109,192,35678,1,0,0:0:0:0:
36,192,35789,1,0,0:0:0:0:
329,192,35900,1,0,0:0:0:0:
109,192,36011,1,0,0:0:0:0:
402,192,36011,1,0,0:0:0:0:
475,192,36122,1,0,0:0:0:0:
329,192,36233,1,0,0:0:0:0:
182,192,36344,1,0,0:0:0:0:
475,192,36344,1,0,0:0:0:0:
36,192,36456,1,0,0:0:0:0:
256,192,36567,1,0,0:0:0:0:
475,192,36678,1,0,0:0:0:0:
109,192,36678,1,0,0:0:0:0:
329,192,36789,1,0,0:0:0:0:
182,192,36900,1,0,0:0:0:0:
36,192,37011,1,0,0:0:0:0:
475,192,37011,1,0,0:0:0:0:
182,192,37122,1,0,0:0:0:0:
402,192,37122,1,0,0:0:0:0:
329,192,37233,1,0,0:0:0:0:
475,192,37344,1,0,0:0:0:0:
36,192,37344,1,0,0:0:0:0:
256,192,37456,1,0,0:0:0:0:
109,192,37567,1,0,0:0:0:0:
182,192,37678,1,0,0:0:0:0:
402,192,37678,1,0,0:0:0:0:
475,192,37789,1,0,0:0:0:0:
329,192,37900,1,0,0:0:0:0:
36,192,38011,1,0,0:0:0:0:
256,192,38011,128,0,38344:0:0:0:0:
402,192,38122,1,0,0:0:0:0:
182,192,38233,1,0,0:0:0:0:
475,192,38344,128,0,38678:0:0:0:0:
109,192,38456,1,0,0:0:0:0:
329,192,38567,1,0,0:0:0:0:
36,192,38678,1,0,0:0:0:0:
256,192,38678,1,0,0:0:0:0:
402,192,38789,1,0,0:0:0:0:
182,192,38900,1,0,0:0:0:0:
329,192,39011,1,0,0:0:0:0:
475,192,39011,1,0,0:0:0:0:
109,192,39122,1,0,0:0:0:0:
256,192,39233,1,0,0:0:0:0:
402,192,39344,1,0,0:0:0:0:
36,192,39344,1,0,0:0:0:0:
182,192,39456,1,0,0:0:0:0:
475,192,39567,1,0,0:0:0:0:
36,192,39678,1,0,0:0:0:0:
329,192,39678,1,0,0:0:0:0:
256,192,39789,1,0,0:0:0:0:
402,192,39900,1,0,0:0:0:0:
109,192,40011,1,0,0:0:0:0:
475,192,40011,1,0,0:0:0:0:
329,192,40122,1,0,0:0:0:0:
36,192,40233,1,0,0:0:0:0:
402,192,40344,1,0,0:0:0:0:
256,192,40344,1,0,0:0:0:0:
182,192,40456,1,0,0:0:0:0:
475,192,40567,1,0,0:0:0:0:
329,192,40678,1,0,0:0:0:0:
36,192,40678,1,0,0:0:0:0:
109,192,40789,1,0,0:0:0:0:
256,192,40900,128,0,41011:0:0:0:0:
329,192,41011,128,0,41122:0:0:0:0:
402,192,41122,128,0,41233:0:0:0:0:
182,192,41233,128,0,41344:0:0:0:0:
329,192,41344,128,0,41456:0:0:0:0:
475,192,41456,128,0,41567:0:0:0:0:
109,192,41567,128,0,41678:0:0:0:0:
256,192,41678,128,0,41789:0:0:0:0:
402,192,41789,128,0,41900:0:0:0:0:
36,192,41900,128,0,42011:0:0:0:0:
256,192,42011,128,0,42122:0:0:0:0:
475,192,42122,128,0,42233:0:0:0:0:
182,192,42233,128,0,42344:0:0:0:0:
402,192,42344,128,0,42456:0:0:0:0:
109,192,42456,128,0,42567:0:0:0:0:
329,192,42567,128,0,42678:0:0:0:0:
36,192,42678,128,0,42789:0:0:0:0:
109,192,42789,128,0,42900:0:0:0:0:
182,192,42900,128,0,43011:0:0:0:0:
475,192,43011,128,0,43122:0:0:0:0:
402,192,43122,128,0,43233:0:0:0:0:
329,192,43233,128,0,43344:0:0:0:0:
182,192,43344,128,0,43456:0:0:0:0:
475,192,43456,128,0,43567:0:0:0:0:
109,192,43567,128,0,43678:0:0:0:0:
402,192,43678,128,0,43789:0:0:0:0:
36,192,43789,128,0,43900:0:0:0:0:
329,192,43900,128,0,44011:0:0:0:0:
475,192,44011,5,0,0:0:0:0:
182,192,44011,1,0,0:0:0:0:
109,192,44011,1,0,0:0:0:0:
402,192,44011,1,0,0:0:0:0:
36,192,44233,1,0,0:0:0:0:
182,192,44344,1,0,0:0:0:0:
475,192,44456,1,0,0:0:0:0:
329,192,44567,1,0,0:0:0:0:
256,192,44678,1,0,0:0:0:0:
109,192,44678,1,0,0:0:0:0:
36,192,44900,1,0,0:0:0:0:
182,192,45011,1,0,0:0:0:0:
475,192,45122,1,0,0:0:0:0:
329,192,45233,1,0,0:0:0:0:
256,192,45344,1,0,0:0:0:0:
36,192,45567,1,0,0:0:0:0:
109,192,45678,1,0,0:0:0:0:
182,192,45789,1,0,0:0:0:0:
256,192,45900,1,0,0:0:0:0:
475,192,46011,1,0,0:0:0:0:
402,192,46122,1,0,0:0:0:0:
329,192,46233,1,0,0:0:0:0:
402,192,46344,1,0,0:0:0:0:
182,192,46456,1,0,0:0:0:0:
109,192,46567,1,0,0:0:0:0:
36,192,46678,1,0,0:0:0:0:
109,192,46900,1,0,0:0:0:0:
182,192,47011,1,0,0:0:0:0:
256,192,47122,1,0,0:0:0:0:
182,192,47233,1,0,0:0:0:0:
256,192,47344,1,0,0:0:0:0:
402,192,47456,1,0,0:0:0:0:
329,192,47567,1,0,0:0:0:0:
182,192,47678,1,0,0:0:0:0:
475,192,47789,1,0,0:0:0:0:
256,192,47900,1,0,0:0:0:0:
36,192,48011,1,0,0:0:0:0:
36,192,48233,1,0,0:0:0:0:
182,192,48344,1,0,0:0:0:0:
329,192,48456,1,0,0:0:0:0:
475,192,48567,1,0,0:0:0:0:
109,192,48678,1,0,0:0:0:0:
329,192,48678,1,0,0:0:0:0:
256,192,48789,1,0,0:0:0:0:
109,192,48900,1,0,0:0:0:0:
329,192,48900,1,0,0:0:0:0:
402,192,49011,1,0,0:0:0:0:
109,192,49122,1,0,0:0:0:0:
475,192,49233,1,0,0:0:0:0:
256,192,49233,1,0,0:0:0:0:
36,192,49344,1,0,0:0:0:0:
109,192,49567,1,0,0:0:0:0:
182,192,49678,1,0,0:0:0:0:
402,192,49789,1,0,0:0:0:0:
329,192,49900,1,0,0:0:0:0:
36,192,50011,1,0,0:0:0:0:
109,192,50233,1,0,0:0:0:0:
256,192,50344,1,0,0:0:0:0:
402,192,50456,1,0,0:0:0:0:
329,192,50567,1,0,0:0:0:0:
109,192,50678,1,0,0:0:0:0:
36,192,50900,1,0,0:0:0:0:
182,192,51011,1,0,0:0:0:0:
329,192,51122,1,0,0:0:0:0:
475,192,51233,1,0,0:0:0:0:
402,192,51344,1,0,0:0:0:0:
475,192,51456,1,0,0:0:0:0:
181,192,51567,1,0,0:0:0:0:
475,192,51678,1,0,0:0:0:0:
256,192,51789,1,0,0:0:0:0:
475,192,51900,1,0,0:0:0:0:
36,192,52011,1,0,0:0:0:0:
109,192,52233,1,0,0:0:0:0:
182,192,52344,1,0,0:0:0:0:
109,192,52456,1,0,0:0:0:0:
402,192,52567,1,0,0:0:0:0:
329,192,52678,1,0,0:0:0:0:
475,192,52789,1,0,0:0:0:0:
402,192,52900,1,0,0:0:0:0:
329,192,53011,1,0,0:0:0:0:
256,192,53122,1,0,0:0:0:0:
182,192,53233,1,0,0:0:0:0:
36,192,53344,1,0,0:0:0:0:
109,192,53567,5,0,0:0:0:0:
182,192,53678,1,0,0:0:0:0:
475,192,53789,1,0,0:0:0:0:
402,192,53900,1,0,0:0:0:0:
36,192,54011,1,0,0:0:0:0:
475,192,54122,1,0,0:0:0:0:
36,192,54233,1,0,0:0:0:0:
402,192,54344,1,0,0:0:0:0:
256,192,54456,1,0,0:0:0:0:
36,192,54456,1,0,0:0:0:0:
109,192,54567,1,0,0:0:0:0:
36,192,54678,5,0,0:0:0:0:
182,192,54678,5,0,0:0:0:0:
475,192,54678,1,0,0:0:0:0:
329,192,54678,1,0,0:0:0:0:
329,192,55011,128,0,55122:0:0:0:0:
36,192,55011,1,0,0:0:0:0:
475,192,55122,128,0,55233:0:0:0:0:
256,192,55233,128,0,55344:0:0:0:0:
109,192,55344,128,0,55456:0:0:0:0:
402,192,55344,1,0,0:0:0:0:
256,192,55567,128,0,55678:0:0:0:0:
475,192,55678,128,0,55789:0:0:0:0:
36,192,55678,1,0,0:0:0:0:
329,192,55789,128,0,55900:0:0:0:0:
182,192,55900,128,0,56011:0:0:0:0:
36,192,56011,128,0,56122:0:0:0:0:
475,192,56011,1,0,0:0:0:0:
256,192,56233,128,0,56344:0:0:0:0:
36,192,56344,128,0,56456:0:0:0:0:
475,192,56344,1,0,0:0:0:0:
182,192,56456,128,0,56567:0:0:0:0:
329,192,56567,128,0,56678:0:0:0:0:
475,192,56678,128,0,56789:0:0:0:0:
36,192,56678,1,0,0:0:0:0:
402,192,56789,128,0,56900:0:0:0:0:
329,192,56900,128,0,57011:0:0:0:0:
402,192,57011,128,0,57122:0:0:0:0:
36,192,57011,1,0,0:0:0:0:
329,192,57122,128,0,57233:0:0:0:0:
256,192,57233,128,0,57344:0:0:0:0:
109,192,57344,1,0,0:0:0:0:
475,192,57678,128,0,57789:0:0:0:0:
109,192,57678,1,0,0:0:0:0:
329,192,57789,128,0,57900:0:0:0:0:
182,192,57900,128,0,58011:0:0:0:0:
36,192,58011,128,0,58122:0:0:0:0:
402,192,58011,1,0,0:0:0:0:
475,192,58122,128,0,58233:0:0:0:0:
329,192,58233,128,0,58344:0:0:0:0:
182,192,58344,128,0,58456:0:0:0:0:
109,192,58344,1,0,0:0:0:0:
402,192,58456,128,0,58567:0:0:0:0:
256,192,58567,128,0,58678:0:0:0:0:
109,192,58678,128,0,58789:0:0:0:0:
475,192,58678,1,0,0:0:0:0:
36,192,58900,128,0,59011:0:0:0:0:
109,192,59011,128,0,59122:0:0:0:0:
475,192,59011,1,0,0:0:0:0:
182,192,59122,128,0,59233:0:0:0:0:
329,192,59233,128,0,59344:0:0:0:0:
402,192,59344,128,0,59456:0:0:0:0:
36,192,59344,1,0,0:0:0:0:
475,192,59456,128,0,59567:0:0:0:0:
256,192,59567,128,0,59678:0:0:0:0:
109,192,59678,128,0,60011:0:0:0:0:
402,192,59678,1,0,0:0:0:0:
36,192,60011,1,0,0:0:0:0:
475,192,60011,1,0,0:0:0:0:
402,192,60122,1,0,0:0:0:0:
329,192,60233,1,0,0:0:0:0:
256,192,60344,1,0,0:0:0:0:
182,192,60344,1,0,0:0:0:0:
36,192,60456,1,0,0:0:0:0:
109,192,60567,1,0,0:0:0:0:
182,192,60678,1,0,0:0:0:0:
475,192,60678,1,0,0:0:0:0:
256,192,60789,1,0,0:0:0:0:
329,192,60900,1,0,0:0:0:0:
475,192,61011,1,0,0:0:0:0:
36,192,61011,1,0,0:0:0:0:
329,192,61122,1,0,0:0:0:0:
182,192,61233,1,0,0:0:0:0:
36,192,61344,1,0,0:0:0:0:
475,192,61344,1,0,0:0:0:0:
182,192,61567,1,0,0:0:0:0:
256,192,61678,1,0,0:0:0:0:
475,192,61678,1,0,0:0:0:0:
329,192,61789,1,0,0:0:0:0:
402,192,61900,1,0,0:0:0:0:
475,192,62011,1,0,0:0:0:0:
36,192,62011,1,0,0:0:0:0:
329,192,62122,1,0,0:0:0:0:
182,192,62233,1,0,0:0:0:0:
402,192,62344,1,0,0:0:0:0:
36,192,62344,1,0,0:0:0:0:
256,192,62456,1,0,0:0:0:0:
109,192,62567,1,0,0:0:0:0:
36,192,62678,1,0,0:0:0:0:
475,192,62678,1,0,0:0:0:0:
256,192,63011,128,0,63122:0:0:0:0:
475,192,63011,1,0,0:0:0:0:
182,192,63122,128,0,63233:0:0:0:0:
109,192,63233,128,0,63344:0:0:0:0:
36,192,63344,128,0,63456:0:0:0:0:
329,192,63344,1,0,0:0:0:0:
475,192,63456,128,0,63567:0:0:0:0:
402,192,63567,128,0,63678:0:0:0:0:
329,192,63678,128,0,63789:0:0:0:0:
109,192,63678,1,0,0:0:0:0:
256,192,63789,128,0,63900:0:0:0:0:
182,192,63900,128,0,64011:0:0:0:0:
109,192,64011,128,0,64122:0:0:0:0:
475,192,64011,1,0,0:0:0:0:
402,192,64122,1,0,0:0:0:0:
36,192,64233,128,0,64344:0:0:0:0:
329,192,64233,1,0,0:0:0:0:
109,192,64344,128,0,64456:0:0:0:0:
256,192,64344,1,0,0:0:0:0:
182,192,64456,128,0,64567:0:0:0:0:
402,192,64456,1,0,0:0:0:0:
329,192,64567,128,0,64678:0:0:0:0:
36,192,64567,1,0,0:0:0:0:
475,192,64678,128,0,64789:0:0:0:0:
109,192,64678,1,0,0:0:0:0:
402,192,64789,128,0,64900:0:0:0:0:
36,192,64789,1,0,0:0:0:0:
256,192,64900,128,0,65011:0:0:0:0:
329,192,64900,1,0,0:0:0:0:
182,192,65011,128,0,65122:0:0:0:0:
475,192,65011,1,0,0:0:0:0:
329,192,65122,128,0,65233:0:0:0:0:
109,192,65122,1,0,0:0:0:0:
402,192,65233,128,0,65344:0:0:0:0:
256,192,65233,1,0,0:0:0:0:
182,192,65344,5,0,0:0:0:0:
109,192,65344,1,0,0:0:0:0:
36,192,65344,1,0,0:0:0:0:
475,192,65344,1,0,0:0:0:0:
402,192,65456,1,0,0:0:0:0:
182,192,65567,1,0,0:0:0:0:
329,192,65567,1,0,0:0:0:0:
109,192,65678,1,0,0:0:0:0:
256,192,65678,1,0,0:0:0:0:
475,192,65678,1,0,0:0:0:0:
329,192,65789,1,0,0:0:0:0:
36,192,65789,1,0,0:0:0:0:
475,192,65900,1,0,0:0:0:0:
182,192,66011,1,0,0:0:0:0:
109,192,66011,1,0,0:0:0:0:
329,192,66011,1,0,0:0:0:0:
36,192,66122,1,0,0:0:0:0:
402,192,66122,1,0,0:0:0:0:
256,192,66233,1,0,0:0:0:0:
475,192,66233,1,0,0:0:0:0:
402,192,66344,1,0,0:0:0:0:
329,192,66344,1,0,0:0:0:0:
109,192,66344,1,0,0:0:0:0:
109,192,66567,1,0,0:0:0:0:
329,192,66567,1,0,0:0:0:0:
402,192,66567,1,0,0:0:0:0:
109,192,66678,1,0,0:0:0:0:
329,192,66678,1,0,0:0:0:0:
402,192,66678,1,0,0:0:0:0:
256,192,66789,1,0,0:0:0:0:
109,192,66900,1,0,0:0:0:0:
475,192,66900,1,0,0:0:0:0:
182,192,67011,1,0,0:0:0:0:
402,192,67011,1,0,0:0:0:0:
256,192,67011,1,0,0:0:0:0:
329,192,67122,1,0,0:0:0:0:
36,192,67233,1,0,0:0:0:0:
402,192,67233,1,0,0:0:0:0:
256,192,67344,1,0,0:0:0:0:
182,192,67344,1,0,0:0:0:0:
475,192,67344,1,0,0:0:0:0:
109,192,67456,1,0,0:0:0:0:
402,192,67456,1,0,0:0:0:0:
36,192,67567,1,0,0:0:0:0:
329,192,67567,1,0,0:0:0:0:
109,192,67678,1,0,0:0:0:0:
256,192,67678,1,0,0:0:0:0:
402,192,67678,1,0,0:0:0:0:
109,192,67789,1,0,0:0:0:0:
256,192,67789,1,0,0:0:0:0:
402,192,67789,1,0,0:0:0:0:
109,192,67900,1,0,0:0:0:0:
256,192,67900,1,0,0:0:0:0:
402,192,67900,1,0,0:0:0:0:
109,192,68011,1,0,0:0:0:0:
256,192,68011,1,0,0:0:0:0:
402,192,68011,1,0,0:0:0:0:
475,192,68233,1,0,0:0:0:0:
402,192,68233,1,0,0:0:0:0:
109,192,68233,1,0,0:0:0:0:
36,192,68233,1,0,0:0:0:0:
329,192,68344,1,0,0:0:0:0:
182,192,68344,1,0,0:0:0:0:
109,192,68567,1,0,0:0:0:0:
36,192,68567,1,0,0:0:0:0:
475,192,68567,1,0,0:0:0:0:
402,192,68567,1,0,0:0:0:0:
182,192,68678,1,0,0:0:0:0:
329,192,68678,1,0,0:0:0:0:
256,192,68678,1,0,0:0:0:0:
109,192,68900,1,0,0:0:0:0:
36,192,68900,1,0,0:0:0:0:
475,192,68900,1,0,0:0:0:0:
402,192,68900,1,0,0:0:0:0:
182,192,69011,1,0,0:0:0:0:
329,192,69011,1,0,0:0:0:0:
109,192,69233,1,0,0:0:0:0:
36,192,69233,1,0,0:0:0:0:
402,192,69233,1,0,0:0:0:0:
475,192,69233,1,0,0:0:0:0:
182,192,69344,1,0,0:0:0:0:
256,192,69344,1,0,0:0:0:0:
329,192,69344,1,0,0:0:0:0:
109,192,69567,1,0,0:0:0:0:
36,192,69567,1,0,0:0:0:0:
475,192,69567,1,0,0:0:0:0:
402,192,69567,1,0,0:0:0:0:
182,192,69678,1,0,0:0:0:0:
329,192,69678,1,0,0:0:0:0:
109,192,69900,1,0,0:0:0:0:
36,192,69900,1,0,0:0:0:0:
402,192,69900,1,0,0:0:0:0:
475,192,69900,1,0,0:0:0:0:
182,192,70011,1,0,0:0:0:0:
256,192,70011,1,0,0:0:0:0:
329,192,70011,1,0,0:0:0:0:
475,192,70233,1,0,0:0:0:0:
402,192,70233,1,0,0:0:0:0:
109,192,70233,1,0,0:0:0:0:
36,192,70233,1,0,0:0:0:0:
329,192,70344,1,0,0:0:0:0:
182,192,70344,1,0,0:0:0:0:
36,192,70567,1,0,0:0:0:0:
402,192,70567,1,0,0:0:0:0:
475,192,70567,1,0,0:0:0:0:
109,192,70567,1,0,0:0:0:0:
182,192,70678,1,0,0:0:0:0:
256,192,70678,1,0,0:0:0:0:
402,192,70789,1,0,0:0:0:0:
329,192,70789,1,0,0:0:0:0:
402,192,70900,1,0,0:0:0:0:
329,192,70900,1,0,0:0:0:0:
182,192,71011,1,0,0:0:0:0:
109,192,71011,1,0,0:0:0:0:
36,192,71011,1,0,0:0:0:0:
329,192,71122,1,0,0:0:0:0:
475,192,71122,1,0,0:0:0:0:
475,192,71233,1,0,0:0:0:0:
329,192,71233,1,0,0:0:0:0:
182,192,71344,1,0,0:0:0:0:
109,192,71344,1,0,0:0:0:0:
36,192,71344,1,0,0:0:0:0:
475,192,71456,1,0,0:0:0:0:
402,192,71456,1,0,0:0:0:0:
475,192,71567,1,0,0:0:0:0:
402,192,71567,1,0,0:0:0:0:
182,192,71678,1,0,0:0:0:0:
109,192,71678,1,0,0:0:0:0:
36,192,71678,1,0,0:0:0:0:
475,192,71789,1,0,0:0:0:0:
329,192,71789,1,0,0:0:0:0:
475,192,71900,1,0,0:0:0:0:
329,192,71900,1,0,0:0:0:0:
182,192,72011,1,0,0:0:0:0:
109,192,72011,1,0,0:0:0:0:
36,192,72011,1,0,0:0:0:0:
402,192,72122,1,0,0:0:0:0:
329,192,72122,1,0,0:0:0:0:
402,192,72233,1,0,0:0:0:0:
329,192,72233,1,0,0:0:0:0:
182,192,72344,1,0,0:0:0:0:
109,192,72344,1,0,0:0:0:0:
36,192,72344,1,0,0:0:0:0:
475,192,72456,1,0,0:0:0:0:
329,192,72456,1,0,0:0:0:0:
329,192,72567,1,0,0:0:0:0:
475,192,72567,1,0,0:0:0:0:
182,192,72678,1,0,0:0:0:0:
109,192,72678,1,0,0:0:0:0:
36,192,72678,1,0,0:0:0:0:
475,192,72789,1,0,0:0:0:0:
402,192,72789,1,0,0:0:0:0:
475,192,72900,1,0,0:0:0:0:
402,192,72900,1,0,0:0:0:0:
182,192,73011,1,0,0:0:0:0:
109,192,73011,1,0,0:0:0:0:
36,192,73011,1,0,0:0:0:0:
475,192,73122,1,0,0:0:0:0:
329,192,73122,1,0,0:0:0:0:
475,192,73233,1,0,0:0:0:0:
329,192,73233,1,0,0:0:0:0:
256,192,73344,1,0,0:0:0:0:
36,192,73344,1,0,0:0:0:0:
109,192,73400,1,0,0:0:0:0:
182,192,73456,1,0,0:0:0:0:
475,192,73511,1,0,0:0:0:0:
402,192,73567,1,0,0:0:0:0:
329,192,73622,1,0,0:0:0:0:
36,192,73678,1,0,0:0:0:0:
109,192,73733,1,0,0:0:0:0:
182,192,73789,1,0,0:0:0:0:
475,192,73844,1,0,0:0:0:0:
402,192,73900,1,0,0:0:0:0:
329,192,73956,1,0,0:0:0:0:
36,192,74011,1,0,0:0:0:0:
109,192,74066,1,0,0:0:0:0:
182,192,74122,1,0,0:0:0:0:
475,192,74177,1,0,0:0:0:0:
402,192,74233,1,0,0:0:0:0:
329,192,74289,1,0,0:0:0:0:
36,192,74344,1,0,0:0:0:0:
109,192,74399,1,0,0:0:0:0:
182,192,74455,1,0,0:0:0:0:
475,192,74510,1,0,0:0:0:0:
402,192,74566,1,0,0:0:0:0:
329,192,74622,1,0,0:0:0:0:
36,192,74678,1,0,0:0:0:0:
109,192,74733,1,0,0:0:0:0:
182,192,74789,1,0,0:0:0:0:
475,192,74844,5,0,0:0:0:0:
402,192,74900,1,0,0:0:0:0:
329,192,74956,1,0,0:0:0:0:
36,192,75011,1,0,0:0:0:0:
109,192,75067,1,0,0:0:0:0:
182,192,75122,1,0,0:0:0:0:
475,192,75178,1,0,0:0:0:0:
402,192,75233,1,0,0:0:0:0:
329,192,75289,1,0,0:0:0:0:
256,192,75344,128,0,76011:0:0:0:0:
329,192,76011,5,0,0:0:0:0:
402,192,76011,1,0,0:0:0:0:
109,192,76011,1,0,0:0:0:0:
256,192,76122,1,0,0:0:0:0:
36,192,76233,1,0,0:0:0:0:
475,192,76344,1,0,0:0:0:0:
109,192,76344,1,0,0:0:0:0:
182,192,76456,1,0,0:0:0:0:
402,192,76567,1,0,0:0:0:0:
109,192,76678,1,0,0:0:0:0:
256,192,76678,1,0,0:0:0:0:
475,192,76789,1,0,0:0:0:0:
182,192,76900,1,0,0:0:0:0:
329,192,77011,1,0,0:0:0:0:
36,192,77011,1,0,0:0:0:0:
475,192,77122,1,0,0:0:0:0:
329,192,77233,1,0,0:0:0:0:
182,192,77344,1,0,0:0:0:0:
475,192,77344,1,0,0:0:0:0:
36,192,77456,1,0,0:0:0:0:
109,192,77567,1,0,0:0:0:0:
182,192,77678,1,0,0:0:0:0:
402,192,77678,1,0,0:0:0:0:
109,192,77789,1,0,0:0:0:0:
182,192,77900,1,0,0:0:0:0:
256,192,78011,1,0,0:0:0:0:
36,192,78011,1,0,0:0:0:0:
329,192,78122,1,0,0:0:0:0:
256,192,78233,1,0,0:0:0:0:
182,192,78344,1,0,0:0:0:0:
402,192,78344,1,0,0:0:0:0:
109,192,78456,1,0,0:0:0:0:
329,192,78567,1,0,0:0:0:0:
402,192,78678,1,0,0:0:0:0:
182,192,78678,1,0,0:0:0:0:
475,192,78789,1,0,0:0:0:0:
36,192,78900,1,0,0:0:0:0:
182,192,79011,1,0,0:0:0:0:
256,192,79011,1,0,0:0:0:0:
329,192,79122,1,0,0:0:0:0:
402,192,79233,1,0,0:0:0:0:
182,192,79344,1,0,0:0:0:0:
109,192,79344,1,0,0:0:0:0:
256,192,79456,1,0,0:0:0:0:
329,192,79567,1,0,0:0:0:0:
109,192,79678,1,0,0:0:0:0:
36,192,79678,1,0,0:0:0:0:
182,192,79789,1,0,0:0:0:0:
256,192,79900,1,0,0:0:0:0:
36,192,80011,1,0,0:0:0:0:
402,192,80011,1,0,0:0:0:0:
182,192,80122,1,0,0:0:0:0:
329,192,80233,1,0,0:0:0:0:
475,192,80344,1,0,0:0:0:0:
109,192,80344,1,0,0:0:0:0:
329,192,80456,1,0,0:0:0:0:
182,192,80567,1,0,0:0:0:0:
36,192,80678,1,0,0:0:0:0:
402,192,80678,1,0,0:0:0:0:
475,192,80789,1,0,0:0:0:0:
256,192,80900,1,0,0:0:0:0:
329,192,81011,1,0,0:0:0:0:
402,192,81011,1,0,0:0:0:0:
109,192,81122,1,0,0:0:0:0:
182,192,81233,1,0,0:0:0:0:
256,192,81344,1,0,0:0:0:0:
329,192,81344,1,0,0:0:0:0:
475,192,81344,1,0,0:0:0:0:
402,192,81456,1,0,0:0:0:0:
329,192,81567,1,0,0:0:0:0:
256,192,81678,1,0,0:0:0:0:
36,192,81678,1,0,0:0:0:0:
109,192,81789,1,0,0:0:0:0:
182,192,81900,1,0,0:0:0:0:
256,192,82011,1,0,0:0:0:0:
475,192,82011,1,0,0:0:0:0:
109,192,82122,1,0,0:0:0:0:
402,192,82233,1,0,0:0:0:0:
36,192,82344,1,0,0:0:0:0:
182,192,82344,1,0,0:0:0:0:
329,192,82456,1,0,0:0:0:0:
109,192,82567,1,0,0:0:0:0:
256,192,82678,1,0,0:0:0:0:
475,192,82678,1,0,0:0:0:0:
402,192,82789,1,0,0:0:0:0:
182,192,82900,1,0,0:0:0:0:
36,192,83011,1,0,0:0:0:0:
329,192,83011,1,0,0:0:0:0:
109,192,83122,1,0,0:0:0:0:
402,192,83233,1,0,0:0:0:0:
182,192,83344,1,0,0:0:0:0:
475,192,83344,1,0,0:0:0:0:
109,192,83456,1,0,0:0:0:0:
36,192,83567,1,0,0:0:0:0:
329,192,83678,1,0,0:0:0:0:
182,192,83678,1,0,0:0:0:0:
402,192,83789,1,0,0:0:0:0:
475,192,83900,1,0,0:0:0:0:
109,192,84011,1,0,0:0:0:0:
256,192,84011,1,0,0:0:0:0:
329,192,84122,1,0,0:0:0:0:
182,192,84233,1,0,0:0:0:0:
256,192,84344,1,0,0:0:0:0:
402,192,84344,1,0,0:0:0:0:
329,192,84456,1,0,0:0:0:0:
182,192,84567,1,0,0:0:0:0:
256,192,84678,1,0,0:0:0:0:
109,192,84678,1,0,0:0:0:0:
329,192,84789,1,0,0:0:0:0:
182,192,84900,1,0,0:0:0:0:
256,192,85011,1,0,0:0:0:0:
475,192,85011,1,0,0:0:0:0:
402,192,85122,1,0,0:0:0:0:
109,192,85233,1,0,0:0:0:0:
256,192,85344,1,0,0:0:0:0:
36,192,85344,1,0,0:0:0:0:
329,192,85456,1,0,0:0:0:0:
182,192,85567,5,0,0:0:0:0:
402,192,85678,1,0,0:0:0:0:
475,192,85678,1,0,0:0:0:0:
109,192,85789,1,0,0:0:0:0:
329,192,85900,1,0,0:0:0:0:
36,192,86011,1,0,0:0:0:0:
182,192,86011,1,0,0:0:0:0:
256,192,86011,128,0,86344:0:0:0:0:
109,192,86122,1,0,0:0:0:0:
36,192,86233,1,0,0:0:0:0:
329,192,86344,128,0,86678:0:0:0:0:
182,192,86344,1,0,0:0:0:0:
109,192,86456,1,0,0:0:0:0:
475,192,86567,1,0,0:0:0:0:
182,192,86678,5,0,0:0:0:0:
402,192,86678,1,0,0:0:0:0:
36,192,86900,1,0,0:0:0:0:
256,192,87011,1,0,0:0:0:0:
109,192,87011,1,0,0:0:0:0:
475,192,87122,1,0,0:0:0:0:
402,192,87233,1,0,0:0:0:0:
256,192,87344,1,0,0:0:0:0:
109,192,87344,1,0,0:0:0:0:
36,192,87567,1,0,0:0:0:0:
256,192,87678,1,0,0:0:0:0:
475,192,87678,1,0,0:0:0:0:
402,192,87789,1,0,0:0:0:0:
329,192,87900,1,0,0:0:0:0:
109,192,88011,1,0,0:0:0:0:
256,192,88011,1,0,0:0:0:0:
475,192,88233,1,0,0:0:0:0:
109,192,88344,1,0,0:0:0:0:
36,192,88456,1,0,0:0:0:0:
402,192,88567,1,0,0:0:0:0:
109,192,88678,1,0,0:0:0:0:
329,192,88678,1,0,0:0:0:0:
475,192,88789,1,0,0:0:0:0:
256,192,88900,1,0,0:0:0:0:
109,192,89011,1,0,0:0:0:0:
182,192,89011,1,0,0:0:0:0:
36,192,89122,1,0,0:0:0:0:
475,192,89233,1,0,0:0:0:0:
329,192,89344,1,0,0:0:0:0:
182,192,89344,1,0,0:0:0:0:
36,192,89456,1,0,0:0:0:0:
182,192,89567,1,0,0:0:0:0:
329,192,89678,1,0,0:0:0:0:
36,192,89678,1,0,0:0:0:0:
475,192,89789,1,0,0:0:0:0:
182,192,89900,1,0,0:0:0:0:
329,192,90011,1,0,0:0:0:0:
109,192,90011,1,0,0:0:0:0:
475,192,90122,1,0,0:0:0:0:
402,192,90233,1,0,0:0:0:0:
329,192,90344,1,0,0:0:0:0:
182,192,90344,1,0,0:0:0:0:
256,192,90456,1,0,0:0:0:0:
182,192,90567,1,0,0:0:0:0:
475,192,90678,1,0,0:0:0:0:
36,192,90678,1,0,0:0:0:0:
256,192,90678,1,0,0:0:0:0:
182,192,90789,1,0,0:0:0:0:
256,192,90900,1,0,0:0:0:0:
475,192,91011,1,0,0:0:0:0:
109,192,91011,1,0,0:0:0:0:
182,192,91122,1,0,0:0:0:0:
329,192,91233,1,0,0:0:0:0:
475,192,91344,1,0,0:0:0:0:
36,192,91344,1,0,0:0:0:0:
329,192,91567,1,0,0:0:0:0:
475,192,91678,1,0,0:0:0:0:
109,192,91678,1,0,0:0:0:0:
329,192,91789,1,0,0:0:0:0:
475,192,91900,1,0,0:0:0:0:
182,192,92011,1,0,0:0:0:0:
329,192,92011,1,0,0:0:0:0:
36,192,92122,1,0,0:0:0:0:
475,192,92233,1,0,0:0:0:0:
109,192,92344,1,0,0:0:0:0:
402,192,92344,1,0,0:0:0:0:
329,192,92456,1,0,0:0:0:0:
182,192,92567,1,0,0:0:0:0:
36,192,92678,1,0,0:0:0:0:
475,192,92678,1,0,0:0:0:0:
109,192,92789,1,0,0:0:0:0:
402,192,92900,1,0,0:0:0:0:
182,192,93011,1,0,0:0:0:0:
329,192,93011,1,0,0:0:0:0:
475,192,93122,1,0,0:0:0:0:
256,192,93233,1,0,0:0:0:0:
36,192,93344,1,0,0:0:0:0:
109,192,93344,1,0,0:0:0:0:
182,192,93456,1,0,0:0:0:0:
329,192,93567,1,0,0:0:0:0:
402,192,93678,1,0,0:0:0:0:
475,192,93678,1,0,0:0:0:0:
329,192,93789,1,0,0:0:0:0:
256,192,93900,1,0,0:0:0:0:
109,192,94011,1,0,0:0:0:0:
182,192,94011,1,0,0:0:0:0:
36,192,94122,1,0,0:0:0:0:
182,192,94233,1,0,0:0:0:0:
329,192,94344,1,0,0:0:0:0:
402,192,94344,1,0,0:0:0:0:
475,192,94456,1,0,0:0:0:0:
256,192,94567,1,0,0:0:0:0:
402,192,94678,1,0,0:0:0:0:
475,192,94678,1,0,0:0:0:0:
109,192,94678,1,0,0:0:0:0:
329,192,94789,1,0,0:0:0:0:
36,192,94789,1,0,0:0:0:0:
256,192,94900,1,0,0:0:0:0:
475,192,94900,1,0,0:0:0:0:
182,192,95011,1,0,0:0:0:0:
402,192,95011,1,0,0:0:0:0:
329,192,95122,1,0,0:0:0:0:
109,192,95122,1,0,0:0:0:0:
256,192,95233,1,0,0:0:0:0:
36,192,95233,1,0,0:0:0:0:
182,192,95344,1,0,0:0:0:0:
402,192,95344,1,0,0:0:0:0:
256,192,95456,1,0,0:0:0:0:
475,192,95456,1,0,0:0:0:0:
329,192,95567,1,0,0:0:0:0:
36,192,95567,1,0,0:0:0:0:
402,192,95678,1,0,0:0:0:0:
109,192,95678,1,0,0:0:0:0:
475,192,95789,1,0,0:0:0:0:
182,192,95789,1,0,0:0:0:0:
256,192,95900,1,0,0:0:0:0:
36,192,96011,1,0,0:0:0:0:
109,192,96011,1,0,0:0:0:0:
329,192,96011,1,0,0:0:0:0:
402,192,96122,1,0,0:0:0:0:
182,192,96122,1,0,0:0:0:0:
475,192,96233,5,0,0:0:0:0:
256,192,96233,1,0,0:0:0:0:
402,192,96344,1,0,0:0:0:0:
182,192,96344,1,0,0:0:0:0:
329,192,96456,1,0,0:0:0:0:
109,192,96456,1,0,0:0:0:0:
36,192,96567,1,0,0:0:0:0:
402,192,96567,1,0,0:0:0:0:
256,192,96678,128,0,97344:0:0:0:0:
109,192,96678,1,0,0:0:0:0:
475,192,96678,1,0,0:0:0:0:
182,192,96789,1,0,0:0:0:0:
329,192,96900,1,0,0:0:0:0:
402,192,97011,1,0,0:0:0:0:
329,192,97122,1,0,0:0:0:0:
182,192,97122,1,0,0:0:0:0:
109,192,97233,1,0,0:0:0:0:
402,192,97233,1,0,0:0:0:0:
36,192,97344,5,0,0:0:0:0:
475,192,97344,1,0,0:0:0:0:
256,192,97678,1,0,2:0:0:0:
36,192,98011,1,0,0:0:0:0:
475,192,98011,1,0,2:0:0:0:
109,192,111594,5,0,0:0:0:0:
109,192,111927,1,0,0:0:0:0:
256,192,112038,1,0,0:0:0:0:
402,192,112149,1,0,0:0:0:0:
256,192,112260,1,0,0:0:0:0:
182,192,112594,1,0,0:0:0:0:
36,192,112927,1,0,0:0:0:0:
36,192,114260,1,0,0:0:0:0:
36,192,114594,1,0,0:0:0:0:
182,192,114705,1,0,0:0:0:0:
329,192,114816,1,0,0:0:0:0:
475,192,114927,1,0,0:0:0:0:
256,192,115260,1,0,0:0:0:0:
402,192,115594,1,0,0:0:0:0:
109,192,115594,1,0,0:0:0:0:
36,192,116927,1,0,3:0:0:0:
475,192,116927,1,0,0:0:0:0:
182,192,117038,1,0,0:0:0:0:
256,192,117149,1,0,0:0:0:0:
329,192,117260,1,0,0:0:0:0:
256,192,117371,1,0,0:0:0:0:
182,192,117482,1,0,0:0:0:0:
36,192,117594,1,0,3:0:0:0:
256,192,117705,1,0,0:0:0:0:
329,192,117816,1,0,0:0:0:0:
402,192,117927,1,0,0:0:0:0:
329,192,118038,1,0,0:0:0:0:
256,192,118149,1,0,0:0:0:0:
475,192,118260,1,0,0:0:0:0:
329,192,118371,1,0,0:0:0:0:
182,192,118482,1,0,0:0:0:0:
402,192,118593,1,0,0:0:0:0:
256,192,118705,1,0,0:0:0:0:
109,192,118816,1,0,0:0:0:0:
36,192,118927,1,0,3:0:0:0:
109,192,119038,1,0,0:0:0:0:
256,192,119149,1,0,0:0:0:0:
36,192,119260,1,0,3:0:0:0:
402,192,119260,1,0,0:0:0:0:
182,192,119371,1,0,0:0:0:0:
329,192,119482,1,0,0:0:0:0:
475,192,119593,1,0,0:0:0:0:
36,192,119594,1,0,3:0:0:0:
402,192,119760,1,0,0:0:0:0:
329,192,119760,1,0,0:0:0:0:
109,192,119927,1,0,0:0:0:0:
182,192,119927,1,0,0:0:0:0:
402,192,120093,1,0,0:0:0:0:
329,192,120093,1,0,0:0:0:0:
109,192,120260,1,0,0:0:0:0:
182,192,120260,1,0,0:0:0:0:
402,192,120427,1,0,0:0:0:0:
329,192,120427,1,0,0:0:0:0:
109,192,120593,1,0,0:0:0:0:
182,192,120593,1,0,0:0:0:0:
402,192,120760,1,0,0:0:0:0:
329,192,120760,1,0,0:0:0:0:
36,192,121010,1,0,0:0:0:0:
182,192,121010,1,0,0:0:0:0:
475,192,121010,1,0,0:0:0:0:
109,192,121260,1,0,0:0:0:0:
256,192,121260,1,0,0:0:0:0:
475,192,121260,1,0,0:0:0:0:
329,192,121510,1,0,0:0:0:0:
475,192,121510,1,0,0:0:0:0:
182,192,121510,1,0,0:0:0:0:
36,192,121760,1,0,0:0:0:0:
109,192,121760,1,0,0:0:0:0:
402,192,121760,1,0,0:0:0:0:
475,192,121760,1,0,0:0:0:0:
329,192,121927,1,0,0:0:0:0:
182,192,121927,1,0,0:0:0:0:
475,192,122010,1,0,0:0:0:0:
36,192,122010,1,0,0:0:0:0:
182,192,122093,1,0,0:0:0:0:
329,192,122093,1,0,0:0:0:0:
475,192,122177,1,0,0:0:0:0:
36,192,122177,1,0,0:0:0:0:
402,192,122260,1,0,0:0:0:0:
109,192,122260,1,0,0:0:0:0:
182,192,122260,1,0,0:0:0:0:
256,192,122260,1,0,0:0:0:0:
329,192,122371,1,0,0:0:0:0:
475,192,122482,1,0,0:0:0:0:
182,192,122593,1,0,0:0:0:0:
109,192,122593,1,0,0:0:0:0:
36,192,122593,1,0,0:0:0:0:
256,192,122593,1,0,0:0:0:0:
402,192,122705,1,0,0:0:0:0:
329,192,122816,1,0,0:0:0:0:
182,192,122927,1,0,0:0:0:0:
109,192,122927,1,0,0:0:0:0:
36,192,122927,1,0,0:0:0:0:
256,192,122927,1,0,0:0:0:0:
475,192,123038,1,0,0:0:0:0:
329,192,123149,1,0,0:0:0:0:
109,192,123260,1,0,0:0:0:0:
182,192,123260,1,0,0:0:0:0:
36,192,123260,1,0,0:0:0:0:
256,192,123260,1,0,0:0:0:0:
402,192,123371,1,0,0:0:0:0:
329,192,123482,1,0,0:0:0:0:
182,192,123593,1,0,0:0:0:0:
109,192,123593,1,0,0:0:0:0:
36,192,123593,1,0,0:0:0:0:
256,192,123593,1,0,0:0:0:0:
329,192,123705,1,0,0:0:0:0:
475,192,123816,1,0,0:0:0:0:
182,192,123927,1,0,0:0:0:0:
109,192,123927,1,0,0:0:0:0:
36,192,123927,1,0,0:0:0:0:
256,192,123927,1,0,0:0:0:0:
329,192,124038,1,0,0:0:0:0:
475,192,124149,1,0,0:0:0:0:
182,192,124260,1,0,0:0:0:0:
109,192,124260,1,0,0:0:0:0:
36,192,124260,1,0,0:0:0:0:
256,192,124260,1,0,0:0:0:0:
402,192,124371,1,0,0:0:0:0:
329,192,124482,1,0,0:0:0:0:
256,192,124593,1,0,0:0:0:0:
182,192,124593,1,0,0:0:0:0:
109,192,124593,1,0,0:0:0:0:
36,192,124593,1,0,0:0:0:0:
475,192,124705,1,0,0:0:0:0:
329,192,124816,1,0,0:0:0:0:
256,192,124927,1,0,0:0:0:0:
182,192,124927,1,0,0:0:0:0:
109,192,124927,1,0,0:0:0:0:
36,192,124927,1,0,0:0:0:0:
402,192,125038,1,0,0:0:0:0:
329,192,125149,1,0,0:0:0:0:
256,192,125260,1,0,0:0:0:0:
182,192,125260,1,0,0:0:0:0:
109,192,125260,1,0,0:0:0:0:
36,192,125260,1,0,0:0:0:0:
329,192,125371,1,0,0:0:0:0:
475,192,125482,1,0,0:0:0:0:
256,192,125593,1,0,0:0:0:0:
182,192,125593,1,0,0:0:0:0:
109,192,125593,1,0,0:0:0:0:
36,192,125593,1,0,0:0:0:0:
329,192,125705,1,0,0:0:0:0:
475,192,125816,1,0,0:0:0:0:
256,192,125927,1,0,0:0:0:0:
182,192,125927,1,0,0:0:0:0:
109,192,125927,1,0,0:0:0:0:
36,192,125927,1,0,0:0:0:0:
402,192,126038,1,0,0:0:0:0:
329,192,126149,1,0,0:0:0:0:
256,192,126260,1,0,0:0:0:0:
182,192,126260,1,0,0:0:0:0:
109,192,126260,1,0,0:0:0:0:
36,192,126260,1,0,0:0:0:0:
402,192,126371,1,0,0:0:0:0:
329,192,126482,1,0,0:0:0:0:
256,192,126593,1,0,0:0:0:0:
182,192,126593,1,0,0:0:0:0:
109,192,126593,1,0,0:0:0:0:
36,192,126593,1,0,0:0:0:0:
329,192,126705,1,0,0:0:0:0:
475,192,126816,1,0,0:0:0:0:
182,192,126927,1,0,0:0:0:0:
109,192,126927,1,0,0:0:0:0:
36,192,126927,1,0,0:0:0:0:
256,192,126927,1,0,0:0:0:0:
402,192,127038,1,0,0:0:0:0:
329,192,127038,1,0,0:0:0:0:
182,192,127149,1,0,0:0:0:0:
109,192,127149,1,0,0:0:0:0:
329,192,127260,1,0,0:0:0:0:
256,192,127260,1,0,0:0:0:0:
109,192,127371,1,0,0:0:0:0:
36,192,127371,1,0,0:0:0:0:
182,192,127482,1,0,0:0:0:0:
256,192,127593,1,0,0:0:0:0:
329,192,127593,1,0,0:0:0:0:
402,192,127593,1,0,0:0:0:0:
475,192,127593,1,0,0:0:0:0:
182,192,127705,1,0,0:0:0:0:
36,192,127816,1,0,0:0:0:0:
256,192,127927,1,0,0:0:0:0:
329,192,127927,1,0,0:0:0:0:
402,192,127927,1,0,0:0:0:0:
475,192,127927,1,0,0:0:0:0:
109,192,128038,1,0,0:0:0:0:
182,192,128149,1,0,0:0:0:0:
475,192,128260,1,0,0:0:0:0:
402,192,128260,1,0,0:0:0:0:
329,192,128260,1,0,0:0:0:0:
256,192,128260,1,0,0:0:0:0:
36,192,128371,1,0,0:0:0:0:
182,192,128482,1,0,0:0:0:0:
475,192,128593,1,0,0:0:0:0:
402,192,128593,1,0,0:0:0:0:
329,192,128593,1,0,0:0:0:0:
256,192,128593,1,0,0:0:0:0:
182,192,128705,1,0,0:0:0:0:
36,192,128816,1,0,0:0:0:0:
256,192,128927,1,0,0:0:0:0:
329,192,128927,1,0,0:0:0:0:
402,192,128927,1,0,0:0:0:0:
475,192,128927,1,0,0:0:0:0:
36,192,129038,1,0,0:0:0:0:
182,192,129149,1,0,0:0:0:0:
475,192,129260,1,0,0:0:0:0:
402,192,129260,1,0,0:0:0:0:
329,192,129260,1,0,0:0:0:0:
256,192,129260,1,0,0:0:0:0:
109,192,129371,1,0,0:0:0:0:
182,192,129482,1,0,0:0:0:0:
475,192,129593,1,0,0:0:0:0:
402,192,129593,1,0,0:0:0:0:
329,192,129593,1,0,0:0:0:0:
256,192,129593,1,0,0:0:0:0:
36,192,129705,1,0,0:0:0:0:
109,192,129816,1,0,0:0:0:0:
475,192,129927,1,0,0:0:0:0:
402,192,129927,1,0,0:0:0:0:
329,192,129927,1,0,0:0:0:0:
256,192,129927,1,0,0:0:0:0:
182,192,130038,1,0,0:0:0:0:
109,192,130149,1,0,0:0:0:0:
475,192,130260,1,0,0:0:0:0:
329,192,130260,1,0,0:0:0:0:
256,192,130260,1,0,0:0:0:0:
402,192,130260,1,0,0:0:0:0:
182,192,130371,1,0,0:0:0:0:
36,192,130482,1,0,0:0:0:0:
475,192,130593,1,0,0:0:0:0:
402,192,130593,1,0,0:0:0:0:
329,192,130593,1,0,0:0:0:0:
256,192,130593,1,0,0:0:0:0:
109,192,130705,1,0,0:0:0:0:
182,192,130816,1,0,0:0:0:0:
475,192,130927,1,0,0:0:0:0:
402,192,130927,1,0,0:0:0:0:
329,192,130927,1,0,0:0:0:0:
256,192,130927,1,0,0:0:0:0:
36,192,131038,1,0,0:0:0:0:
182,192,131149,1,0,0:0:0:0:
475,192,131260,1,0,0:0:0:0:
402,192,131260,1,0,0:0:0:0:
329,192,131260,1,0,0:0:0:0:
256,192,131260,1,0,0:0:0:0:
182,192,131371,1,0,0:0:0:0:
36,192,131482,1,0,0:0:0:0:
475,192,131593,1,0,0:0:0:0:
402,192,131593,1,0,0:0:0:0:
329,192,131593,1,0,0:0:0:0:
256,192,131593,1,0,0:0:0:0:
109,192,131705,1,0,0:0:0:0:
36,192,131816,5,0,0:0:0:0:
475,192,131927,5,0,0:0:0:0:
402,192,131927,1,0,0:0:0:0:
329,192,131927,1,0,0:0:0:0:
256,192,131927,1,0,0:0:0:0:
182,192,132038,1,0,0:0:0:0:
36,192,132149,1,0,0:0:0:0:
475,192,132260,1,0,0:0:0:0:
402,192,132260,1,0,0:0:0:0:
109,192,132371,1,0,0:0:0:0:
36,192,132371,1,0,0:0:0:0:
475,192,132482,1,0,0:0:0:0:
402,192,132482,1,0,0:0:0:0:
109,192,132593,1,0,0:0:0:0:
36,192,132593,1,0,0:0:0:0:
475,192,132705,1,0,0:0:0:0:
402,192,132705,1,0,0:0:0:0:
109,192,132816,1,0,0:0:0:0:
36,192,132816,1,0,0:0:0:0:
182,192,132927,5,0,0:0:0:0:
329,192,132927,1,0,0:0:0:0:
256,192,133149,1,0,0:0:0:0:
109,192,133260,1,0,0:0:0:0:
36,192,133260,1,0,0:0:0:0:
329,192,133371,1,0,0:0:0:0:
402,192,133482,1,0,0:0:0:0:
475,192,133593,1,0,0:0:0:0:
36,192,133593,1,0,0:0:0:0:
182,192,133705,1,0,0:0:0:0:
402,192,133816,1,0,0:0:0:0:
109,192,133927,1,0,0:0:0:0:
36,192,133927,1,0,0:0:0:0:
329,192,134038,1,0,0:0:0:0:
402,192,134149,1,0,0:0:0:0:
475,192,134260,1,0,0:0:0:0:
36,192,134260,1,0,0:0:0:0:
256,192,134482,1,0,0:0:0:0:
109,192,134593,1,0,0:0:0:0:
36,192,134593,1,0,0:0:0:0:
329,192,134705,1,0,0:0:0:0:
182,192,134816,1,0,0:0:0:0:
402,192,134927,1,0,0:0:0:0:
475,192,134927,1,0,0:0:0:0:
256,192,135038,1,0,0:0:0:0:
109,192,135149,1,0,0:0:0:0:
182,192,135260,1,0,0:0:0:0:
36,192,135260,1,0,0:0:0:0:
256,192,135371,1,0,0:0:0:0:
329,192,135482,1,0,0:0:0:0:
109,192,135593,1,0,0:0:0:0:
402,192,135593,1,0,0:0:0:0:
329,192,135816,1,0,0:0:0:0:
182,192,135927,1,0,0:0:0:0:
36,192,135927,1,0,0:0:0:0:
402,192,136038,1,0,0:0:0:0:
109,192,136149,1,0,0:0:0:0:
182,192,136260,1,0,0:0:0:0:
475,192,136260,1,0,0:0:0:0:
256,192,136371,1,0,0:0:0:0:
182,192,136482,1,0,0:0:0:0:
329,192,136593,1,0,0:0:0:0:
36,192,136593,1,0,0:0:0:0:
475,192,136705,1,0,0:0:0:0:
256,192,136816,1,0,0:0:0:0:
36,192,136927,1,0,0:0:0:0:
109,192,136927,1,0,0:0:0:0:
182,192,137149,1,0,0:0:0:0:
475,192,137260,1,0,0:0:0:0:
36,192,137260,1,0,0:0:0:0:
402,192,137371,1,0,0:0:0:0:
329,192,137482,1,0,0:0:0:0:
256,192,137593,1,0,0:0:0:0:
36,192,137593,1,0,0:0:0:0:
182,192,137705,1,0,0:0:0:0:
329,192,137705,1,0,0:0:0:0:
402,192,137816,1,0,0:0:0:0:
109,192,137816,1,0,0:0:0:0:
475,192,137927,1,0,0:0:0:0:
36,192,137927,1,0,0:0:0:0:
402,192,138038,1,0,0:0:0:0:
109,192,138038,1,0,0:0:0:0:
329,192,138149,1,0,0:0:0:0:
182,192,138149,1,0,0:0:0:0:
256,192,138260,1,0,0:0:0:0:
475,192,138260,1,0,0:0:0:0:
182,192,138371,1,0,0:0:0:0:
109,192,138482,1,0,0:0:0:0:
36,192,138593,1,0,0:0:0:0:
475,192,138593,1,0,0:0:0:0:
182,192,138705,1,0,0:0:0:0:
329,192,138816,1,0,0:0:0:0:
475,192,138927,1,0,0:0:0:0:
36,192,138927,1,0,0:0:0:0:
256,192,139038,1,0,0:0:0:0:
109,192,139149,1,0,0:0:0:0:
329,192,139260,1,0,0:0:0:0:
475,192,139260,1,0,0:0:0:0:
182,192,139371,1,0,0:0:0:0:
402,192,139482,1,0,0:0:0:0:
256,192,139593,1,0,0:0:0:0:
36,192,139593,1,0,0:0:0:0:
109,192,139705,1,0,0:0:0:0:
329,192,139816,1,0,0:0:0:0:
182,192,139927,1,0,0:0:0:0:
402,192,139927,1,0,0:0:0:0:
36,192,140038,1,0,0:0:0:0:
182,192,140149,1,0,0:0:0:0:
329,192,140260,1,0,0:0:0:0:
475,192,140260,1,0,0:0:0:0:
109,192,140371,1,0,0:0:0:0:
329,192,140482,1,0,0:0:0:0:
475,192,140593,1,0,0:0:0:0:
36,192,140593,1,0,0:0:0:0:
402,192,140705,1,0,0:0:0:0:
182,192,140816,1,0,0:0:0:0:
36,192,140927,1,0,0:0:0:0:
329,192,140927,1,0,0:0:0:0:
109,192,141149,1,0,0:0:0:0:
36,192,141260,128,0,141593:0:0:0:0:
182,192,141260,128,0,141593:0:0:0:0:
329,192,141482,1,0,0:0:0:0:
402,192,141593,1,0,0:0:0:0:
256,192,141593,1,0,0:0:0:0:
182,192,141816,5,0,0:0:0:0:
109,192,141927,128,0,142260:0:0:0:0:
256,192,141927,128,0,142260:0:0:0:0:
402,192,142149,1,0,0:0:0:0:
475,192,142260,1,0,0:0:0:0:
329,192,142260,1,0,0:0:0:0:
256,192,142482,1,0,0:0:0:0:
329,192,142593,128,0,142927:0:0:0:0:
182,192,142593,128,0,142927:0:0:0:0:
402,192,142816,1,0,0:0:0:0:
36,192,142927,128,0,143260:0:0:0:0:
475,192,142927,1,0,0:0:0:0:
329,192,143149,1,0,0:0:0:0:
256,192,143260,128,0,143593:0:0:0:0:
402,192,143260,128,0,143593:0:0:0:0:
109,192,143260,128,0,143593:0:0:0:0:
182,192,143482,1,0,0:0:0:0:
329,192,143482,1,0,0:0:0:0:
182,192,143593,128,0,143816:0:0:0:0:
329,192,143593,128,0,143816:0:0:0:0:
109,192,143816,1,0,0:0:0:0:
402,192,143816,1,0,0:0:0:0:
109,192,143927,128,0,144149:0:0:0:0:
402,192,143927,128,0,144149:0:0:0:0:
36,192,144149,1,0,0:0:0:0:
475,192,144149,1,0,0:0:0:0:
475,192,144260,128,0,144927:0:0:0:0:
36,192,144260,128,0,144927:0:0:0:0:
329,192,144593,1,0,0:0:0:0:
256,192,144677,1,0,0:0:0:0:
329,192,144760,1,0,0:0:0:0:
256,192,144843,1,0,0:0:0:0:
182,192,144927,128,0,145038:0:0:0:0:
402,192,144927,1,0,0:0:0:0:
109,192,144927,1,0,0:0:0:0:
256,192,145038,128,0,145149:0:0:0:0:
329,192,145149,128,0,145260:0:0:0:0:
109,192,145260,128,0,145371:0:0:0:0:
36,192,145260,1,0,0:0:0:0:
475,192,145260,1,0,0:0:0:0:
182,192,145371,128,0,145482:0:0:0:0:
256,192,145482,128,0,145593:0:0:0:0:
329,192,145593,128,0,145705:0:0:0:0:
475,192,145593,1,0,0:0:0:0:
36,192,145593,1,0,0:0:0:0:
182,192,145705,128,0,145816:0:0:0:0:
329,192,145816,128,0,146260:0:0:0:0:
182,192,145927,128,0,146260:0:0:0:0:
36,192,145927,1,0,0:0:0:0:
475,192,145927,1,0,0:0:0:0:
402,192,146038,128,0,146260:0:0:0:0:
109,192,146149,128,0,146260:0:0:0:0:
475,192,146260,128,0,146371:0:0:0:0:
256,192,146260,1,0,0:0:0:0:
36,192,146260,1,0,0:0:0:0:
329,192,146371,128,0,146482:0:0:0:0:
182,192,146482,128,0,146593:0:0:0:0:
402,192,146593,128,0,146705:0:0:0:0:
36,192,146593,1,0,0:0:0:0:
475,192,146593,1,0,0:0:0:0:
256,192,146705,128,0,146816:0:0:0:0:
109,192,146816,128,0,146927:0:0:0:0:
329,192,146927,128,0,147038:0:0:0:0:
182,192,146927,1,0,0:0:0:0:
475,192,146927,1,0,0:0:0:0:
402,192,147038,128,0,147149:0:0:0:0:
475,192,147149,128,0,147260:0:0:0:0:
256,192,147260,128,0,147371:0:0:0:0:
36,192,147260,1,0,0:0:0:0:
182,192,147260,1,0,0:0:0:0:
329,192,147371,128,0,147482:0:0:0:0:
402,192,147482,128,0,147593:0:0:0:0:
182,192,147593,128,0,147816:0:0:0:0:
256,192,147593,1,0,0:0:0:0:
475,192,147593,1,0,0:0:0:0:
109,192,147705,128,0,147927:0:0:0:0:
36,192,147816,128,0,148038:0:0:0:0:
182,192,147927,128,0,148038:0:0:0:0:
475,192,147927,1,0,0:0:0:0:
329,192,147927,1,0,0:0:0:0:
256,192,148038,128,0,148149:0:0:0:0:
329,192,148149,128,0,148260:0:0:0:0:
402,192,148260,128,0,148371:0:0:0:0:
36,192,148260,1,0,0:0:0:0:
182,192,148260,1,0,0:0:0:0:
256,192,148371,128,0,148482:0:0:0:0:
402,192,148482,128,0,148705:0:0:0:0:
256,192,148593,128,0,148927:0:0:0:0:
36,192,148593,1,0,0:0:0:0:
475,192,148593,1,0,0:0:0:0:
109,192,148705,128,0,148927:0:0:0:0:
402,192,148816,128,0,148927:0:0:0:0:
475,192,148927,1,0,0:0:0:0:
36,192,148927,1,0,0:0:0:0:
182,192,149149,128,0,149371:0:0:0:0:
329,192,149260,128,0,149482:0:0:0:0:
36,192,149260,1,0,0:0:0:0:
402,192,149260,1,0,0:0:0:0:
475,192,149371,128,0,149593:0:0:0:0:
256,192,149482,128,0,149816:0:0:0:0:
109,192,149593,128,0,149816:0:0:0:0:
36,192,149593,1,0,0:0:0:0:
402,192,149593,1,0,0:0:0:0:
475,192,149816,128,0,150149:0:0:0:0:
329,192,149927,128,0,150038:0:0:0:0:
36,192,149927,1,0,0:0:0:0:
256,192,149927,1,0,0:0:0:0:
182,192,150038,128,0,150260:0:0:0:0:
329,192,150149,128,0,150371:0:0:0:0:
475,192,150260,128,0,150482:0:0:0:0:
256,192,150260,1,0,0:0:0:0:
36,192,150260,1,0,0:0:0:0:
256,192,150482,128,0,150705:0:0:0:0:
402,192,150593,128,0,150705:0:0:0:0:
36,192,150593,1,0,0:0:0:0:
109,192,150593,1,0,0:0:0:0:
182,192,150705,128,0,150927:0:0:0:0:
329,192,150816,128,0,150927:0:0:0:0:
256,192,150927,1,0,0:0:0:0:
475,192,150927,1,0,0:0:0:0:
182,192,151038,1,0,0:0:0:0:
109,192,151149,1,0,0:0:0:0:
36,192,151260,1,0,0:0:0:0:
329,192,151260,1,0,0:0:0:0:
256,192,151371,1,0,0:0:0:0:
182,192,151482,1,0,0:0:0:0:
109,192,151593,1,0,0:0:0:0:
475,192,151593,1,0,0:0:0:0:
402,192,151705,1,0,0:0:0:0:
36,192,151705,1,0,0:0:0:0:
329,192,151816,1,0,0:0:0:0:
109,192,151816,1,0,0:0:0:0:
256,192,151927,1,0,0:0:0:0:
475,192,151927,1,0,0:0:0:0:
182,192,152038,1,0,0:0:0:0:
402,192,152038,1,0,0:0:0:0:
109,192,152149,1,0,0:0:0:0:
329,192,152149,1,0,0:0:0:0:
182,192,152260,1,0,0:0:0:0:
402,192,152260,1,0,0:0:0:0:
256,192,152371,1,0,0:0:0:0:
475,192,152371,1,0,0:0:0:0:
329,192,152482,1,0,0:0:0:0:
36,192,152482,1,0,0:0:0:0:
402,192,152593,1,0,0:0:0:0:
109,192,152593,1,0,0:0:0:0:
475,192,152705,1,0,0:0:0:0:
182,192,152705,1,0,0:0:0:0:
402,192,152816,1,0,0:0:0:0:
109,192,152816,1,0,0:0:0:0:
329,192,152927,1,0,0:0:0:0:
36,192,152927,1,0,0:0:0:0:
36,192,153038,1,0,0:0:0:0:
256,192,153038,1,0,0:0:0:0:
36,192,153149,5,0,0:0:0:0:
182,192,153149,1,0,0:0:0:0:
109,192,153260,1,0,0:0:0:0:
256,192,153260,1,0,0:0:0:0:
109,192,153371,1,0,0:0:0:0:
329,192,153371,1,0,0:0:0:0:
109,192,153482,1,0,0:0:0:0:
402,192,153482,1,0,0:0:0:0:
256,192,153593,1,0,0:0:0:0:
475,192,153593,1,0,0:0:0:0:
182,192,153649,1,0,0:0:0:0:
109,192,153705,1,0,0:0:0:0:
36,192,153760,1,0,0:0:0:0:
256,192,153816,1,0,0:0:0:0:
475,192,153816,1,0,0:0:0:0:
182,192,153871,1,0,0:0:0:0:
109,192,153927,1,0,0:0:0:0:
475,192,153927,1,0,0:0:0:0:
36,192,153982,1,0,0:0:0:0:
109,192,154038,1,0,0:0:0:0:
182,192,154093,1,0,0:0:0:0:
256,192,154149,1,0,0:0:0:0:
475,192,154149,1,0,0:0:0:0:
329,192,154205,1,0,0:0:0:0:
109,192,154260,1,0,0:0:0:0:
402,192,154260,1,0,0:0:0:0:
36,192,154260,1,0,0:0:0:0:
475,192,154260,1,0,0:0:0:0:
475,192,154427,1,0,0:0:0:0:
402,192,154427,1,0,0:0:0:0:
109,192,154427,1,0,0:0:0:0:
36,192,154427,1,0,0:0:0:0:
36,192,154593,1,0,0:0:0:0:
109,192,154677,1,0,0:0:0:0:
182,192,154760,1,0,0:0:0:0:
109,192,154843,1,0,0:0:0:0:
182,192,154927,1,0,0:0:0:0:
256,192,155010,1,0,0:0:0:0:
36,192,155093,1,0,0:0:0:0:
109,192,155177,1,0,0:0:0:0:
182,192,155260,1,0,0:0:0:0:
36,192,155343,1,0,0:0:0:0:
109,192,155427,1,0,0:0:0:0:
182,192,155510,1,0,0:0:0:0:
256,192,155593,1,0,0:0:0:0:
329,192,155677,1,0,0:0:0:0:
402,192,155760,1,0,0:0:0:0:
329,192,155843,1,0,0:0:0:0:
475,192,155927,1,0,0:0:0:0:
109,192,156010,1,0,0:0:0:0:
182,192,156093,1,0,0:0:0:0:
256,192,156177,1,0,0:0:0:0:
329,192,156260,1,0,0:0:0:0:
256,192,156343,1,0,0:0:0:0:
329,192,156427,1,0,0:0:0:0:
402,192,156510,1,0,0:0:0:0:
475,192,156593,1,0,0:0:0:0:
109,192,156593,1,0,0:0:0:0:
182,192,156677,1,0,0:0:0:0:
256,192,156760,1,0,0:0:0:0:
329,192,156843,1,0,0:0:0:0:
402,192,156927,1,0,0:0:0:0:
109,192,156927,1,0,0:0:0:0:
36,192,156927,1,0,0:0:0:0:
475,192,156927,1,0,0:0:0:0:
109,192,157093,1,0,0:0:0:0:
36,192,157093,1,0,0:0:0:0:
402,192,157093,1,0,0:0:0:0:
475,192,157093,1,0,0:0:0:0:
36,192,157260,1,0,0:0:0:0:
109,192,157343,1,0,0:0:0:0:
182,192,157427,1,0,0:0:0:0:
109,192,157510,1,0,0:0:0:0:
182,192,157593,1,0,0:0:0:0:
256,192,157677,1,0,0:0:0:0:
36,192,157760,1,0,0:0:0:0:
109,192,157843,1,0,0:0:0:0:
182,192,157927,1,0,0:0:0:0:
36,192,158010,1,0,0:0:0:0:
109,192,158093,1,0,0:0:0:0:
182,192,158177,1,0,0:0:0:0:
256,192,158260,1,0,0:0:0:0:
329,192,158343,1,0,0:0:0:0:
402,192,158427,1,0,0:0:0:0:
329,192,158510,1,0,0:0:0:0:
475,192,158593,1,0,0:0:0:0:
109,192,158593,1,0,0:0:0:0:
182,192,158677,1,0,0:0:0:0:
256,192,158760,1,0,0:0:0:0:
329,192,158843,1,0,0:0:0:0:
402,192,158927,1,0,0:0:0:0:
475,192,159010,1,0,0:0:0:0:
329,192,159093,1,0,0:0:0:0:
402,192,159177,1,0,0:0:0:0:
475,192,159260,1,0,0:0:0:0:
402,192,159343,1,0,0:0:0:0:
329,192,159427,1,0,0:0:0:0:
256,192,159510,1,0,0:0:0:0:
182,192,159593,1,0,0:0:0:0:
109,192,159593,1,0,0:0:0:0:
475,192,159593,1,0,0:0:0:0:
402,192,159593,1,0,0:0:0:0:
182,192,159760,1,0,0:0:0:0:
109,192,159760,1,0,0:0:0:0:
475,192,159760,1,0,0:0:0:0:
402,192,159760,1,0,0:0:0:0:
36,192,159927,1,0,0:0:0:0:
109,192,160010,1,0,0:0:0:0:
182,192,160093,1,0,0:0:0:0:
329,192,160177,1,0,0:0:0:0:
109,192,160260,1,0,0:0:0:0:
182,192,160343,1,0,0:0:0:0:
329,192,160427,1,0,0:0:0:0:
109,192,160510,1,0,0:0:0:0:
182,192,160593,1,0,0:0:0:0:
329,192,160677,1,0,0:0:0:0:
109,192,160760,1,0,0:0:0:0:
182,192,160843,1,0,0:0:0:0:
256,192,160927,1,0,0:0:0:0:
329,192,161010,1,0,0:0:0:0:
402,192,161093,1,0,0:0:0:0:
329,192,161177,1,0,0:0:0:0:
402,192,161260,1,0,0:0:0:0:
475,192,161343,1,0,0:0:0:0:
402,192,161427,1,0,0:0:0:0:
329,192,161510,1,0,0:0:0:0:
109,192,161593,1,0,0:0:0:0:
182,192,161677,1,0,0:0:0:0:
256,192,161760,1,0,0:0:0:0:
329,192,161843,1,0,0:0:0:0:
402,192,161927,1,0,0:0:0:0:
182,192,161927,1,0,0:0:0:0:
256,192,162010,1,0,0:0:0:0:
329,192,162093,1,0,0:0:0:0:
36,192,162093,1,0,0:0:0:0:
402,192,162177,1,0,0:0:0:0:
109,192,162177,1,0,0:0:0:0:
475,192,162260,1,0,0:0:0:0:
182,192,162260,1,0,0:0:0:0:
256,192,162343,1,0,0:0:0:0:
329,192,162427,1,0,0:0:0:0:
402,192,162510,1,0,0:0:0:0:
475,192,162593,1,0,0:0:0:0:
36,192,162593,1,0,0:0:0:0:
109,192,162593,1,0,0:0:0:0:
109,192,162760,1,0,0:0:0:0:
182,192,162760,1,0,0:0:0:0:
182,192,162927,1,0,0:0:0:0:
256,192,162927,1,0,0:0:0:0:
256,192,163093,1,0,0:0:0:0:
329,192,163093,1,0,0:0:0:0:
329,192,163260,1,0,0:0:0:0:
402,192,163260,1,0,0:0:0:0:
256,192,163427,1,0,0:0:0:0:
36,192,163427,1,0,0:0:0:0:
329,192,163510,1,0,0:0:0:0:
109,192,163510,1,0,0:0:0:0:
402,192,163593,1,0,0:0:0:0:
182,192,163593,1,0,0:0:0:0:
329,192,163677,1,0,0:0:0:0:
36,192,163677,1,0,0:0:0:0:
402,192,163760,5,0,0:0:0:0:
109,192,163760,1,0,0:0:0:0:
475,192,163843,1,0,0:0:0:0:
182,192,163843,1,0,0:0:0:0:
256,192,163927,1,0,0:0:0:0:
329,192,164010,1,0,0:0:0:0:
402,192,164093,1,0,0:0:0:0:
475,192,164177,1,0,0:0:0:0:
402,192,164260,1,0,0:0:0:0:
329,192,164302,1,0,0:0:0:0:
256,192,164343,1,0,0:0:0:0:
182,192,164385,1,0,0:0:0:0:
109,192,164427,1,0,0:0:0:0:
402,192,164427,1,0,0:0:0:0:
329,192,164468,1,0,0:0:0:0:
256,192,164510,1,0,0:0:0:0:
36,192,164552,1,0,0:0:0:0:
109,192,164593,1,0,0:0:0:0:
182,192,164635,1,0,0:0:0:0:
256,192,164677,1,0,0:0:0:0:
329,192,164718,1,0,0:0:0:0:
109,192,164760,1,0,0:0:0:0:
182,192,164802,1,0,0:0:0:0:
256,192,164843,1,0,0:0:0:0:
329,192,164885,1,0,0:0:0:0:
475,192,164927,5,0,0:0:0:0:
36,192,164927,1,0,0:0:0:0:
402,192,164927,1,0,0:0:0:0:
109,192,165260,1,0,0:0:0:0:
109,192,165593,1,0,0:0:0:0:
402,192,165593,1,0,0:0:0:0:
109,192,165927,1,0,0:0:0:0:
256,192,166260,1,0,0:0:0:0:
329,192,166343,1,0,0:0:0:0:
402,192,166427,1,0,0:0:0:0:
475,192,166510,1,0,0:0:0:0:
36,192,166593,1,0,0:0:0:0:
109,192,166677,1,0,0:0:0:0:
182,192,166760,1,0,0:0:0:0:
475,192,166843,1,0,0:0:0:0:
402,192,166927,1,0,0:0:0:0:
329,192,167010,1,0,0:0:0:0:
256,192,167093,1,0,0:0:0:0:
329,192,167177,1,0,0:0:0:0:
402,192,167260,1,0,0:0:0:0:
475,192,167343,1,0,0:0:0:0:
182,192,167427,1,0,0:0:0:0:
329,192,167510,1,0,0:0:0:0:
402,192,167593,1,0,0:0:0:0:
36,192,167677,1,0,0:0:0:0:
402,192,167843,1,0,0:0:0:0:
109,192,167927,1,0,0:0:0:0:
475,192,167927,1,0,0:0:0:0:
109,192,168010,1,0,0:0:0:0:
475,192,168010,1,0,0:0:0:0:
256,192,168260,128,0,168427:0:0:0:0:
36,192,168593,1,0,0:0:0:0:
329,192,168593,1,0,0:0:0:0:
329,192,168677,1,0,0:0:0:0:
36,192,168677,1,0,0:0:0:0:
475,192,168927,1,0,0:0:0:0:
402,192,169010,1,0,0:0:0:0:
475,192,169093,1,0,0:0:0:0:
402,192,169177,5,0,0:0:0:0:
329,192,169260,1,0,0:0:0:0:
256,192,169343,1,0,0:0:0:0:
182,192,169427,1,0,0:0:0:0:
109,192,169510,1,0,0:0:0:0:
36,192,169593,1,0,0:0:0:0:
402,192,169593,1,0,0:0:0:0:
329,192,169677,1,0,0:0:0:0:
256,192,169760,1,0,0:0:0:0:
182,192,169843,1,0,0:0:0:0:
109,192,169927,1,0,0:0:0:0:
182,192,170010,1,0,0:0:0:0:
256,192,170093,1,0,0:0:0:0:
329,192,170177,1,0,0:0:0:0:
36,192,170260,5,0,0:0:0:0:
402,192,170260,1,0,0:0:0:0:
182,192,170260,1,0,0:0:0:0:
256,192,170427,1,0,0:0:0:0:
109,192,170677,1,0,0:0:0:0:
256,192,170677,1,0,0:0:0:0:
329,192,170843,1,0,0:0:0:0:
256,192,171093,1,0,0:0:0:0:
109,192,171093,1,0,0:0:0:0:
329,192,171177,1,0,0:0:0:0:
182,192,171343,1,0,0:0:0:0:
329,192,171343,1,0,0:0:0:0:
402,192,171427,1,0,0:0:0:0:
256,192,171593,1,0,0:0:0:0:
402,192,171593,1,0,0:0:0:0:
475,192,171677,1,0,0:0:0:0:
329,192,171760,1,0,0:0:0:0:
182,192,171760,1,0,0:0:0:0:
109,192,171843,1,0,0:0:0:0:
182,192,172010,1,0,0:0:0:0:
329,192,172010,1,0,0:0:0:0:
402,192,172093,1,0,0:0:0:0:
182,192,172260,1,0,0:0:0:0:
329,192,172260,1,0,0:0:0:0:
109,192,172343,1,0,0:0:0:0:
36,192,172427,1,0,0:0:0:0:
109,192,172510,1,0,0:0:0:0:
182,192,172593,1,0,0:0:0:0:
256,192,172649,1,0,0:0:0:0:
329,192,172705,1,0,0:0:0:0:
402,192,172760,1,0,0:0:0:0:
475,192,172816,1,0,0:0:0:0:
182,192,172871,1,0,0:0:0:0:
256,192,172927,1,0,0:0:0:0:
329,192,172982,1,0,0:0:0:0:
402,192,173038,1,0,0:0:0:0:
36,192,173093,1,0,0:0:0:0:
256,192,173177,1,0,0:0:0:0:
475,192,173260,1,0,0:0:0:0:
402,192,173316,1,0,0:0:0:0:
329,192,173371,1,0,0:0:0:0:
256,192,173427,1,0,0:0:0:0:
182,192,173482,1,0,0:0:0:0:
109,192,173538,1,0,0:0:0:0:
36,192,173593,1,0,0:0:0:0:
109,192,173649,1,0,0:0:0:0:
182,192,173705,1,0,0:0:0:0:
256,192,173760,1,0,0:0:0:0:
182,192,173816,1,0,0:0:0:0:
256,192,173871,1,0,0:0:0:0:
329,192,173927,1,0,0:0:0:0:
256,192,173982,1,0,0:0:0:0:
329,192,174038,1,0,0:0:0:0:
402,192,174093,1,0,0:0:0:0:
109,192,174149,1,0,0:0:0:0:
182,192,174205,1,0,0:0:0:0:
256,192,174260,1,0,0:0:0:0:
329,192,174316,1,0,0:0:0:0:
402,192,174371,1,0,0:0:0:0:
475,192,174427,1,0,0:0:0:0:
402,192,174482,1,0,0:0:0:0:
475,192,174538,1,0,0:0:0:0:
402,192,174593,1,0,0:0:0:0:
329,192,174649,1,0,0:0:0:0:
402,192,174705,1,0,0:0:0:0:
329,192,174760,1,0,0:0:0:0:
402,192,174816,1,0,0:0:0:0:
36,192,174927,1,0,0:0:0:0:
256,192,174927,128,0,175260:0:0:0:0:
109,192,174982,1,0,0:0:0:0:
182,192,175038,1,0,0:0:0:0:
329,192,175093,1,0,0:0:0:0:
402,192,175149,1,0,0:0:0:0:
475,192,175260,128,0,175593:0:0:0:0:
402,192,175260,1,0,0:0:0:0:
109,192,175260,1,0,0:0:0:0:
329,192,175316,1,0,0:0:0:0:
256,192,175371,1,0,0:0:0:0:
182,192,175427,1,0,0:0:0:0:
109,192,175482,1,0,0:0:0:0:
36,192,175538,1,0,0:0:0:0:
256,192,175593,5,0,0:0:0:0:
109,192,175593,1,0,0:0:0:0:
182,192,175677,1,0,0:0:0:0:
256,192,175760,1,0,0:0:0:0:
329,192,175843,1,0,0:0:0:0:
402,192,175927,1,0,0:0:0:0:
475,192,176010,1,0,0:0:0:0:
402,192,176093,1,0,0:0:0:0:
329,192,176177,1,0,0:0:0:0:
256,192,176260,1,0,0:0:0:0:
182,192,176343,1,0,0:0:0:0:
109,192,176427,1,0,0:0:0:0:
36,192,176510,1,0,0:0:0:0:
109,192,176593,1,0,0:0:0:0:
182,192,176677,1,0,0:0:0:0:
36,192,176760,1,0,0:0:0:0:
109,192,176843,1,0,0:0:0:0:
182,192,176927,1,0,0:0:0:0:
402,192,176927,1,0,0:0:0:0:
329,192,177010,1,0,0:0:0:0:
256,192,177093,1,0,0:0:0:0:
182,192,177177,1,0,0:0:0:0:
109,192,177260,1,0,0:0:0:0:
36,192,177343,1,0,0:0:0:0:
402,192,177343,1,0,0:0:0:0:
329,192,177427,1,0,0:0:0:0:
256,192,177510,1,0,0:0:0:0:
182,192,177593,1,0,0:0:0:0:
109,192,177677,1,0,0:0:0:0:
36,192,177760,1,0,0:0:0:0:
182,192,177843,1,0,0:0:0:0:
109,192,177927,1,0,0:0:0:0:
256,192,178010,1,0,0:0:0:0:
182,192,178093,1,0,0:0:0:0:
329,192,178177,1,0,0:0:0:0:
256,192,178260,1,0,0:0:0:0:
36,192,178260,1,0,0:0:0:0:
182,192,178343,1,0,0:0:0:0:
109,192,178427,1,0,0:0:0:0:
256,192,178510,1,0,0:0:0:0:
182,192,178593,1,0,0:0:0:0:
329,192,178677,1,0,0:0:0:0:
256,192,178760,1,0,0:0:0:0:
402,192,178843,1,0,0:0:0:0:
329,192,178927,1,0,0:0:0:0:
475,192,179010,1,0,0:0:0:0:
256,192,179093,1,0,0:0:0:0:
402,192,179177,1,0,0:0:0:0:
182,192,179260,1,0,0:0:0:0:
329,192,179343,1,0,0:0:0:0:
109,192,179427,1,0,0:0:0:0:
256,192,179510,1,0,0:0:0:0:
36,192,179593,1,0,0:0:0:0:
475,192,179593,1,0,0:0:0:0:
182,192,179677,1,0,0:0:0:0:
329,192,179677,1,0,0:0:0:0:
402,192,179760,5,0,0:0:0:0:
256,192,179843,1,0,0:0:0:0:
329,192,179927,1,0,0:0:0:0:
182,192,180010,1,0,0:0:0:0:
109,192,180093,1,0,0:0:0:0:
256,192,180177,1,0,0:0:0:0:
182,192,180260,1,0,0:0:0:0:
329,192,180343,1,0,0:0:0:0:
36,192,180427,1,0,0:0:0:0:
475,192,180510,1,0,0:0:0:0:
109,192,180593,1,0,0:0:0:0:
402,192,180677,1,0,0:0:0:0:
256,192,180760,1,0,0:0:0:0:
36,192,180927,5,0,0:0:0:0:
109,192,180927,1,0,0:0:0:0:
329,192,181038,1,0,0:0:0:0:
402,192,181038,1,0,0:0:0:0:
109,192,181149,1,0,0:0:0:0:
182,192,181149,1,0,0:0:0:0:
402,192,181260,1,0,0:0:0:0:
475,192,181260,1,0,0:0:0:0:
182,192,181371,1,0,0:0:0:0:
256,192,181371,1,0,0:0:0:0:
329,192,181482,1,0,0:0:0:0:
402,192,181482,1,0,0:0:0:0:
109,192,181593,1,0,0:0:0:0:
182,192,181593,1,0,0:0:0:0:
36,192,181593,1,0,0:0:0:0:
36,192,181927,1,0,0:0:0:0:
109,192,182010,1,0,0:0:0:0:
182,192,182093,1,0,0:0:0:0:
256,192,182177,1,0,0:0:0:0:
475,192,182427,1,0,0:0:0:0:
402,192,182510,1,0,0:0:0:0:
329,192,182593,1,0,0:0:0:0:
256,192,182677,1,0,0:0:0:0:
402,192,182927,1,0,0:0:0:0:
329,192,183010,1,0,0:0:0:0:
256,192,183093,1,0,0:0:0:0:
182,192,183177,1,0,0:0:0:0:
329,192,183427,1,0,0:0:0:0:
256,192,183510,1,0,0:0:0:0:
182,192,183593,1,0,0:0:0:0:
109,192,183677,1,0,0:0:0:0:
109,192,183927,1,0,0:0:0:0:
36,192,184010,1,0,0:0:0:0:
109,192,184093,1,0,0:0:0:0:
36,192,184177,1,0,0:0:0:0:
109,192,184260,1,0,0:0:0:0:
182,192,184343,1,0,0:0:0:0:
256,192,184427,1,0,0:0:0:0:
329,192,184510,1,0,0:0:0:0:
402,192,184593,1,0,0:0:0:0:
475,192,184677,1,0,0:0:0:0:
36,192,184760,1,0,0:0:0:0:
329,192,184843,1,0,0:0:0:0:
256,192,184927,1,0,0:0:0:0:
182,192,185010,1,0,0:0:0:0:
109,192,185093,5,0,0:0:0:0:
36,192,185177,1,0,0:0:0:0:
256,192,185177,1,0,0:0:0:0:
182,192,185260,1,0,0:0:0:0:
109,192,185343,1,0,0:0:0:0:
36,192,185427,1,0,0:0:0:0:
402,192,185510,1,0,0:0:0:0:
329,192,185593,1,0,0:0:0:0:
256,192,185677,1,0,0:0:0:0:
182,192,185760,1,0,0:0:0:0:
109,192,185843,1,0,0:0:0:0:
36,192,185927,1,0,0:0:0:0:
475,192,185927,1,0,0:0:0:0:
329,192,185927,1,0,0:0:0:0:
182,192,186093,1,0,0:0:0:0:
402,192,186093,1,0,0:0:0:0:
109,192,186260,128,0,186593:0:0:0:0:
256,192,186260,128,0,186593:0:0:0:0:
36,192,186260,1,0,0:0:0:0:
329,192,186593,1,0,0:0:0:0:
475,192,186593,1,0,0:0:0:0:
182,192,186927,128,0,187260:0:0:0:0:
329,192,186927,128,0,187260:0:0:0:0:
256,192,187260,1,0,0:0:0:0:
402,192,187260,1,0,0:0:0:0:
256,192,187593,128,0,187927:0:0:0:0:
402,192,187593,128,0,187927:0:0:0:0:
329,192,187927,1,0,0:0:0:0:
182,192,187927,1,0,0:0:0:0:
329,192,188260,128,0,188593:0:0:0:0:
475,192,188260,128,0,188593:0:0:0:0:
256,192,188593,1,0,0:0:0:0:
109,192,188593,1,0,0:0:0:0:
402,192,188927,128,0,189260:0:0:0:0:
256,192,188927,128,0,189260:0:0:0:0:
36,192,189260,1,0,0:0:0:0:
182,192,189260,1,0,0:0:0:0:
329,192,189593,128,0,189760:0:0:0:0:
182,192,189593,1,0,0:0:0:0:
109,192,189760,128,0,189927:0:0:0:0:
402,192,189927,128,0,190093:0:0:0:0:
256,192,189927,1,0,0:0:0:0:
182,192,190093,128,0,190260:0:0:0:0:
475,192,190260,128,0,190593:0:0:0:0:
329,192,190260,1,0,0:0:0:0:
256,192,190593,128,0,190927:0:0:0:0:
109,192,190593,1,0,0:0:0:0:
36,192,190927,128,0,191260:0:0:0:0:
329,192,190927,1,0,0:0:0:0:
109,192,191260,128,0,191593:0:0:0:0:
402,192,191260,1,0,0:0:0:0:
182,192,191593,128,0,191927:0:0:0:0:
329,192,191593,128,0,191927:0:0:0:0:
256,192,191593,1,0,0:0:0:0:
256,192,191927,1,0,0:0:0:0:
36,192,191927,1,0,0:0:0:0:
475,192,191927,1,0,0:0:0:0:
109,192,192260,128,0,192593:0:0:0:0:
402,192,192260,128,0,192593:0:0:0:0:
256,192,192260,1,0,0:0:0:0:
182,192,192593,1,0,0:0:0:0:
256,192,192593,1,0,0:0:0:0:
329,192,192593,1,0,0:0:0:0:
36,192,192927,128,0,193260:0:0:0:0:
475,192,192927,128,0,193260:0:0:0:0:
256,192,192927,1,0,0:0:0:0:
109,192,193260,1,0,0:0:0:0:
256,192,193260,1,0,0:0:0:0:
402,192,193260,1,0,0:0:0:0:
256,192,193593,128,0,194260:0:0:0:0:
182,192,193593,1,0,0:0:0:0:
329,192,193593,1,0,0:0:0:0:
36,192,193927,1,0,0:0:0:0:
475,192,193927,1,0,0:0:0:0:
109,192,194260,1,0,0:0:0:0:
402,192,194260,1,0,0:0:0:0:
182,192,194482,1,0,0:0:0:0:
36,192,194593,1,0,0:0:0:0:
329,192,194593,1,0,0:0:0:0:
256,192,194816,1,0,0:0:0:0:
109,192,194927,1,0,0:0:0:0:
402,192,194927,1,0,0:0:0:0:
329,192,195149,1,0,0:0:0:0:
182,192,195260,1,0,0:0:0:0:
475,192,195260,1,0,0:0:0:0:
256,192,195482,1,0,0:0:0:0:
109,192,195593,1,0,0:0:0:0:
402,192,195593,1,0,0:0:0:0:
329,192,195705,1,0,0:0:0:0:
182,192,195705,1,0,0:0:0:0:
36,192,195816,5,0,0:0:0:0:
475,192,195816,1,0,0:0:0:0:
182,192,195927,1,0,0:0:0:0:
329,192,195927,1,0,0:0:0:0:
36,192,196038,1,0,0:0:0:0:
475,192,196038,1,0,0:0:0:0:
182,192,196149,1,0,0:0:0:0:
329,192,196149,1,0,0:0:0:0:
36,192,196260,1,0,0:0:0:0:
475,192,196260,1,0,0:0:0:0:
256,192,196260,128,0,196927:0:0:0:0:
109,192,196371,1,0,0:0:0:0:
402,192,196371,1,0,0:0:0:0:
182,192,196482,1,0,0:0:0:0:
329,192,196482,1,0,0:0:0:0:
402,192,196593,1,0,0:0:0:0:
109,192,196593,1,0,0:0:0:0:
475,192,196705,1,0,0:0:0:0:
36,192,196705,1,0,0:0:0:0:
402,192,196816,1,0,0:0:0:0:
109,192,196816,1,0,0:0:0:0:
36,192,196927,5,0,0:0:0:0:
475,192,196927,1,0,0:0:0:0:
182,192,196927,1,0,0:0:0:0:
329,192,196927,1,0,0:0:0:0:
182,192,197260,1,0,0:0:0:0:
36,192,197371,1,0,0:0:0:0:
329,192,197482,1,0,0:0:0:0:
475,192,197593,1,0,0:0:0:0:
475,192,197927,1,0,0:0:0:0:
329,192,198038,1,0,0:0:0:0:
182,192,198149,1,0,0:0:0:0:
36,192,198260,1,0,0:0:0:0:
182,192,198927,1,0,0:0:0:0:
36,192,199038,1,0,0:0:0:0:
256,192,199149,1,0,0:0:0:0:
402,192,199260,1,0,0:0:0:0:
182,192,199371,1,0,0:0:0:0:
329,192,199482,1,0,0:0:0:0:
475,192,199593,1,0,0:0:0:0:
256,192,199927,1,0,0:0:0:0:
182,192,200038,1,0,0:0:0:0:
109,192,200149,1,0,0:0:0:0:
36,192,200260,1,0,0:0:0:0:
402,192,200593,1,0,0:0:0:0:
475,192,200705,1,0,0:0:0:0:
256,192,200816,1,0,0:0:0:0:
182,192,200927,1,0,0:0:0:0:
475,192,201593,1,0,0:0:0:0:
329,192,201705,1,0,0:0:0:0:
182,192,201816,1,0,0:0:0:0:
402,192,201927,1,0,0:0:0:0:
256,192,202038,1,0,0:0:0:0:
109,192,202149,1,0,0:0:0:0:
329,192,202260,1,0,0:0:0:0:
36,192,202593,1,0,0:0:0:0:
182,192,202705,1,0,0:0:0:0:
329,192,202816,1,0,0:0:0:0:
329,192,202927,1,0,0:0:0:0:
402,192,203260,1,0,0:0:0:0:
256,192,203371,1,0,0:0:0:0:
36,192,203482,1,0,0:0:0:0:
182,192,203593,1,0,0:0:0:0:
402,192,203927,1,0,0:0:0:0:
329,192,204038,1,0,0:0:0:0:
182,192,204149,1,0,0:0:0:0:
109,192,204260,1,0,0:0:0:0:
329,192,204427,1,0,0:0:0:0:
182,192,204593,1,0,0:0:0:0:
109,192,204760,1,0,0:0:0:0:
36,192,204927,1,0,0:0:0:0:
402,192,205260,1,0,0:0:0:0:
256,192,205371,1,0,0:0:0:0:
109,192,205482,1,0,0:0:0:0:
329,192,205593,1,0,0:0:0:0:
402,192,205927,1,0,0:0:0:0:
182,192,206260,1,0,0:0:0:0:
109,192,206927,5,0,0:0:0:0:
36,192,207593,1,0,0:0:0:0:
182,192,207594,5,0,0:0:0:0:
256,192,207927,1,0,0:0:0:0:
182,192,207927,1,0,0:0:0:0:
329,192,208038,1,0,0:0:0:0:
256,192,208038,1,0,0:0:0:0:
402,192,208149,1,0,0:0:0:0:
329,192,208149,1,0,0:0:0:0:
329,192,208260,1,0,0:0:0:0:
402,192,208260,1,0,0:0:0:0:
182,192,208593,1,0,0:0:0:0:
256,192,208594,1,0,0:0:0:0:
109,192,208927,1,0,0:0:0:0:
109,192,209593,1,0,0:0:0:0:
36,192,209594,1,0,0:0:0:0:
36,192,210260,1,0,0:0:0:0:
109,192,213510,1,0,0:0:0:0:
256,192,213522,1,0,0:0:0:0:
402,192,213522,1,0,0:0:0:0:
109,192,213855,1,0,0:0:0:0:
182,192,213966,1,0,0:0:0:0:
402,192,214077,1,0,0:0:0:0:
256,192,214077,1,0,0:0:0:0:
402,192,214188,1,0,0:0:0:0:
256,192,214188,1,0,0:0:0:0:
475,192,214522,1,0,0:0:0:0:
402,192,214855,1,0,0:0:0:0:
256,192,214855,1,0,0:0:0:0:
329,192,215522,1,0,0:0:0:0:
109,192,215522,1,0,0:0:0:0:
475,192,216188,1,0,0:0:0:0:
256,192,216188,1,0,0:0:0:0:
36,192,216522,1,0,0:0:0:0:
109,192,216633,1,0,0:0:0:0:
475,192,216744,1,0,0:0:0:0:
329,192,216744,1,0,0:0:0:0:
475,192,216855,1,0,0:0:0:0:
329,192,216855,1,0,0:0:0:0:
182,192,216966,1,0,0:0:0:0:
475,192,217077,1,0,0:0:0:0:
256,192,217188,1,0,0:0:0:0:
329,192,217299,1,0,0:0:0:0:
402,192,217410,1,0,0:0:0:0:
475,192,217522,1,0,0:0:0:0:
402,192,217966,1,0,0:0:0:0:
182,192,217966,1,0,0:0:0:0:
329,192,218077,1,0,0:0:0:0:
36,192,218077,1,0,0:0:0:0:
182,192,218188,1,0,0:0:0:0:
402,192,218188,1,0,0:0:0:0:
475,192,218855,1,0,0:0:0:0:
329,192,218855,1,0,0:0:0:0:
182,192,218855,1,0,0:0:0:0:
329,192,219188,1,0,0:0:0:0:
182,192,219299,1,0,0:0:0:0:
36,192,219410,1,0,0:0:0:0:
329,192,219522,1,0,0:0:0:0:
182,192,219855,1,0,0:0:0:0:
256,192,219966,1,0,0:0:0:0:
329,192,220077,1,0,0:0:0:0:
402,192,220188,1,0,0:0:0:0:
329,192,220299,1,0,0:0:0:0:
256,192,220410,1,0,0:0:0:0:
329,192,220522,1,0,0:0:0:0:
256,192,220633,1,0,0:0:0:0:
182,192,220744,1,0,0:0:0:0:
109,192,220855,1,0,0:0:0:0:
182,192,220966,1,0,0:0:0:0:
256,192,221077,1,0,0:0:0:0:
36,192,221188,1,0,0:0:0:0:
109,192,221299,1,0,0:0:0:0:
182,192,221410,1,0,0:0:0:0:
329,192,221522,1,0,0:0:0:0:
109,192,221855,1,0,0:0:0:0:
329,192,221855,1,0,0:0:0:0:
182,192,221966,1,0,0:0:0:0:
402,192,221966,1,0,0:0:0:0:
256,192,222077,1,0,0:0:0:0:
475,192,222077,1,0,0:0:0:0:
329,192,222188,1,0,0:0:0:0:
109,192,222188,1,0,0:0:0:0:
402,192,222299,1,0,0:0:0:0:
182,192,222299,1,0,0:0:0:0:
475,192,222410,1,0,0:0:0:0:
36,192,222410,1,0,0:0:0:0:
329,192,222522,1,0,0:0:0:0:
109,192,222522,1,0,0:0:0:0:
475,192,222633,1,0,0:0:0:0:
182,192,222633,1,0,0:0:0:0:
329,192,222744,1,0,0:0:0:0:
36,192,222744,1,0,0:0:0:0:
109,192,222855,1,0,0:0:0:0:
182,192,222966,1,0,0:0:0:0:
256,192,223077,5,0,0:0:0:0:
329,192,223188,1,0,0:0:0:0:
402,192,223299,1,0,0:0:0:0:
182,192,223299,1,0,0:0:0:0:
475,192,223410,1,0,0:0:0:0:
36,192,223410,1,0,0:0:0:0:
256,192,223522,128,0,224188:0:0:0:0:
329,192,223855,128,0,224188:0:0:0:0:
36,192,224188,5,0,0:0:0:0:
329,192,224355,1,0,0:0:0:0:
475,192,224466,1,0,0:0:0:0:
36,192,224522,1,0,0:0:0:0:
256,192,224688,1,0,0:0:0:0:
402,192,224855,1,0,0:0:0:0:
36,192,225188,1,0,0:0:0:0:
329,192,225522,1,0,0:0:0:0:
109,192,225688,1,0,0:0:0:0:
329,192,225855,1,0,0:0:0:0:
109,192,226022,1,0,0:0:0:0:
36,192,226188,1,0,0:0:0:0:
36,192,226522,1,0,0:0:0:0:
109,192,226688,1,0,0:0:0:0:
36,192,226855,1,0,0:0:0:0:
329,192,227022,1,0,0:0:0:0:
475,192,227133,1,0,0:0:0:0:
36,192,227188,1,0,0:0:0:0:
182,192,227355,1,0,0:0:0:0:
329,192,227521,1,0,0:0:0:0:
36,192,227855,1,0,0:0:0:0:
36,192,228188,1,0,0:0:0:0:
329,192,228355,1,0,0:0:0:0:
182,192,228521,1,0,0:0:0:0:
329,192,228688,1,0,0:0:0:0:
182,192,228855,1,0,0:0:0:0:
36,192,229188,1,0,0:0:0:0:
36,192,229522,1,0,0:0:0:0:
329,192,229688,1,0,0:0:0:0:
475,192,229799,1,0,0:0:0:0:
256,192,229855,1,0,0:0:0:0:
109,192,230021,1,0,0:0:0:0:
256,192,230188,1,0,0:0:0:0:
256,192,230522,1,0,0:0:0:0:
256,192,230855,1,0,0:0:0:0:
109,192,231021,1,0,0:0:0:0:
256,192,231188,1,0,0:0:0:0:
402,192,231355,1,0,0:0:0:0:
256,192,231522,1,0,0:0:0:0:
256,192,231855,1,0,0:0:0:0:
256,192,232188,1,0,0:0:0:0:
109,192,232355,1,0,0:0:0:0:
402,192,232466,1,0,0:0:0:0:
256,192,232522,1,0,0:0:0:0:
182,192,232688,1,0,0:0:0:0:
256,192,232855,1,0,0:0:0:0:
256,192,233188,1,0,0:0:0:0:
36,192,233521,1,0,0:0:0:0:
109,192,233688,5,0,0:0:0:0:
475,192,233855,1,0,0:0:0:0:
402,192,234021,1,0,0:0:0:0:
256,192,234188,1,0,0:0:0:0:
109,192,234521,1,0,0:0:0:0:
402,192,234688,1,0,0:0:0:0:
36,192,234855,1,0,0:0:0:0:
475,192,234855,1,0,0:0:0:0:
256,192,234855,1,0,0:0:0:0:
109,192,235077,1,0,0:0:0:0:
402,192,235077,1,0,0:0:0:0:
182,192,235299,1,0,0:0:0:0:
329,192,235299,1,0,0:0:0:0:
36,192,235521,1,0,0:0:0:0:
475,192,235521,1,0,0:0:0:0:
402,192,235855,1,0,0:0:0:0:
36,192,235855,1,0,0:0:0:0:
329,192,235966,1,0,0:0:0:0:
256,192,236077,1,0,0:0:0:0:
182,192,236188,1,0,0:0:0:0:
36,192,236188,1,0,0:0:0:0:
256,192,236244,1,0,0:0:0:0:
329,192,236299,1,0,0:0:0:0:
402,192,236355,1,0,0:0:0:0:
109,192,236410,1,0,0:0:0:0:
182,192,236466,1,0,0:0:0:0:
256,192,236521,1,0,0:0:0:0:
475,192,236521,1,0,0:0:0:0:
36,192,236771,1,0,0:0:0:0:
109,192,236855,1,0,0:0:0:0:
402,192,236855,1,0,0:0:0:0:
36,192,237188,1,0,0:0:0:0:
329,192,237188,1,0,0:0:0:0:
109,192,237355,1,0,0:0:0:0:
402,192,237355,1,0,0:0:0:0:
36,192,237521,1,0,0:0:0:0:
475,192,237521,1,0,0:0:0:0:
36,192,237771,1,0,0:0:0:0:
182,192,237855,1,0,0:0:0:0:
475,192,237855,1,0,0:0:0:0:
329,192,238021,1,0,0:0:0:0:
36,192,238188,1,0,0:0:0:0:
182,192,238188,1,0,0:0:0:0:
256,192,238521,1,0,0:0:0:0:
109,192,238521,1,0,0:0:0:0:
402,192,238688,1,0,0:0:0:0:
182,192,238855,1,0,0:0:0:0:
475,192,238855,1,0,0:0:0:0:
475,192,239105,1,0,0:0:0:0:
329,192,239188,1,0,0:0:0:0:
36,192,239188,1,0,0:0:0:0:
182,192,239355,1,0,0:0:0:0:
475,192,239521,128,0,239855:0:0:0:0:
329,192,239633,128,0,239855:0:0:0:0:
182,192,239744,128,0,239855:0:0:0:0:
402,192,239855,128,0,240188:0:0:0:0:
36,192,239855,1,0,0:0:0:0:
256,192,239966,128,0,240188:0:0:0:0:
109,192,240077,128,0,240188:0:0:0:0:
36,192,240188,1,0,0:0:0:0:
475,192,240438,1,0,0:0:0:0:
329,192,240521,1,0,0:0:0:0:
36,192,240521,1,0,0:0:0:0:
182,192,240688,1,0,0:0:0:0:
329,192,240855,1,0,0:0:0:0:
475,192,240855,1,0,0:0:0:0:
256,192,241188,1,0,0:0:0:0:
182,192,241299,1,0,0:0:0:0:
109,192,241410,1,0,0:0:0:0:
36,192,241521,1,0,0:0:0:0:
475,192,241521,1,0,0:0:0:0:
182,192,241855,1,0,0:0:0:0:
475,192,241855,1,0,0:0:0:0:
256,192,241966,1,0,0:0:0:0:
329,192,242077,1,0,0:0:0:0:
402,192,242188,1,0,0:0:0:0:
109,192,242188,1,0,0:0:0:0:
402,192,242410,1,0,0:0:0:0:
109,192,242410,1,0,0:0:0:0:
402,192,242633,1,0,0:0:0:0:
109,192,242633,1,0,0:0:0:0:
475,192,242855,1,0,0:0:0:0:
36,192,242855,1,0,0:0:0:0:
36,192,243021,1,0,0:0:0:0:
109,192,243077,1,0,0:0:0:0:
182,192,243133,1,0,0:0:0:0:
256,192,243188,1,0,0:0:0:0:
475,192,243244,1,0,0:0:0:0:
402,192,243299,1,0,0:0:0:0:
329,192,243355,1,0,0:0:0:0:
256,192,243410,1,0,0:0:0:0:
182,192,243466,1,0,0:0:0:0:
36,192,243521,1,0,0:0:0:0:
475,192,243521,1,0,0:0:0:0:
109,192,243633,1,0,0:0:0:0:
182,192,243744,1,0,0:0:0:0:
475,192,243855,1,0,0:0:0:0:
36,192,243855,1,0,0:0:0:0:
402,192,243910,1,0,0:0:0:0:
329,192,243966,1,0,0:0:0:0:
256,192,244021,1,0,0:0:0:0:
182,192,244077,1,0,0:0:0:0:
109,192,244133,1,0,0:0:0:0:
36,192,244188,1,0,0:0:0:0:
475,192,244188,1,0,0:0:0:0:
109,192,244355,5,0,0:0:0:0:
402,192,244355,1,0,0:0:0:0:
109,192,244521,1,0,0:0:0:0:
402,192,244521,1,0,0:0:0:0:
182,192,244688,1,0,0:0:0:0:
329,192,244744,1,0,0:0:0:0:
36,192,244855,1,0,0:0:0:0:
475,192,245021,1,0,0:0:0:0:
402,192,245077,1,0,0:0:0:0:
329,192,245133,1,0,0:0:0:0:
256,192,245188,1,0,0:0:0:0:
36,192,245188,1,0,0:0:0:0:
402,192,245244,1,0,0:0:0:0:
329,192,245299,1,0,0:0:0:0:
256,192,245355,1,0,0:0:0:0:
182,192,245410,1,0,0:0:0:0:
109,192,245466,1,0,0:0:0:0:
475,192,245521,1,0,0:0:0:0:
36,192,245521,128,0,248188:0:0:0:0:
402,192,245771,1,0,0:0:0:0:
256,192,246021,1,0,0:0:0:0:
402,192,246188,1,0,0:0:0:0:
182,192,246355,1,0,0:0:0:0:
329,192,246521,1,0,0:0:0:0:
256,192,246688,1,0,0:0:0:0:
475,192,246855,128,0,248188:0:0:0:0:
182,192,246855,1,0,0:0:0:0:
329,192,247021,1,0,0:0:0:0:
182,192,247188,1,0,0:0:0:0:
329,192,247355,1,0,0:0:0:0:
182,192,247521,1,0,0:0:0:0:
256,192,247771,1,0,0:0:0:0:
182,192,247855,1,0,0:0:0:0:
329,192,248021,1,0,0:0:0:0:
109,192,248188,128,0,249521:0:0:0:0:
402,192,248188,1,0,0:0:0:0:
329,192,248355,1,0,0:0:0:0:
402,192,248521,1,0,0:0:0:0:
329,192,248605,1,0,0:0:0:0:
256,192,248688,1,0,0:0:0:0:
182,192,248771,1,0,0:0:0:0:
402,192,248855,128,0,249521:0:0:0:0:
36,192,248855,1,0,0:0:0:0:
182,192,249105,1,0,0:0:0:0:
329,192,249188,1,0,0:0:0:0:
256,192,249355,1,0,0:0:0:0:
182,192,249521,128,0,250855:0:0:0:0:
329,192,249521,1,0,0:0:0:0:
36,192,249855,1,0,0:0:0:0:
109,192,250021,1,0,0:0:0:0:
329,192,250188,128,0,250855:0:0:0:0:
36,192,250188,1,0,0:0:0:0:
109,192,250438,1,0,0:0:0:0:
36,192,250521,1,0,0:0:0:0:
256,192,250688,1,0,0:0:0:0:
109,192,250855,128,0,252188:0:0:0:0:
475,192,250855,1,0,0:0:0:0:
402,192,250938,1,0,0:0:0:0:
329,192,251021,1,0,0:0:0:0:
256,192,251188,1,0,0:0:0:0:
182,192,251355,1,0,0:0:0:0:
256,192,251438,1,0,0:0:0:0:
329,192,251521,1,0,0:0:0:0:
475,192,251688,1,0,0:0:0:0:
256,192,251855,1,0,0:0:0:0:
329,192,251938,1,0,0:0:0:0:
402,192,252021,1,0,0:0:0:0:
475,192,252188,128,0,253188:0:0:0:0:
256,192,252188,1,0,0:0:0:0:
182,192,252271,1,0,0:0:0:0:
256,192,252438,1,0,0:0:0:0:
329,192,252521,1,0,0:0:0:0:
256,192,252688,1,0,0:0:0:0:
182,192,252855,1,0,0:0:0:0:
329,192,252855,1,0,0:0:0:0:
256,192,253021,1,0,0:0:0:0:
109,192,253188,1,0,0:0:0:0:
402,192,253188,1,0,0:0:0:0:
182,192,253355,1,0,0:0:0:0:
329,192,253355,1,0,0:0:0:0:
36,192,253521,128,0,254855:0:0:0:0:
256,192,253521,1,0,0:0:0:0:
475,192,253521,1,0,0:0:0:0:
329,192,253688,1,0,0:0:0:0:
182,192,253855,1,0,0:0:0:0:
475,192,254021,1,0,0:0:0:0:
402,192,254105,1,0,0:0:0:0:
329,192,254188,1,0,0:0:0:0:
182,192,254355,1,0,0:0:0:0:
475,192,254521,1,0,0:0:0:0:
182,192,254688,1,0,0:0:0:0:
402,192,254855,128,0,256188:0:0:0:0:
109,192,254855,1,0,0:0:0:0:
182,192,255021,5,0,0:0:0:0:
256,192,255188,1,0,0:0:0:0:
329,192,255271,1,0,0:0:0:0:
36,192,255521,1,0,0:0:0:0:
109,192,255605,1,0,0:0:0:0:
182,192,255688,1,0,0:0:0:0:
256,192,255855,1,0,0:0:0:0:
182,192,256021,1,0,0:0:0:0:
329,192,256021,1,0,0:0:0:0:
475,192,256188,5,0,0:0:0:0:
36,192,256188,1,0,0:0:0:0:
256,192,256188,128,0,257521:0:0:0:0:
109,192,256355,1,0,0:0:0:0:
182,192,256521,1,0,0:0:0:0:
109,192,256688,1,0,0:0:0:0:
36,192,256855,1,0,0:0:0:0:
182,192,256855,1,0,0:0:0:0:
329,192,257105,1,0,0:0:0:0:
475,192,257188,1,0,0:0:0:0:
36,192,257355,1,0,0:0:0:0:
402,192,257521,128,0,258855:0:0:0:0:
109,192,257521,1,0,0:0:0:0:
182,192,257688,1,0,0:0:0:0:
36,192,257855,1,0,0:0:0:0:
109,192,258021,1,0,0:0:0:0:
182,192,258188,1,0,0:0:0:0:
329,192,258271,1,0,0:0:0:0:
109,192,258521,1,0,0:0:0:0:
256,192,258521,1,0,0:0:0:0:
182,192,258688,1,0,0:0:0:0:
256,192,258855,128,0,259521:0:0:0:0:
36,192,258855,1,0,0:0:0:0:
475,192,258855,1,0,0:0:0:0:
402,192,259021,1,0,0:0:0:0:
109,192,259105,1,0,0:0:0:0:
402,192,259355,1,0,0:0:0:0:
36,192,259521,128,0,260188:0:0:0:0:
329,192,259521,1,0,0:0:0:0:
475,192,259521,1,0,0:0:0:0:
402,192,259688,1,0,0:0:0:0:
329,192,259855,1,0,0:0:0:0:
256,192,260021,1,0,0:0:0:0:
109,192,260188,128,0,260855:0:0:0:0:
329,192,260188,1,0,0:0:0:0:
475,192,260188,1,0,0:0:0:0:
256,192,260355,1,0,0:0:0:0:
402,192,260521,1,0,0:0:0:0:
182,192,260855,128,0,261521:0:0:0:0:
329,192,260855,1,0,0:0:0:0:
475,192,260855,1,0,0:0:0:0:
402,192,261021,1,0,0:0:0:0:
329,192,261188,1,0,0:0:0:0:
256,192,261355,1,0,0:0:0:0:
256,192,261521,128,0,262855:0:0:0:0:
36,192,261521,1,0,0:0:0:0:
109,192,261688,1,0,0:0:0:0:
182,192,261855,1,0,0:0:0:0:
329,192,262021,1,0,0:0:0:0:
36,192,262188,1,0,0:0:0:0:
109,192,262271,1,0,0:0:0:0:
182,192,262355,1,0,0:0:0:0:
329,192,262521,1,0,0:0:0:0:
475,192,262521,1,0,0:0:0:0:
475,192,262688,1,0,0:0:0:0:
329,192,262855,128,0,264188:0:0:0:0:
36,192,262855,1,0,0:0:0:0:
402,192,262855,1,0,0:0:0:0:
182,192,263021,1,0,0:0:0:0:
36,192,263188,1,0,0:0:0:0:
182,192,263355,1,0,0:0:0:0:
109,192,263521,1,0,0:0:0:0:
402,192,263521,1,0,0:0:0:0:
182,192,263688,1,0,0:0:0:0:
109,192,263855,1,0,0:0:0:0:
182,192,264021,1,0,0:0:0:0:
402,192,264188,128,0,264855:0:0:0:0:
36,192,264188,1,0,0:0:0:0:
109,192,264355,1,0,0:0:0:0:
182,192,264521,1,0,0:0:0:0:
475,192,264855,128,0,265521:0:0:0:0:
36,192,264855,1,0,0:0:0:0:
109,192,265105,1,0,0:0:0:0:
182,192,265188,1,0,0:0:0:0:
329,192,265355,1,0,0:0:0:0:
402,192,265355,1,0,0:0:0:0:
182,192,265521,128,0,266188:0:0:0:0:
36,192,265521,1,0,0:0:0:0:
256,192,265688,5,0,0:0:0:0:
475,192,265855,1,0,0:0:0:0:
475,192,266188,128,0,266855:0:0:0:0:
329,192,266188,1,0,0:0:0:0:
256,192,266355,1,0,0:0:0:0:
182,192,266521,1,0,0:0:0:0:
36,192,266855,5,0,0:0:0:0:
256,192,266855,5,0,0:0:0:0:
402,192,266855,1,0,0:0:0:0:
109,192,266966,1,0,0:0:0:0:
182,192,267077,1,0,0:0:0:0:
109,192,267188,1,0,0:0:0:0:
475,192,267188,1,0,0:0:0:0:
182,192,267299,1,0,0:0:0:0:
256,192,267410,1,0,0:0:0:0:
182,192,267521,1,0,0:0:0:0:
475,192,267521,1,0,0:0:0:0:
256,192,267633,1,0,0:0:0:0:
329,192,267744,1,0,0:0:0:0:
256,192,267855,1,0,0:0:0:0:
36,192,267855,1,0,0:0:0:0:
329,192,267966,1,0,0:0:0:0:
402,192,268077,1,0,0:0:0:0:
475,192,268188,1,0,0:0:0:0:
36,192,268188,1,0,0:0:0:0:
402,192,268244,1,0,0:0:0:0:
329,192,268299,1,0,0:0:0:0:
256,192,268355,1,0,0:0:0:0:
182,192,268410,1,0,0:0:0:0:
109,192,268466,1,0,0:0:0:0:
36,192,268521,1,0,0:0:0:0:
109,192,268577,1,0,0:0:0:0:
182,192,268633,1,0,0:0:0:0:
256,192,268688,1,0,0:0:0:0:
329,192,268744,1,0,0:0:0:0:
402,192,268799,1,0,0:0:0:0:
475,192,268855,1,0,0:0:0:0:
36,192,268910,1,0,0:0:0:0:
109,192,268966,1,0,0:0:0:0:
182,192,269021,1,0,0:0:0:0:
256,192,269077,1,0,0:0:0:0:
329,192,269133,1,0,0:0:0:0:
402,192,269188,1,0,0:0:0:0:
475,192,269244,1,0,0:0:0:0:
402,192,269299,1,0,0:0:0:0:
329,192,269355,1,0,0:0:0:0:
256,192,269410,1,0,0:0:0:0:
182,192,269466,1,0,0:0:0:0:
36,192,269521,1,0,0:0:0:0:
109,192,269521,1,0,0:0:0:0:
475,192,269521,128,0,269855:0:0:0:0:
329,192,269855,128,0,270188:0:0:0:0:
36,192,269855,1,0,0:0:0:0:
182,192,269855,1,0,0:0:0:0:
182,192,270188,128,0,270521:0:0:0:0:
36,192,270188,1,0,0:0:0:0:
475,192,270188,1,0,0:0:0:0:
36,192,270521,128,0,270855:0:0:0:0:
329,192,270521,1,0,0:0:0:0:
475,192,270521,1,0,0:0:0:0:
182,192,270855,128,0,271105:0:0:0:0:
475,192,270855,1,0,0:0:0:0:
329,192,271021,128,0,271271:0:0:0:0:
36,192,271021,1,0,0:0:0:0:
182,192,271188,128,0,271438:0:0:0:0:
475,192,271188,1,0,0:0:0:0:
329,192,271355,128,0,271605:0:0:0:0:
36,192,271355,1,0,0:0:0:0:
182,192,271521,128,0,271855:0:0:0:0:
475,192,271521,1,0,0:0:0:0:
329,192,271688,128,0,271938:0:0:0:0:
36,192,271688,1,0,0:0:0:0:
475,192,271855,128,0,272188:0:0:0:0:
109,192,271855,1,0,0:0:0:0:
329,192,272021,128,0,272188:0:0:0:0:
182,192,272021,1,0,0:0:0:0:
36,192,272188,128,0,272521:0:0:0:0:
256,192,272188,1,0,0:0:0:0:
109,192,272188,1,0,0:0:0:0:
329,192,272299,1,0,0:0:0:0:
402,192,272410,1,0,0:0:0:0:
182,192,272521,128,0,272855:0:0:0:0:
329,192,272521,1,0,0:0:0:0:
109,192,272521,1,0,0:0:0:0:
402,192,272633,1,0,0:0:0:0:
475,192,272744,1,0,0:0:0:0:
329,192,272855,128,0,273188:0:0:0:0:
36,192,272855,1,0,0:0:0:0:
256,192,272855,1,0,0:0:0:0:
475,192,273188,128,0,274855:0:0:0:0:
36,192,273188,1,0,0:0:0:0:
182,192,273188,1,0,0:0:0:0:
256,192,273521,1,0,0:0:0:0:
182,192,273577,1,0,0:0:0:0:
109,192,273633,1,0,0:0:0:0:
36,192,273688,1,0,0:0:0:0:
256,192,273744,1,0,0:0:0:0:
182,192,273799,1,0,0:0:0:0:
109,192,273855,1,0,0:0:0:0:
36,192,273910,1,0,0:0:0:0:
109,192,273966,1,0,0:0:0:0:
182,192,274021,1,0,0:0:0:0:
256,192,274077,1,0,0:0:0:0:
329,192,274133,1,0,0:0:0:0:
402,192,274188,1,0,0:0:0:0:
182,192,274244,1,0,0:0:0:0:
256,192,274299,1,0,0:0:0:0:
329,192,274355,1,0,0:0:0:0:
402,192,274410,1,0,0:0:0:0:
329,192,274466,1,0,0:0:0:0:
256,192,274521,1,0,0:0:0:0:
182,192,274577,1,0,0:0:0:0:
109,192,274633,1,0,0:0:0:0:
329,192,274688,1,0,0:0:0:0:
256,192,274744,1,0,0:0:0:0:
182,192,274799,1,0,0:0:0:0:
402,192,274855,128,0,275188:0:0:0:0:
109,192,274855,1,0,0:0:0:0:
36,192,274855,1,0,0:0:0:0:
329,192,275188,128,0,275521:0:0:0:0:
36,192,275188,1,0,0:0:0:0:
182,192,275188,1,0,0:0:0:0:
256,192,275521,128,0,275855:0:0:0:0:
36,192,275521,1,0,0:0:0:0:
475,192,275521,1,0,0:0:0:0:
182,192,275855,128,0,277521:0:0:0:0:
36,192,275855,1,0,0:0:0:0:
475,192,275855,1,0,0:0:0:0:
329,192,276188,128,0,276299:0:0:0:0:
36,192,276188,1,0,0:0:0:0:
402,192,276299,128,0,276410:0:0:0:0:
36,192,276299,1,0,0:0:0:0:
475,192,276410,128,0,276521:0:0:0:0:
36,192,276410,1,0,0:0:0:0:
256,192,276521,128,0,276633:0:0:0:0:
109,192,276521,1,0,0:0:0:0:
329,192,276633,128,0,276744:0:0:0:0:
109,192,276633,1,0,0:0:0:0:
402,192,276744,128,0,276855:0:0:0:0:
109,192,276744,1,0,0:0:0:0:
36,192,276855,128,0,276966:0:0:0:0:
256,192,276855,1,0,0:0:0:0:
475,192,276966,128,0,277077:0:0:0:0:
329,192,276966,1,0,0:0:0:0:
109,192,277077,128,0,277188:0:0:0:0:
36,192,277077,1,0,0:0:0:0:
402,192,277188,128,0,277299:0:0:0:0:
329,192,277188,1,0,0:0:0:0:
36,192,277299,128,0,277521:0:0:0:0:
256,192,277299,1,0,0:0:0:0:
475,192,277410,128,0,277521:0:0:0:0:
402,192,277410,1,0,0:0:0:0:
329,192,277521,1,0,0:0:0:0:
329,192,277688,1,0,0:0:0:0:
109,192,277855,1,0,0:0:0:0:
256,192,277855,1,0,0:0:0:0:
402,192,277855,1,0,0:0:0:0:
109,192,278021,1,0,0:0:0:0:
36,192,278188,1,0,0:0:0:0:
182,192,278188,1,0,0:0:0:0:
475,192,278188,1,0,0:0:0:0:
182,192,278355,1,0,0:0:0:0:
329,192,278521,1,0,0:0:0:0:
256,192,278521,1,0,0:0:0:0:
109,192,278521,1,0,0:0:0:0:
109,192,278688,1,0,0:0:0:0:
402,192,278855,1,0,0:0:0:0:
475,192,278855,1,0,0:0:0:0:
182,192,278855,1,0,0:0:0:0:
402,192,279021,1,0,0:0:0:0:
36,192,279188,1,0,0:0:0:0:
109,192,279188,1,0,0:0:0:0:
329,192,279188,1,0,0:0:0:0:
329,192,279355,1,0,0:0:0:0:
475,192,279521,1,0,0:0:0:0:
182,192,279521,1,0,0:0:0:0:
329,192,279633,1,0,0:0:0:0:
36,192,279633,1,0,0:0:0:0:
402,192,279744,1,0,0:0:0:0:
109,192,279744,1,0,0:0:0:0:
182,192,279855,1,0,0:0:0:0:
475,192,279855,1,0,0:0:0:0:
329,192,279966,1,0,0:0:0:0:
36,192,279966,1,0,0:0:0:0:
475,192,280077,1,0,0:0:0:0:
182,192,280077,1,0,0:0:0:0:
329,192,280188,1,0,0:0:0:0:
36,192,280188,1,0,0:0:0:0:
256,192,280188,1,0,0:0:0:0:
256,192,280355,1,0,0:0:0:0:
109,192,280521,1,0,0:0:0:0:
182,192,280521,1,0,0:0:0:0:
402,192,280521,1,0,0:0:0:0:
109,192,280688,1,0,0:0:0:0:
256,192,280855,1,0,0:0:0:0:
329,192,280855,1,0,0:0:0:0:
36,192,280855,1,0,0:0:0:0:
329,192,281021,1,0,0:0:0:0:
402,192,281188,1,0,0:0:0:0:
475,192,281188,1,0,0:0:0:0:
182,192,281188,1,0,0:0:0:0:
182,192,281355,1,0,0:0:0:0:
109,192,281521,1,0,0:0:0:0:
256,192,281521,1,0,0:0:0:0:
36,192,281521,1,0,0:0:0:0:
256,192,281688,1,0,0:0:0:0:
182,192,281855,1,0,0:0:0:0:
329,192,281855,1,0,0:0:0:0:
475,192,281855,1,0,0:0:0:0:
182,192,282021,1,0,0:0:0:0:
256,192,282188,128,0,282355:0:0:0:0:
109,192,282188,128,0,282355:0:0:0:0:
402,192,282188,128,0,282355:0:0:0:0:
329,192,282438,1,0,0:0:0:0:
182,192,282438,1,0,0:0:0:0:
402,192,282521,128,0,282688:0:0:0:0:
256,192,282521,128,0,282688:0:0:0:0:
109,192,282521,128,0,282688:0:0:0:0:
182,192,282771,1,0,0:0:0:0:
329,192,282771,1,0,0:0:0:0:
256,192,282854,1,0,0:0:0:0:
475,192,282855,1,0,0:0:0:0:
36,192,282855,1,0,0:0:0:0:
109,192,283188,1,0,0:0:0:0:
256,192,283188,1,0,0:0:0:0:
402,192,283188,1,0,0:0:0:0:
36,192,283521,128,0,283855:0:0:0:0:
329,192,283521,128,0,283855:0:0:0:0:
182,192,283521,1,0,0:0:0:0:
402,192,283855,1,0,0:0:0:0:
256,192,283855,1,0,0:0:0:0:
109,192,283855,1,0,0:0:0:0:
475,192,284188,128,0,284521:0:0:0:0:
182,192,284188,128,0,284521:0:0:0:0:
329,192,284188,1,0,0:0:0:0:
256,192,284521,1,0,0:0:0:0:
402,192,284521,1,0,0:0:0:0:
109,192,284521,1,0,0:0:0:0:
36,192,284855,128,0,285521:0:0:0:0:
329,192,284855,128,0,285521:0:0:0:0:
182,192,284855,1,0,0:0:0:0:
182,192,285188,1,0,0:0:0:0:
475,192,285188,1,0,0:0:0:0:
109,192,285521,5,0,0:0:0:0:
256,192,285521,1,0,0:0:0:0:
402,192,285521,1,0,0:0:0:0:
475,192,285855,1,0,0:0:0:0:
402,192,285910,1,0,0:0:0:0:
329,192,285966,1,0,0:0:0:0:
256,192,286021,1,0,0:0:0:0:
182,192,286077,1,0,0:0:0:0:
475,192,286133,1,0,0:0:0:0:
329,192,286188,1,0,0:0:0:0:
182,192,286244,1,0,0:0:0:0:
36,192,286410,1,0,0:0:0:0:
109,192,286466,1,0,0:0:0:0:
182,192,286521,1,0,0:0:0:0:
256,192,286577,1,0,0:0:0:0:
329,192,286633,1,0,0:0:0:0:
36,192,286688,1,0,0:0:0:0:
182,192,286744,1,0,0:0:0:0:
329,192,286799,1,0,0:0:0:0:
402,192,286966,1,0,0:0:0:0:
329,192,287021,1,0,0:0:0:0:
256,192,287077,1,0,0:0:0:0:
182,192,287133,1,0,0:0:0:0:
109,192,287188,1,0,0:0:0:0:
36,192,287244,1,0,0:0:0:0:
182,192,287299,1,0,0:0:0:0:
329,192,287355,1,0,0:0:0:0:
475,192,287410,1,0,0:0:0:0:
36,192,287466,1,0,0:0:0:0:
182,192,287521,1,0,0:0:0:0:
329,192,287577,1,0,0:0:0:0:
475,192,287633,1,0,0:0:0:0:
36,192,287688,1,0,0:0:0:0:
182,192,287744,1,0,0:0:0:0:
329,192,287799,1,0,0:0:0:0:
475,192,287855,1,0,0:0:0:0:
36,192,287910,1,0,0:0:0:0:
182,192,287966,1,0,0:0:0:0:
329,192,288021,1,0,0:0:0:0:
475,192,288077,1,0,0:0:0:0:
36,192,288133,1,0,0:0:0:0:
182,192,288188,1,0,0:0:0:0:
329,192,288244,1,0,0:0:0:0:
475,192,288299,1,0,0:0:0:0:
329,192,288355,1,0,0:0:0:0:
182,192,288410,1,0,0:0:0:0:
36,192,288466,1,0,0:0:0:0:
475,192,288521,1,0,0:0:0:0:
329,192,288577,1,0,0:0:0:0:
182,192,288633,1,0,0:0:0:0:
256,192,288688,1,0,0:0:0:0:
329,192,288744,1,0,0:0:0:0:
402,192,288799,1,0,0:0:0:0:
109,192,288855,1,0,0:0:0:0:
182,192,288910,1,0,0:0:0:0:
256,192,288966,1,0,0:0:0:0:
329,192,289021,1,0,0:0:0:0:
402,192,289077,1,0,0:0:0:0:
36,192,289133,1,0,0:0:0:0:
109,192,289188,1,0,0:0:0:0:
182,192,289244,1,0,0:0:0:0:
256,192,289299,1,0,0:0:0:0:
329,192,289355,1,0,0:0:0:0:
402,192,289410,1,0,0:0:0:0:
475,192,289466,1,0,0:0:0:0:
182,192,289521,1,0,0:0:0:0:
329,192,289577,1,0,0:0:0:0:
109,192,289633,1,0,0:0:0:0:
402,192,289688,5,0,0:0:0:0:
182,192,289744,5,0,0:0:0:0:
329,192,289799,5,0,0:0:0:0:
109,192,289855,5,0,0:0:0:0:
402,192,289910,5,0,0:0:0:0:
182,192,289966,5,0,0:0:0:0:
329,192,290021,1,0,0:0:0:0:
109,192,290077,5,0,0:0:0:0:
402,192,290133,1,0,0:0:0:0:
182,192,290188,5,0,0:0:0:0:
329,192,290244,1,0,0:0:0:0:
109,192,290299,5,0,0:0:0:0:
402,192,290355,1,0,0:0:0:0:
256,192,290410,1,0,0:0:0:0:
109,192,290466,1,0,0:0:0:0:
36,192,290521,5,0,0:0:0:0:
109,192,290577,5,0,0:0:0:0:
182,192,290633,5,0,0:0:0:0:
256,192,290688,5,0,0:0:0:0:
329,192,290744,5,0,0:0:0:0:
402,192,290799,5,0,0:0:0:0:
36,192,290855,5,0,0:0:0:0:
182,192,290855,1,0,0:0:0:0:
475,192,290855,1,0,0:0:0:0:
182,192,290966,1,0,0:0:0:0:
36,192,290966,1,0,0:0:0:0:
475,192,290966,1,0,0:0:0:0:
182,192,291077,1,0,0:0:0:0:
36,192,291077,1,0,0:0:0:0:
475,192,291077,1,0,0:0:0:0:
182,192,291188,1,0,0:0:0:0:
36,192,291188,1,0,0:0:0:0:
475,192,291188,1,0,0:0:0:0:
36,192,291855,1,0,0:0:0:0:
475,192,291855,1,0,0:0:0:0:
329,192,291855,1,0,0:0:0:0:
329,192,291966,1,0,0:0:0:0:
475,192,291966,1,0,0:0:0:0:
36,192,291966,1,0,0:0:0:0:
329,192,292077,1,0,0:0:0:0:
475,192,292077,1,0,0:0:0:0:
36,192,292077,1,0,0:0:0:0:
329,192,292188,1,0,0:0:0:0:
475,192,292188,1,0,0:0:0:0:
36,192,292188,1,0,0:0:0:0:
475,192,292521,1,0,0:0:0:0:
402,192,292521,1,0,0:0:0:0:
329,192,292521,1,0,0:0:0:0:
182,192,292633,1,0,0:0:0:0:
109,192,292633,1,0,0:0:0:0:
182,192,292744,1,0,0:0:0:0:
109,192,292744,1,0,0:0:0:0:
475,192,292855,1,0,0:0:0:0:
329,192,292855,1,0,0:0:0:0:
329,192,292966,1,0,0:0:0:0:
475,192,292966,1,0,0:0:0:0:
329,192,293077,1,0,0:0:0:0:
475,192,293077,1,0,0:0:0:0:
182,192,293188,1,0,0:0:0:0:
36,192,293188,1,0,0:0:0:0:
182,192,293299,1,0,0:0:0:0:
36,192,293299,1,0,0:0:0:0:
36,192,293410,1,0,0:0:0:0:
182,192,293410,1,0,0:0:0:0:
402,192,293521,1,0,0:0:0:0:
329,192,293521,1,0,0:0:0:0:
402,192,293633,1,0,0:0:0:0:
329,192,293633,1,0,0:0:0:0:
402,192,293744,1,0,0:0:0:0:
329,192,293744,1,0,0:0:0:0:
402,192,293855,1,0,0:0:0:0:
329,192,293855,1,0,0:0:0:0:
182,192,294521,1,0,0:0:0:0:
36,192,294521,1,0,0:0:0:0:
329,192,294521,1,0,0:0:0:0:
475,192,294521,1,0,0:0:0:0:
256,192,294521,1,0,0:0:0:0:
182,192,294633,1,0,0:0:0:0:
36,192,294633,1,0,0:0:0:0:
329,192,294633,1,0,0:0:0:0:
475,192,294633,1,0,0:0:0:0:
256,192,294633,1,0,0:0:0:0:
182,192,294744,1,0,0:0:0:0:
36,192,294744,1,0,0:0:0:0:
329,192,294744,1,0,0:0:0:0:
475,192,294744,1,0,0:0:0:0:
256,192,294744,1,0,0:0:0:0:
36,192,294855,1,0,0:0:0:0:
182,192,294855,1,0,0:0:0:0:
256,192,294855,1,0,0:0:0:0:
329,192,294855,1,0,0:0:0:0:
475,192,294855,1,0,0:0:0:0:
182,192,295188,1,0,0:0:0:0:
109,192,295188,1,0,0:0:0:0:
182,192,295299,1,0,0:0:0:0:
109,192,295299,1,0,0:0:0:0:
109,192,295410,1,0,0:0:0:0:
182,192,295410,1,0,0:0:0:0:
475,192,295521,1,0,0:0:0:0:
329,192,295521,1,0,0:0:0:0:
329,192,295633,1,0,0:0:0:0:
475,192,295633,1,0,0:0:0:0:
329,192,295744,1,0,0:0:0:0:
475,192,295744,1,0,0:0:0:0:
36,192,295855,1,0,0:0:0:0:
182,192,295855,1,0,0:0:0:0:
182,192,295966,1,0,0:0:0:0:
36,192,295966,1,0,0:0:0:0:
182,192,296077,1,0,0:0:0:0:
36,192,296077,1,0,0:0:0:0:
256,192,296188,1,0,0:0:0:0:
109,192,296188,1,0,0:0:0:0:
402,192,296188,128,0,296633:0:0:0:0:
109,192,296410,1,0,0:0:0:0:
182,192,296410,1,0,0:0:0:0:
36,192,296410,1,0,0:0:0:0:
182,192,296633,1,0,0:0:0:0:
109,192,296633,1,0,0:0:0:0:
36,192,296633,1,0,0:0:0:0:
329,192,296744,1,0,0:0:0:0:
402,192,296799,1,0,0:0:0:0:
182,192,296855,1,0,0:0:0:0:
109,192,296855,1,0,0:0:0:0:
36,192,296855,1,0,0:0:0:0:
475,192,296855,1,0,0:0:0:0:
329,192,297021,1,0,0:0:0:0:
402,192,297077,1,0,0:0:0:0:
182,192,297077,1,0,0:0:0:0:
109,192,297077,1,0,0:0:0:0:
36,192,297077,1,0,0:0:0:0:
475,192,297133,1,0,0:0:0:0:
329,192,297299,1,0,0:0:0:0:
182,192,297299,1,0,0:0:0:0:
109,192,297299,1,0,0:0:0:0:
36,192,297299,1,0,0:0:0:0:
402,192,297355,1,0,0:0:0:0:
475,192,297410,1,0,0:0:0:0:
182,192,297521,1,0,0:0:0:0:
109,192,297521,1,0,0:0:0:0:
36,192,297521,1,0,0:0:0:0:
329,192,297577,1,0,0:0:0:0:
402,192,297633,1,0,0:0:0:0:
475,192,297688,1,0,0:0:0:0:
182,192,297744,1,0,0:0:0:0:
109,192,297744,1,0,0:0:0:0:
36,192,297744,1,0,0:0:0:0:
475,192,297855,1,0,0:0:0:0:
402,192,297910,1,0,0:0:0:0:
329,192,297966,1,0,0:0:0:0:
256,192,298021,1,0,0:0:0:0:
402,192,298077,1,0,0:0:0:0:
329,192,298133,1,0,0:0:0:0:
256,192,298188,1,0,0:0:0:0:
182,192,298244,1,0,0:0:0:0:
109,192,298299,1,0,0:0:0:0:
256,192,298355,1,0,0:0:0:0:
182,192,298410,1,0,0:0:0:0:
109,192,298466,1,0,0:0:0:0:
36,192,298521,1,0,0:0:0:0:
182,192,298633,1,0,0:0:0:0:
36,192,298633,1,0,0:0:0:0:
182,192,298744,1,0,0:0:0:0:
36,192,298744,1,0,0:0:0:0:
182,192,298855,1,0,0:0:0:0:
329,192,298855,1,0,0:0:0:0:
475,192,298855,1,0,0:0:0:0:
475,192,298966,1,0,0:0:0:0:
329,192,298966,1,0,0:0:0:0:
329,192,299077,1,0,0:0:0:0:
182,192,299077,1,0,0:0:0:0:
109,192,299077,1,0,0:0:0:0:
182,192,299188,1,0,0:0:0:0:
109,192,299188,1,0,0:0:0:0:
182,192,299299,1,0,0:0:0:0:
329,192,299299,1,0,0:0:0:0:
402,192,299299,1,0,0:0:0:0:
402,192,299410,1,0,0:0:0:0:
329,192,299410,1,0,0:0:0:0:
329,192,299521,1,0,0:0:0:0:
182,192,299521,1,0,0:0:0:0:
36,192,299521,1,0,0:0:0:0:
36,192,299633,1,0,0:0:0:0:
182,192,299633,1,0,0:0:0:0:
182,192,299744,1,0,0:0:0:0:
329,192,299744,1,0,0:0:0:0:
475,192,299744,1,0,0:0:0:0:
329,192,299855,1,0,0:0:0:0:
475,192,299855,1,0,0:0:0:0:
329,192,299966,1,0,0:0:0:0:
182,192,299966,1,0,0:0:0:0:
109,192,299966,1,0,0:0:0:0:
182,192,300077,1,0,0:0:0:0:
109,192,300077,1,0,0:0:0:0:
182,192,300188,1,0,0:0:0:0:
329,192,300188,1,0,0:0:0:0:
109,192,300188,1,0,0:0:0:0:
402,192,300188,1,0,0:0:0:0:
402,192,300299,1,0,0:0:0:0:
329,192,300299,1,0,0:0:0:0:
329,192,300410,5,0,0:0:0:0:
402,192,300410,1,0,0:0:0:0:
182,192,300410,1,0,0:0:0:0:
109,192,300410,1,0,0:0:0:0:
182,192,300521,1,0,0:0:0:0:
109,192,300521,1,0,0:0:0:0:
109,192,300633,1,0,0:0:0:0:
182,192,300633,1,0,0:0:0:0:
329,192,300633,1,0,0:0:0:0:
402,192,300633,1,0,0:0:0:0:
402,192,300744,1,0,0:0:0:0:
329,192,300744,1,0,0:0:0:0:
475,192,300855,1,0,0:0:0:0:
402,192,300910,1,0,0:0:0:0:
329,192,300966,1,0,0:0:0:0:
256,192,301021,1,0,0:0:0:0:
182,192,301105,1,0,0:0:0:0:
36,192,301105,1,0,0:0:0:0:
475,192,301188,1,0,0:0:0:0:
329,192,301188,1,0,0:0:0:0:
182,192,301299,1,0,0:0:0:0:
109,192,301299,1,0,0:0:0:0:
402,192,301410,1,0,0:0:0:0:
329,192,301410,1,0,0:0:0:0:
256,192,301521,5,0,0:0:0:0:
182,192,301521,1,0,0:0:0:0:
36,192,301521,1,0,0:0:0:0:
109,192,301521,1,0,0:0:0:0:
402,192,301744,1,0,0:0:0:0:
256,192,301744,1,0,0:0:0:0:
329,192,301855,1,0,0:0:0:0:
475,192,301855,1,0,0:0:0:0:
109,192,301966,1,0,0:0:0:0:
256,192,301966,1,0,0:0:0:0:
36,192,302077,1,0,0:0:0:0:
182,192,302077,1,0,0:0:0:0:
402,192,302188,1,0,0:0:0:0:
256,192,302188,1,0,0:0:0:0:
475,192,302299,1,0,0:0:0:0:
329,192,302299,1,0,0:0:0:0:
109,192,302410,1,0,0:0:0:0:
256,192,302410,1,0,0:0:0:0:
182,192,302521,1,0,0:0:0:0:
36,192,302521,1,0,0:0:0:0:
402,192,302633,1,0,0:0:0:0:
256,192,302633,1,0,0:0:0:0:
329,192,302744,1,0,0:0:0:0:
475,192,302744,1,0,0:0:0:0:
109,192,302855,1,0,0:0:0:0:
256,192,302855,1,0,0:0:0:0:
36,192,302966,1,0,0:0:0:0:
182,192,302966,1,0,0:0:0:0:
182,192,303077,1,0,0:0:0:0:
36,192,303077,1,0,0:0:0:0:
182,192,303188,1,0,0:0:0:0:
36,192,303188,1,0,0:0:0:0:
109,192,303299,1,0,0:0:0:0:
329,192,303299,1,0,0:0:0:0:
182,192,303410,1,0,0:0:0:0:
475,192,303410,1,0,0:0:0:0:
256,192,303521,1,0,0:0:0:0:
402,192,303521,1,0,0:0:0:0:
36,192,303633,1,0,0:0:0:0:
329,192,303633,1,0,0:0:0:0:
109,192,303744,1,0,0:0:0:0:
402,192,303744,1,0,0:0:0:0:
182,192,303855,1,0,0:0:0:0:
475,192,303855,1,0,0:0:0:0:
402,192,303966,1,0,0:0:0:0:
36,192,303966,1,0,0:0:0:0:
182,192,304077,1,0,0:0:0:0:
329,192,304077,1,0,0:0:0:0:
402,192,304188,1,0,0:0:0:0:
109,192,304188,1,0,0:0:0:0:
256,192,304188,1,0,0:0:0:0:
329,192,304410,1,0,0:0:0:0:
36,192,304410,1,0,0:0:0:0:
475,192,304410,1,0,0:0:0:0:
182,192,304410,1,0,0:0:0:0:
256,192,304521,1,0,0:0:0:0:
475,192,304633,1,0,0:0:0:0:
402,192,304633,1,0,0:0:0:0:
109,192,304633,1,0,0:0:0:0:
256,192,304744,1,0,0:0:0:0:
36,192,304855,1,0,0:0:0:0:
182,192,304855,1,0,0:0:0:0:
329,192,304855,1,0,0:0:0:0:
256,192,304966,1,0,0:0:0:0:
475,192,305077,1,0,0:0:0:0:
402,192,305077,1,0,0:0:0:0:
36,192,305077,1,0,0:0:0:0:
256,192,305188,1,0,0:0:0:0:
36,192,305299,1,0,0:0:0:0:
182,192,305299,1,0,0:0:0:0:
329,192,305299,1,0,0:0:0:0:
256,192,305410,1,0,0:0:0:0:
109,192,305521,1,0,0:0:0:0:
329,192,305521,1,0,0:0:0:0:
475,192,305521,1,0,0:0:0:0:
256,192,305633,1,0,0:0:0:0:
109,192,305744,1,0,0:0:0:0:
182,192,305744,1,0,0:0:0:0:
402,192,305744,1,0,0:0:0:0:
329,192,305966,1,0,0:0:0:0:
256,192,305966,1,0,0:0:0:0:
475,192,305966,1,0,0:0:0:0:
36,192,306077,1,0,0:0:0:0:
109,192,306133,1,0,0:0:0:0:
182,192,306188,1,0,0:0:0:0:
475,192,306188,1,0,0:0:0:0:
402,192,306188,1,0,0:0:0:0:
329,192,306188,1,0,0:0:0:0:
36,192,306299,1,0,0:0:0:0:
109,192,306355,1,0,0:0:0:0:
182,192,306410,1,0,0:0:0:0:
475,192,306410,1,0,0:0:0:0:
402,192,306410,1,0,0:0:0:0:
329,192,306410,1,0,0:0:0:0:
109,192,306466,1,0,0:0:0:0:
182,192,306521,1,0,0:0:0:0:
475,192,306633,1,0,0:0:0:0:
402,192,306633,1,0,0:0:0:0:
329,192,306633,1,0,0:0:0:0:
36,192,306688,1,0,0:0:0:0:
109,192,306744,1,0,0:0:0:0:
182,192,306799,1,0,0:0:0:0:
256,192,306855,1,0,0:0:0:0:
475,192,307021,1,0,0:0:0:0:
402,192,307077,1,0,0:0:0:0:
329,192,307133,1,0,0:0:0:0:
36,192,307133,1,0,0:0:0:0:
109,192,307188,1,0,0:0:0:0:
182,192,307244,1,0,0:0:0:0:
475,192,307244,1,0,0:0:0:0:
402,192,307299,1,0,0:0:0:0:
329,192,307355,1,0,0:0:0:0:
36,192,307355,1,0,0:0:0:0:
109,192,307410,1,0,0:0:0:0:
182,192,307466,1,0,0:0:0:0:
475,192,307466,1,0,0:0:0:0:
402,192,307521,1,0,0:0:0:0:
329,192,307577,1,0,0:0:0:0:
36,192,307577,1,0,0:0:0:0:
109,192,307633,1,0,0:0:0:0:
182,192,307688,1,0,0:0:0:0:
475,192,307688,1,0,0:0:0:0:
402,192,307744,1,0,0:0:0:0:
329,192,307800,1,0,0:0:0:0:
36,192,307800,1,0,0:0:0:0:
109,192,307855,1,0,0:0:0:0:
182,192,307911,1,0,0:0:0:0:
475,192,307911,1,0,0:0:0:0:
402,192,307966,1,0,0:0:0:0:
329,192,308022,1,0,0:0:0:0:
36,192,308077,1,0,0:0:0:0:
109,192,308133,1,0,0:0:0:0:
182,192,308188,1,0,0:0:0:0:
256,192,308244,1,0,0:0:0:0:
329,192,308299,1,0,0:0:0:0:
402,192,308355,1,0,0:0:0:0:
109,192,308355,1,0,0:0:0:0:
182,192,308410,1,0,0:0:0:0:
256,192,308466,1,0,0:0:0:0:
329,192,308521,1,0,0:0:0:0:
402,192,308577,1,0,0:0:0:0:
329,192,308633,1,0,0:0:0:0:
256,192,308688,1,0,0:0:0:0:
182,192,308744,1,0,0:0:0:0:
109,192,308799,1,0,0:0:0:0:
36,192,308855,1,0,0:0:0:0:
182,192,308966,1,0,0:0:0:0:
256,192,309021,1,0,0:0:0:0:
329,192,309077,1,0,0:0:0:0:
402,192,309133,1,0,0:0:0:0:
475,192,309188,1,0,0:0:0:0:
182,192,309188,1,0,0:0:0:0:
256,192,309244,1,0,0:0:0:0:
329,192,309299,1,0,0:0:0:0:
402,192,309355,1,0,0:0:0:0:
109,192,309355,1,0,0:0:0:0:
182,192,309410,1,0,0:0:0:0:
256,192,309466,1,0,0:0:0:0:
329,192,309521,1,0,0:0:0:0:
475,192,309633,1,0,0:0:0:0:
109,192,309633,1,0,0:0:0:0:
109,192,309744,1,0,0:0:0:0:
475,192,309744,1,0,0:0:0:0:
36,192,309855,1,0,0:0:0:0:
475,192,309855,1,0,0:0:0:0:
109,192,309910,1,0,0:0:0:0:
402,192,309910,1,0,0:0:0:0:
329,192,309966,1,0,0:0:0:0:
182,192,309966,1,0,0:0:0:0:
475,192,310077,1,0,0:0:0:0:
36,192,310077,1,0,0:0:0:0:
402,192,310160,1,0,0:0:0:0:
109,192,310160,1,0,0:0:0:0:
329,192,310244,1,0,0:0:0:0:
182,192,310244,1,0,0:0:0:0:
402,192,310327,1,0,0:0:0:0:
109,192,310327,1,0,0:0:0:0:
475,192,310410,1,0,0:0:0:0:
36,192,310410,1,0,0:0:0:0:
402,192,310494,1,0,0:0:0:0:
109,192,310494,1,0,0:0:0:0:
329,192,310577,1,0,0:0:0:0:
182,192,310577,1,0,0:0:0:0:
402,192,310660,1,0,0:0:0:0:
109,192,310660,1,0,0:0:0:0:
475,192,310744,1,0,0:0:0:0:
36,192,310744,1,0,0:0:0:0:
182,192,310855,1,0,0:0:0:0:
109,192,310855,1,0,0:0:0:0:
109,192,310980,1,0,0:0:0:0:
182,192,310980,1,0,0:0:0:0:
256,192,311105,1,0,0:0:0:0:
182,192,311105,1,0,0:0:0:0:
182,192,311230,1,0,0:0:0:0:
256,192,311230,1,0,0:0:0:0:
256,192,311355,1,0,0:0:0:0:
329,192,311355,1,0,0:0:0:0:
256,192,311480,1,0,0:0:0:0:
329,192,311480,1,0,0:0:0:0:
402,192,311605,1,0,0:0:0:0:
329,192,311605,1,0,0:0:0:0:
329,192,311730,1,0,0:0:0:0:
402,192,311730,1,0,0:0:0:0:
402,192,311855,1,0,0:0:0:0:
475,192,311855,1,0,0:0:0:0:
402,192,311980,1,0,0:0:0:0:
475,192,311980,1,0,0:0:0:0:
329,192,312021,1,0,0:0:0:0:
36,192,312077,1,0,0:0:0:0:
109,192,312133,1,0,0:0:0:0:
256,192,312188,5,0,0:0:0:0:
182,192,312299,1,0,0:0:0:0:
329,192,312299,1,0,0:0:0:0:
109,192,312410,1,0,0:0:0:0:
402,192,312410,1,0,0:0:0:0:
182,192,312521,1,0,0:0:0:0:
329,192,312521,1,0,0:0:0:0:
402,192,312633,1,0,0:0:0:0:
109,192,312633,1,0,0:0:0:0:
329,192,312744,1,0,0:0:0:0:
182,192,312744,1,0,0:0:0:0:
402,192,312855,1,0,0:0:0:0:
109,192,312855,1,0,0:0:0:0:
475,192,312966,1,0,0:0:0:0:
36,192,312966,1,0,0:0:0:0:
109,192,313077,1,0,0:0:0:0:
402,192,313077,1,0,0:0:0:0:
475,192,313188,1,0,0:0:0:0:
36,192,313188,1,0,0:0:0:0:
329,192,313299,128,0,313410:0:0:0:0:
182,192,313410,128,0,313521:0:0:0:0:
109,192,313521,128,0,313633:0:0:0:0:
256,192,313633,128,0,313744:0:0:0:0:
402,192,313744,128,0,313855:0:0:0:0:
329,192,313855,128,0,313966:0:0:0:0:
182,192,313966,128,0,314077:0:0:0:0:
109,192,314077,128,0,314188:0:0:0:0:
256,192,314188,128,0,314299:0:0:0:0:
402,192,314299,128,0,314410:0:0:0:0:
329,192,314410,128,0,314521:0:0:0:0:
182,192,314521,128,0,314633:0:0:0:0:
109,192,314633,128,0,314744:0:0:0:0:
36,192,314744,128,0,314855:0:0:0:0:
182,192,314855,128,0,314966:0:0:0:0:
329,192,314966,128,0,315077:0:0:0:0:
475,192,315077,128,0,315188:0:0:0:0:
109,192,315188,128,0,315299:0:0:0:0:
256,192,315299,128,0,315410:0:0:0:0:
402,192,315410,128,0,315521:0:0:0:0:
36,192,315521,128,0,315632:0:0:0:0:
182,192,315632,128,0,315743:0:0:0:0:
329,192,315743,128,0,315854:0:0:0:0:
475,192,315854,128,0,315965:0:0:0:0:
329,192,315966,128,0,316077:0:0:0:0:
182,192,316077,128,0,316188:0:0:0:0:
329,192,316188,1,0,0:0:0:0:
36,192,316188,1,0,0:0:0:0:
182,192,316299,1,0,0:0:0:0:
475,192,316299,1,0,0:0:0:0:
36,192,316410,1,0,0:0:0:0:
329,192,316410,1,0,0:0:0:0:
182,192,316521,1,0,0:0:0:0:
475,192,316521,1,0,0:0:0:0:
36,192,316633,1,0,0:0:0:0:
329,192,316633,1,0,0:0:0:0:
182,192,316744,1,0,0:0:0:0:
475,192,316744,1,0,0:0:0:0:
329,192,316855,5,0,0:0:0:0:
36,192,316855,1,0,2:0:0:0:
402,192,316966,1,0,0:0:0:0:
109,192,316966,1,0,2:0:0:0:
475,192,317077,1,0,0:0:0:0:
182,192,317077,1,0,2:0:0:0:
109,192,317188,1,0,0:0:0:0:
402,192,317188,1,0,0:0:0:0:
475,192,317299,1,0,0:0:0:0:
182,192,317299,1,0,0:0:0:0:
402,192,317410,1,0,0:0:0:0:
109,192,317410,1,0,0:0:0:0:
329,192,317521,1,0,0:0:0:0:
36,192,317521,1,0,0:0:0:0:
109,192,318855,1,0,0:0:0:0:
182,192,318855,1,0,0:0:0:0:
475,192,318855,1,0,0:0:0:0:
402,192,318855,1,0,0:0:0:0:
256,192,318855,1,0,0:0:0:0:
36,192,330550,5,0,0:0:0:0:
182,192,331216,1,0,0:0:0:0:
329,192,331883,1,0,0:0:0:0:
182,192,332550,1,0,0:0:0:0:
329,192,332772,1,0,0:0:0:0:
182,192,332994,1,0,0:0:0:0:
36,192,333216,1,0,0:0:0:0:
182,192,333438,1,0,0:0:0:0:
329,192,333661,1,0,0:0:0:0:
475,192,333883,1,0,0:0:0:0:
329,192,334105,1,0,0:0:0:0:
182,192,334327,1,0,0:0:0:0:
402,192,334550,1,0,0:0:0:0:
256,192,334772,1,0,0:0:0:0:
109,192,334994,1,0,0:0:0:0:
329,192,335216,1,0,0:0:0:0:
182,192,335438,1,0,0:0:0:0:
36,192,335661,1,0,0:0:0:0:
256,192,335883,1,0,0:0:0:0:
475,192,336105,1,0,0:0:0:0:
329,192,336327,1,0,0:0:0:0:
182,192,336550,1,0,0:0:0:0:
329,192,336772,1,0,0:0:0:0:
109,192,336994,1,0,0:0:0:0:
256,192,337216,1,0,0:0:0:0:
182,192,337438,1,0,0:0:0:0:
109,192,337661,1,0,0:0:0:0:
329,192,337883,1,0,0:0:0:0:
182,192,338105,1,0,0:0:0:0:
36,192,338327,1,0,0:0:0:0:
182,192,338550,1,0,0:0:0:0:
329,192,338772,1,0,0:0:0:0:
182,192,338994,1,0,0:0:0:0:
329,192,339216,1,0,0:0:0:0:
182,192,339438,1,0,0:0:0:0:
402,192,339661,1,0,0:0:0:0:
256,192,339883,1,0,0:0:0:0:
109,192,340105,1,0,0:0:0:0:
182,192,340327,1,0,0:0:0:0:
329,192,340550,1,0,0:0:0:0:
475,192,340772,1,0,0:0:0:0:
182,192,340994,1,0,0:0:0:0:
36,192,341216,1,0,0:0:0:0:
475,192,341216,1,0,0:0:0:0:
109,192,341438,1,0,0:0:0:0:
182,192,341661,1,0,0:0:0:0:
402,192,341883,1,0,0:0:0:0:
36,192,341994,1,0,0:0:0:0:
182,192,342105,1,0,0:0:0:0:
36,192,342216,1,0,0:0:0:0:
182,192,342327,1,0,0:0:0:0:
256,192,342550,1,0,0:0:0:0:
36,192,342661,1,0,0:0:0:0:
109,192,342772,1,0,0:0:0:0:
36,192,342883,1,0,0:0:0:0:
109,192,342994,1,0,0:0:0:0:
475,192,343216,1,0,0:0:0:0:
182,192,343327,1,0,0:0:0:0:
256,192,343438,1,0,0:0:0:0:
182,192,343550,1,0,0:0:0:0:
256,192,343661,1,0,0:0:0:0:
329,192,343883,1,0,0:0:0:0:
36,192,343883,1,0,0:0:0:0:
36,192,344105,1,0,0:0:0:0:
109,192,344216,1,0,0:0:0:0:
182,192,344327,1,0,0:0:0:0:
256,192,344550,1,0,0:0:0:0:
402,192,344550,1,0,0:0:0:0:
109,192,344661,1,0,0:0:0:0:
182,192,344772,1,0,0:0:0:0:
109,192,344883,1,0,0:0:0:0:
182,192,344994,1,0,0:0:0:0:
256,192,345216,1,0,0:0:0:0:
402,192,345216,1,0,0:0:0:0:
36,192,345438,1,0,0:0:0:0:
109,192,345550,1,0,0:0:0:0:
182,192,345661,1,0,0:0:0:0:
475,192,345883,1,0,0:0:0:0:
109,192,345994,1,0,0:0:0:0:
402,192,346105,1,0,0:0:0:0:
256,192,346105,1,0,0:0:0:0:
109,192,346216,1,0,0:0:0:0:
329,192,346327,1,0,0:0:0:0:
256,192,346327,1,0,0:0:0:0:
402,192,346550,1,0,0:0:0:0:
109,192,346550,1,0,0:0:0:0:
182,192,346772,1,0,0:0:0:0:
256,192,346883,1,0,0:0:0:0:
329,192,346994,1,0,0:0:0:0:
256,192,347216,1,0,0:0:0:0:
475,192,347216,1,0,0:0:0:0:
182,192,347327,1,0,0:0:0:0:
329,192,347438,1,0,0:0:0:0:
182,192,347550,1,0,0:0:0:0:
329,192,347661,1,0,0:0:0:0:
256,192,347883,1,0,0:0:0:0:
402,192,347883,1,0,0:0:0:0:
329,192,347994,1,0,0:0:0:0:
182,192,348105,1,0,0:0:0:0:
329,192,348216,1,0,0:0:0:0:
182,192,348327,1,0,0:0:0:0:
329,192,348550,1,0,0:0:0:0:
475,192,348550,1,0,0:0:0:0:
402,192,348661,1,0,0:0:0:0:
256,192,348772,1,0,0:0:0:0:
402,192,348883,1,0,0:0:0:0:
256,192,348994,1,0,0:0:0:0:
182,192,349216,1,0,0:0:0:0:
402,192,349216,1,0,0:0:0:0:
109,192,349327,1,0,0:0:0:0:
256,192,349438,1,0,0:0:0:0:
109,192,349550,1,0,0:0:0:0:
256,192,349661,1,0,0:0:0:0:
256,192,349883,1,0,0:0:0:0:
475,192,349883,1,0,0:0:0:0:
402,192,349994,1,0,0:0:0:0:
109,192,350105,1,0,0:0:0:0:
402,192,350216,1,0,0:0:0:0:
109,192,350327,1,0,0:0:0:0:
256,192,350550,1,0,0:0:0:0:
402,192,350550,1,0,0:0:0:0:
36,192,350772,5,0,0:0:0:0:
182,192,350883,1,0,0:0:0:0:
329,192,350994,1,0,0:0:0:0:
109,192,351216,5,0,0:0:0:0:
475,192,351216,1,0,0:0:0:0:
329,192,351327,1,0,0:0:0:0:
475,192,351438,1,0,0:0:0:0:
182,192,351550,1,0,0:0:0:0:
36,192,351661,1,0,0:0:0:0:
36,192,351883,5,0,0:0:0:0:
475,192,351883,1,0,0:0:0:0:
182,192,351883,1,0,0:0:0:0:
402,192,351994,1,0,0:0:0:0:
329,192,352105,1,0,0:0:0:0:
256,192,352216,1,0,0:0:0:0:
109,192,352327,128,0,352438:0:0:0:0:
182,192,352438,128,0,352550:0:0:0:0:
402,192,352550,1,0,0:0:0:0:
329,192,352661,1,0,0:0:0:0:
256,192,352772,1,0,0:0:0:0:
182,192,352883,1,0,0:0:0:0:
36,192,352994,128,0,353105:0:0:0:0:
109,192,353105,128,0,353216:0:0:0:0:
329,192,353216,1,0,0:0:0:0:
256,192,353327,1,0,0:0:0:0:
182,192,353438,1,0,0:0:0:0:
109,192,353550,1,0,0:0:0:0:
36,192,353661,128,0,353772:0:0:0:0:
256,192,353772,128,0,353883:0:0:0:0:
109,192,353883,128,0,353994:0:0:0:0:
329,192,353994,128,0,354105:0:0:0:0:
182,192,354105,128,0,354216:0:0:0:0:
402,192,354216,128,0,354327:0:0:0:0:
256,192,354327,128,0,354438:0:0:0:0:
475,192,354438,128,0,354550:0:0:0:0:
329,192,354550,1,0,0:0:0:0:
109,192,354661,1,0,0:0:0:0:
329,192,354772,1,0,0:0:0:0:
182,192,354883,1,0,0:0:0:0:
329,192,354994,1,0,0:0:0:0:
109,192,355105,1,0,0:0:0:0:
402,192,355216,1,0,0:0:0:0:
36,192,355327,1,0,0:0:0:0:
329,192,355438,1,0,0:0:0:0:
109,192,355550,1,0,0:0:0:0:
256,192,355661,1,0,0:0:0:0:
402,192,355772,1,0,0:0:0:0:
475,192,355883,1,0,0:0:0:0:
36,192,355994,1,0,0:0:0:0:
182,192,356105,1,0,0:0:0:0:
329,192,356216,1,0,0:0:0:0:
475,192,356327,1,0,0:0:0:0:
109,192,356438,1,0,0:0:0:0:
256,192,356550,1,0,0:0:0:0:
402,192,356661,1,0,0:0:0:0:
182,192,356772,1,0,0:0:0:0:
329,192,356883,1,0,0:0:0:0:
182,192,356994,1,0,0:0:0:0:
329,192,357105,1,0,0:0:0:0:
109,192,357216,1,0,0:0:0:0:
256,192,357216,1,0,0:0:0:0:
402,192,357216,1,0,0:0:0:0:
36,192,357327,1,0,0:0:0:0:
182,192,357438,1,0,0:0:0:0:
329,192,357550,1,0,0:0:0:0:
402,192,357661,1,0,0:0:0:0:
109,192,357772,1,0,0:0:0:0:
256,192,357883,1,0,0:0:0:0:
402,192,357994,1,0,0:0:0:0:
475,192,358105,1,0,0:0:0:0:
329,192,358216,1,0,0:0:0:0:
329,192,358438,1,0,0:0:0:0:
256,192,358549,1,0,0:0:0:0:
109,192,358661,1,0,0:0:0:0:
36,192,358772,1,0,0:0:0:0:
182,192,358883,1,0,0:0:0:0:
329,192,358994,1,0,0:0:0:0:
475,192,359105,1,0,0:0:0:0:
109,192,359216,1,0,0:0:0:0:
256,192,359327,1,0,0:0:0:0:
402,192,359438,1,0,0:0:0:0:
182,192,359549,1,0,0:0:0:0:
329,192,359661,1,0,0:0:0:0:
402,192,359772,1,0,0:0:0:0:
475,192,359883,128,0,360105:0:0:0:0:
36,192,359883,128,0,360105:0:0:0:0:
109,192,360105,5,0,0:0:0:0:
256,192,360216,1,0,0:0:0:0:
329,192,360327,1,0,0:0:0:0:
402,192,360438,1,0,0:0:0:0:
475,192,360549,1,0,0:0:0:0:
329,192,360661,1,0,0:0:0:0:
182,192,360772,1,0,0:0:0:0:
36,192,360883,1,0,0:0:0:0:
182,192,360994,1,0,0:0:0:0:
329,192,361105,1,0,0:0:0:0:
475,192,361216,5,0,0:0:0:0:
329,192,361327,1,0,0:0:0:0:
182,192,361438,1,0,0:0:0:0:
475,192,361549,1,0,0:0:0:0:
329,192,361661,1,0,0:0:0:0:
182,192,361772,1,0,0:0:0:0:
475,192,361883,128,0,361938:0:0:0:0:
402,192,361938,128,0,361994:0:0:0:0:
329,192,361994,128,0,362049:0:0:0:0:
256,192,362049,128,0,362105:0:0:0:0:
182,192,362105,128,0,362161:0:0:0:0:
109,192,362161,128,0,362216:0:0:0:0:
36,192,362216,128,0,362272:0:0:0:0:
402,192,362216,128,0,362272:0:0:0:0:
329,192,362272,128,0,362327:0:0:0:0:
256,192,362327,128,0,362383:0:0:0:0:
182,192,362383,128,0,362438:0:0:0:0:
109,192,362438,128,0,362494:0:0:0:0:
475,192,362549,1,0,0:0:0:0:
36,192,362549,1,0,0:0:0:0:
329,192,362661,1,0,0:0:0:0:
182,192,362772,1,0,0:0:0:0:
475,192,362883,1,0,0:0:0:0:
329,192,362994,1,0,0:0:0:0:
182,192,363105,1,0,0:0:0:0:
402,192,363216,1,0,0:0:0:0:
256,192,363327,1,0,0:0:0:0:
36,192,363438,1,0,0:0:0:0:
402,192,363549,1,0,0:0:0:0:
256,192,363661,1,0,0:0:0:0:
36,192,363772,1,0,0:0:0:0:
402,192,363883,1,0,0:0:0:0:
256,192,363994,1,0,0:0:0:0:
109,192,364105,5,0,0:0:0:0:
475,192,364216,1,0,0:0:0:0:
329,192,364327,1,0,0:0:0:0:
36,192,364438,1,0,0:0:0:0:
402,192,364549,1,0,0:0:0:0:
109,192,364661,1,0,0:0:0:0:
475,192,364772,1,0,0:0:0:0:
329,192,364883,1,0,0:0:0:0:
182,192,364994,1,0,0:0:0:0:
109,192,365105,1,0,0:0:0:0:
36,192,365216,5,0,0:0:0:0:
256,192,367883,5,0,0:0:0:0:
109,192,367994,1,0,0:0:0:0:
256,192,368105,1,0,0:0:0:0:
329,192,368216,1,0,0:0:0:0:
402,192,368327,1,0,0:0:0:0:
329,192,368438,1,0,0:0:0:0:
109,192,368549,1,0,0:0:0:0:
256,192,368661,1,0,0:0:0:0:
329,192,368772,1,0,0:0:0:0:
402,192,368883,1,0,0:0:0:0:
329,192,368994,1,0,0:0:0:0:
402,192,369105,1,0,0:0:0:0:
475,192,369216,1,0,0:0:0:0:
256,192,369327,1,0,0:0:0:0:
109,192,369438,1,0,0:0:0:0:
329,192,369549,1,0,0:0:0:0:
475,192,369661,1,0,0:0:0:0:
329,192,369772,1,0,0:0:0:0:
182,192,369883,1,0,0:0:0:0:
402,192,369994,1,0,0:0:0:0:
182,192,370105,1,0,0:0:0:0:
475,192,370216,1,0,0:0:0:0:
182,192,370327,1,0,0:0:0:0:
256,192,370438,1,0,0:0:0:0:
475,192,370549,1,0,0:0:0:0:
109,192,370549,1,0,0:0:0:0:
36,192,370549,1,0,0:0:0:0:
402,192,370661,1,0,0:0:0:0:
329,192,370772,1,0,0:0:0:0:
475,192,370883,1,0,0:0:0:0:
109,192,370883,1,0,0:0:0:0:
36,192,370883,1,0,0:0:0:0:
402,192,370994,1,0,0:0:0:0:
329,192,371105,1,0,0:0:0:0:
475,192,371216,1,0,0:0:0:0:
109,192,371216,1,0,0:0:0:0:
36,192,371216,1,0,0:0:0:0:
402,192,371327,1,0,0:0:0:0:
329,192,371438,1,0,0:0:0:0:
475,192,371549,1,0,0:0:0:0:
109,192,371549,1,0,0:0:0:0:
36,192,371549,1,0,0:0:0:0:
402,192,371661,1,0,0:0:0:0:
329,192,371772,1,0,0:0:0:0:
475,192,371883,1,0,0:0:0:0:
109,192,371883,1,0,0:0:0:0:
36,192,371883,1,0,0:0:0:0:
402,192,371994,1,0,0:0:0:0:
256,192,372105,1,0,0:0:0:0:
475,192,372216,1,0,0:0:0:0:
109,192,372216,1,0,0:0:0:0:
36,192,372216,1,0,0:0:0:0:
402,192,372327,1,0,0:0:0:0:
256,192,372438,1,0,0:0:0:0:
402,192,372549,1,0,0:0:0:0:
109,192,372549,1,0,0:0:0:0:
36,192,372549,1,0,0:0:0:0:
329,192,372661,1,0,0:0:0:0:
182,192,372772,1,0,0:0:0:0:
402,192,372883,1,0,0:0:0:0:
109,192,372883,1,0,0:0:0:0:
36,192,372883,1,0,0:0:0:0:
329,192,372994,1,0,0:0:0:0:
182,192,373105,1,0,0:0:0:0:
36,192,373216,1,0,0:0:0:0:
475,192,373216,1,0,0:0:0:0:
329,192,373216,1,0,0:0:0:0:
109,192,373327,1,0,0:0:0:0:
182,192,373438,1,0,0:0:0:0:
36,192,373549,1,0,0:0:0:0:
329,192,373549,1,0,0:0:0:0:
475,192,373549,1,0,0:0:0:0:
109,192,373661,1,0,0:0:0:0:
182,192,373772,1,0,0:0:0:0:
36,192,373883,1,0,0:0:0:0:
475,192,373883,1,0,0:0:0:0:
329,192,373883,1,0,0:0:0:0:
109,192,373994,1,0,0:0:0:0:
182,192,374105,1,0,0:0:0:0:
36,192,374216,1,0,0:0:0:0:
329,192,374216,1,0,0:0:0:0:
475,192,374216,1,0,0:0:0:0:
109,192,374327,1,0,0:0:0:0:
182,192,374438,1,0,0:0:0:0:
256,192,374549,1,0,0:0:0:0:
36,192,374549,1,0,0:0:0:0:
329,192,374661,1,0,0:0:0:0:
402,192,374772,1,0,0:0:0:0:
256,192,374883,1,0,0:0:0:0:
36,192,374883,1,0,0:0:0:0:
329,192,374994,1,0,0:0:0:0:
402,192,375105,1,0,0:0:0:0:
475,192,375216,1,0,0:0:0:0:
36,192,375216,1,0,0:0:0:0:
402,192,375327,1,0,0:0:0:0:
329,192,375438,1,0,0:0:0:0:
182,192,375438,1,0,0:0:0:0:
36,192,375549,1,0,0:0:0:0:
475,192,375549,1,0,0:0:0:0:
109,192,375661,1,0,0:0:0:0:
182,192,375772,1,0,0:0:0:0:
329,192,375772,1,0,0:0:0:0:
36,192,375883,1,0,0:0:0:0:
475,192,375883,1,0,0:0:0:0:
402,192,375994,1,0,0:0:0:0:
329,192,376105,1,0,0:0:0:0:
182,192,376216,1,0,0:0:0:0:
36,192,376216,1,0,0:0:0:0:
256,192,376327,1,0,0:0:0:0:
329,192,376438,1,0,0:0:0:0:
475,192,376549,1,0,0:0:0:0:
109,192,376549,1,0,0:0:0:0:
402,192,376661,1,0,0:0:0:0:
329,192,376772,1,0,0:0:0:0:
36,192,376883,1,0,0:0:0:0:
475,192,376883,1,0,0:0:0:0:
109,192,376994,1,0,0:0:0:0:
182,192,377105,1,0,0:0:0:0:
475,192,377216,1,0,0:0:0:0:
329,192,377216,1,0,0:0:0:0:
256,192,377327,1,0,0:0:0:0:
182,192,377438,1,0,0:0:0:0:
109,192,377549,1,0,0:0:0:0:
402,192,377549,1,0,0:0:0:0:
182,192,377661,1,0,0:0:0:0:
256,192,377772,1,0,0:0:0:0:
402,192,377883,1,0,0:0:0:0:
36,192,377883,1,0,0:0:0:0:
329,192,377994,1,0,0:0:0:0:
256,192,378105,1,0,0:0:0:0:
109,192,378216,1,0,0:0:0:0:
36,192,378216,1,0,0:0:0:0:
256,192,378327,1,0,0:0:0:0:
402,192,378438,1,0,0:0:0:0:
475,192,378549,1,0,0:0:0:0:
109,192,378549,1,0,0:0:0:0:
402,192,378661,1,0,0:0:0:0:
329,192,378772,1,0,0:0:0:0:
182,192,378883,1,0,0:0:0:0:
36,192,378883,1,0,0:0:0:0:
329,192,378994,1,0,0:0:0:0:
475,192,379105,1,0,0:0:0:0:
402,192,379216,1,0,0:0:0:0:
109,192,379216,1,0,0:0:0:0:
329,192,379327,1,0,0:0:0:0:
256,192,379438,1,0,0:0:0:0:
109,192,379549,1,0,0:0:0:0:
36,192,379549,1,0,0:0:0:0:
256,192,379661,1,0,0:0:0:0:
402,192,379772,1,0,0:0:0:0:
475,192,379883,1,0,0:0:0:0:
182,192,379883,1,0,0:0:0:0:
402,192,379994,1,0,0:0:0:0:
329,192,380105,5,0,0:0:0:0:
182,192,380216,1,0,0:0:0:0:
475,192,380216,1,0,0:0:0:0:
109,192,380327,1,0,0:0:0:0:
36,192,380438,1,0,0:0:0:0:
329,192,380549,1,0,0:0:0:0:
402,192,380549,1,0,0:0:0:0:
329,192,380661,1,0,0:0:0:0:
402,192,380661,1,0,0:0:0:0:
109,192,380772,1,0,0:0:0:0:
182,192,380772,1,0,0:0:0:0:
109,192,380883,1,0,0:0:0:0:
182,192,380883,1,0,0:0:0:0:
329,192,380994,1,0,0:0:0:0:
256,192,380994,1,0,0:0:0:0:
329,192,381105,1,0,0:0:0:0:
109,192,381216,5,0,0:0:0:0:
402,192,381216,1,0,0:0:0:0:
256,192,381216,1,0,0:0:0:0:
36,192,381327,1,0,0:0:0:0:
329,192,381438,128,0,381549:0:0:0:0:
109,192,381549,128,0,381661:0:0:0:0:
256,192,381661,128,0,381772:0:0:0:0:
402,192,381772,128,0,381883:0:0:0:0:
475,192,381883,1,0,0:0:0:0:
36,192,381994,1,0,0:0:0:0:
329,192,382105,128,0,382216:0:0:0:0:
109,192,382216,128,0,382328:0:0:0:0:
256,192,382328,128,0,382439:0:0:0:0:
402,192,382439,128,0,382550:0:0:0:0:
475,192,382550,1,0,0:0:0:0:
329,192,382661,1,0,0:0:0:0:
36,192,382772,1,0,0:0:0:0:
329,192,382883,1,0,0:0:0:0:
402,192,382994,1,0,0:0:0:0:
475,192,383105,1,0,0:0:0:0:
402,192,383216,1,0,0:0:0:0:
329,192,383327,1,0,0:0:0:0:
182,192,383438,1,0,0:0:0:0:
36,192,383549,1,0,0:0:0:0:
182,192,383661,1,0,0:0:0:0:
329,192,383772,1,0,0:0:0:0:
402,192,383883,1,0,0:0:0:0:
36,192,383883,1,0,0:0:0:0:
256,192,383994,128,0,384105:0:0:0:0:
109,192,384105,128,0,384216:0:0:0:0:
329,192,384216,128,0,384327:0:0:0:0:
36,192,384327,128,0,384438:0:0:0:0:
402,192,384438,128,0,384549:0:0:0:0:
182,192,384549,128,0,384661:0:0:0:0:
475,192,384661,1,0,0:0:0:0:
329,192,384772,5,0,0:0:0:0:
109,192,384883,1,0,0:0:0:0:
256,192,384994,1,0,0:0:0:0:
402,192,385105,1,0,0:0:0:0:
475,192,385216,1,0,0:0:0:0:
329,192,385327,1,0,0:0:0:0:
256,192,385438,1,0,0:0:0:0:
182,192,385549,5,0,0:0:0:0:
36,192,385661,1,0,0:0:0:0:
182,192,385772,1,0,0:0:0:0:
329,192,385883,128,0,386216:0:0:0:0:
36,192,385883,1,0,0:0:0:0:
182,192,386105,1,0,0:0:0:0:
475,192,386216,128,0,386549:0:0:0:0:
109,192,386327,1,0,0:0:0:0:
36,192,386549,128,0,387216:0:0:0:0:
256,192,386549,128,0,387216:0:0:0:0:
182,192,386549,1,0,0:0:0:0:
402,192,386549,1,0,0:0:0:0:
329,192,386883,1,0,0:0:0:0:
109,192,386883,1,0,0:0:0:0:
109,192,387216,128,0,387883:0:0:0:0:
329,192,387216,128,0,387883:0:0:0:0:
182,192,387549,1,0,0:0:0:0:
402,192,387549,1,0,0:0:0:0:
182,192,387883,128,0,388549:0:0:0:0:
402,192,387883,128,0,388549:0:0:0:0:
256,192,388216,1,0,0:0:0:0:
475,192,388216,1,0,0:0:0:0:
256,192,388549,128,0,389216:0:0:0:0:
475,192,388549,128,0,389216:0:0:0:0:
329,192,388883,1,0,0:0:0:0:
109,192,388883,1,0,0:0:0:0:
36,192,389216,1,0,0:0:0:0:
329,192,389216,1,0,0:0:0:0:
109,192,389299,1,0,0:0:0:0:
402,192,389299,1,0,0:0:0:0:
182,192,389383,1,0,0:0:0:0:
475,192,389383,1,0,0:0:0:0:
36,192,389466,1,0,0:0:0:0:
329,192,389466,1,0,0:0:0:0:
402,192,389549,1,0,0:0:0:0:
109,192,389549,1,0,0:0:0:0:
475,192,389633,1,0,0:0:0:0:
182,192,389633,1,0,0:0:0:0:
329,192,389716,1,0,0:0:0:0:
36,192,389716,1,0,0:0:0:0:
109,192,389799,1,0,0:0:0:0:
402,192,389799,1,0,0:0:0:0:
475,192,389883,1,0,0:0:0:0:
182,192,389883,1,0,0:0:0:0:
329,192,389966,1,0,0:0:0:0:
36,192,389966,1,0,0:0:0:0:
402,192,390049,1,0,0:0:0:0:
109,192,390049,1,0,0:0:0:0:
475,192,390133,1,0,0:0:0:0:
182,192,390133,1,0,0:0:0:0:
329,192,390216,1,0,0:0:0:0:
36,192,390216,1,0,0:0:0:0:
402,192,390299,1,0,0:0:0:0:
109,192,390299,1,0,0:0:0:0:
182,192,390383,1,0,0:0:0:0:
475,192,390383,1,0,0:0:0:0:
36,192,390549,1,0,0:0:0:0:
329,192,390549,1,0,0:0:0:0:
329,192,390716,1,0,0:0:0:0:
36,192,390716,1,0,0:0:0:0:
329,192,390883,1,0,0:0:0:0:
36,192,390883,1,0,0:0:0:0:
402,192,391049,1,0,0:0:0:0:
109,192,391049,1,0,0:0:0:0:
329,192,391216,1,0,0:0:0:0:
36,192,391216,1,0,0:0:0:0:
475,192,391299,1,0,0:0:0:0:
182,192,391299,1,0,0:0:0:0:
329,192,391383,1,0,0:0:0:0:
36,192,391383,1,0,0:0:0:0:
475,192,391466,1,0,0:0:0:0:
182,192,391466,1,0,0:0:0:0:
329,192,391549,1,0,0:0:0:0:
36,192,391549,1,0,0:0:0:0:
475,192,391633,1,0,0:0:0:0:
182,192,391633,1,0,0:0:0:0:
329,192,391716,1,0,0:0:0:0:
36,192,391716,1,0,0:0:0:0:
475,192,391799,1,0,0:0:0:0:
182,192,391799,1,0,0:0:0:0:
109,192,391883,5,0,0:0:0:0:
402,192,391883,1,0,0:0:0:0:
256,192,391883,128,0,392549:0:0:0:0:
109,192,392216,1,0,0:0:0:0:
402,192,392549,128,0,393216:0:0:0:0:
109,192,392549,1,0,0:0:0:0:
109,192,392883,1,0,0:0:0:0:
109,192,393216,1,0,0:0:0:0:
402,192,393549,1,0,0:0:0:0:
109,192,393549,1,0,0:0:0:0:
329,192,393883,1,0,0:0:0:0:
109,192,393883,1,0,0:0:0:0:
402,192,394216,1,0,0:0:0:0:
109,192,394216,1,0,0:0:0:0:
256,192,394549,1,0,0:0:0:0:
475,192,394549,1,0,0:0:0:0:
36,192,394549,1,0,0:0:0:0:
36,192,394883,1,0,0:0:0:0:
36,192,395216,1,0,0:0:0:0:
329,192,395438,1,0,0:0:0:0:
475,192,395438,1,0,0:0:0:0:
36,192,395549,1,0,0:0:0:0:
256,192,395661,1,0,0:0:0:0:
402,192,395661,1,0,0:0:0:0:
182,192,395883,1,0,0:0:0:0:
329,192,395883,1,0,0:0:0:0:
36,192,395883,1,0,0:0:0:0:
36,192,396216,1,0,0:0:0:0:
182,192,396216,1,0,0:0:0:0:
256,192,396549,1,0,0:0:0:0:
402,192,396549,1,0,0:0:0:0:
109,192,396549,1,0,0:0:0:0:
36,192,396772,1,0,0:0:0:0:
182,192,396883,1,0,0:0:0:0:
329,192,396883,1,0,0:0:0:0:
109,192,397105,1,0,0:0:0:0:
256,192,397216,1,0,0:0:0:0:
402,192,397216,1,0,0:0:0:0:
475,192,397216,1,0,0:0:0:0:
256,192,397549,1,0,0:0:0:0:
402,192,397883,1,0,0:0:0:0:
475,192,397883,1,0,0:0:0:0:
256,192,397883,1,0,0:0:0:0:
256,192,398216,1,0,0:0:0:0:
256,192,398549,1,0,0:0:0:0:
36,192,398883,1,0,0:0:0:0:
256,192,398883,1,0,0:0:0:0:
109,192,399216,1,0,0:0:0:0:
256,192,399216,1,0,0:0:0:0:
182,192,399549,1,0,0:0:0:0:
256,192,399549,1,0,0:0:0:0:
256,192,399883,1,0,0:0:0:0:
182,192,399994,1,0,0:0:0:0:
109,192,400105,1,0,0:0:0:0:
329,192,400216,1,0,0:0:0:0:
256,192,400327,1,0,0:0:0:0:
182,192,400438,1,0,0:0:0:0:
402,192,400549,1,0,0:0:0:0:
329,192,400661,1,0,0:0:0:0:
256,192,400772,1,0,0:0:0:0:
475,192,400883,1,0,0:0:0:0:
402,192,400994,1,0,0:0:0:0:
329,192,401105,1,0,0:0:0:0:
36,192,401216,1,0,0:0:0:0:
109,192,401327,1,0,0:0:0:0:
182,192,401438,5,0,0:0:0:0:
109,192,401549,1,0,0:0:0:0:
182,192,401661,1,0,0:0:0:0:
256,192,401772,1,0,0:0:0:0:
182,192,401883,1,0,0:0:0:0:
109,192,401883,1,0,0:0:0:0:
256,192,401994,1,0,0:0:0:0:
36,192,401994,1,0,0:0:0:0:
329,192,402105,1,0,0:0:0:0:
109,192,402105,1,0,0:0:0:0:
182,192,402216,1,0,0:0:0:0:
36,192,402216,1,0,0:0:0:0:
329,192,402327,1,0,0:0:0:0:
109,192,402327,1,0,0:0:0:0:
402,192,402438,1,0,0:0:0:0:
182,192,402438,1,0,0:0:0:0:
36,192,402549,5,0,0:0:0:0:
475,192,402549,1,0,0:0:0:0:
256,192,402549,1,0,0:0:0:0:
329,192,402772,1,0,0:0:0:0:
109,192,402883,1,0,0:0:0:0:
475,192,402883,1,0,0:0:0:0:
256,192,403105,1,0,0:0:0:0:
475,192,403216,128,0,403438:0:0:0:0:
402,192,403216,1,0,0:0:0:0:
36,192,403216,1,0,0:0:0:0:
329,192,403438,128,0,403661:0:0:0:0:
182,192,403438,1,0,0:0:0:0:
36,192,403549,1,0,0:0:0:0:
475,192,403549,1,0,0:0:0:0:
182,192,403661,128,0,403883:0:0:0:0:
329,192,403772,1,0,0:0:0:0:
475,192,403883,1,0,0:0:0:0:
36,192,403883,1,0,0:0:0:0:
402,192,403994,1,0,0:0:0:0:
329,192,404105,1,0,0:0:0:0:
36,192,404216,1,0,0:0:0:0:
475,192,404216,1,0,0:0:0:0:
109,192,404327,1,0,0:0:0:0:
182,192,404438,1,0,0:0:0:0:
475,192,404549,1,0,0:0:0:0:
36,192,404549,1,0,0:0:0:0:
402,192,404661,1,0,0:0:0:0:
329,192,404772,1,0,0:0:0:0:
36,192,404883,1,0,0:0:0:0:
475,192,404883,1,0,0:0:0:0:
109,192,404994,1,0,0:0:0:0:
182,192,405105,1,0,0:0:0:0:
36,192,405216,1,0,0:0:0:0:
475,192,405216,1,0,0:0:0:0:
256,192,405438,1,0,0:0:0:0:
329,192,405549,1,0,0:0:0:0:
475,192,405549,1,0,0:0:0:0:
36,192,405772,1,0,0:0:0:0:
182,192,405772,1,0,0:0:0:0:
36,192,405883,1,0,0:0:0:0:
182,192,405883,1,0,0:0:0:0:
402,192,406105,1,0,0:0:0:0:
256,192,406327,1,0,0:0:0:0:
36,192,406549,128,0,406883:0:0:0:0:
475,192,406549,1,0,0:0:0:0:
109,192,406549,1,0,0:0:0:0:
402,192,406661,1,0,0:0:0:0:
329,192,406772,1,0,0:0:0:0:
182,192,406883,128,0,407216:0:0:0:0:
402,192,406883,1,0,0:0:0:0:
329,192,406994,1,0,0:0:0:0:
256,192,407105,1,0,0:0:0:0:
329,192,407216,128,0,407549:0:0:0:0:
36,192,407216,1,0,0:0:0:0:
109,192,407327,1,0,0:0:0:0:
182,192,407438,1,0,0:0:0:0:
475,192,407549,128,0,407883:0:0:0:0:
36,192,407549,1,0,0:0:0:0:
109,192,407661,1,0,0:0:0:0:
182,192,407772,1,0,0:0:0:0:
256,192,407883,128,0,408216:0:0:0:0:
36,192,407883,1,0,0:0:0:0:
402,192,407883,1,0,0:0:0:0:
36,192,408105,1,0,0:0:0:0:
182,192,408216,1,0,0:0:0:0:
475,192,408216,1,0,0:0:0:0:
475,192,408438,1,0,0:0:0:0:
329,192,408549,1,0,0:0:0:0:
36,192,408549,1,0,0:0:0:0:
109,192,408661,1,0,0:0:0:0:
256,192,408772,1,0,0:0:0:0:
182,192,408883,1,0,0:0:0:0:
475,192,408883,1,0,0:0:0:0:
402,192,408994,1,0,0:0:0:0:
329,192,409105,1,0,0:0:0:0:
36,192,409216,1,0,0:0:0:0:
475,192,409216,1,0,0:0:0:0:
256,192,409216,1,0,0:0:0:0:
109,192,409327,1,0,0:0:0:0:
182,192,409438,1,0,0:0:0:0:
256,192,409549,1,0,0:0:0:0:
36,192,409549,1,0,0:0:0:0:
329,192,409661,1,0,0:0:0:0:
402,192,409772,1,0,0:0:0:0:
475,192,409883,1,0,0:0:0:0:
36,192,409883,1,0,0:0:0:0:
402,192,409994,1,0,0:0:0:0:
329,192,410105,1,0,0:0:0:0:
256,192,410216,1,0,0:0:0:0:
475,192,410216,1,0,0:0:0:0:
182,192,410327,1,0,0:0:0:0:
109,192,410438,1,0,0:0:0:0:
36,192,410549,1,0,0:0:0:0:
475,192,410549,128,0,410661:0:0:0:0:
256,192,410661,128,0,410772:0:0:0:0:
402,192,410772,128,0,410883:0:0:0:0:
109,192,410772,1,0,0:0:0:0:
182,192,410883,128,0,410994:0:0:0:0:
36,192,410883,1,0,0:0:0:0:
329,192,410994,128,0,411105:0:0:0:0:
109,192,411105,128,0,411216:0:0:0:0:
402,192,411105,1,0,0:0:0:0:
256,192,411216,128,0,411327:0:0:0:0:
475,192,411216,1,0,0:0:0:0:
36,192,411327,128,0,411438:0:0:0:0:
329,192,411438,128,0,411549:0:0:0:0:
402,192,411438,1,0,0:0:0:0:
109,192,411549,128,0,411661:0:0:0:0:
475,192,411549,1,0,0:0:0:0:
256,192,411661,128,0,411772:0:0:0:0:
36,192,411772,128,0,411883:0:0:0:0:
182,192,411772,1,0,0:0:0:0:
475,192,411883,128,0,411994:0:0:0:0:
109,192,411883,1,0,0:0:0:0:
329,192,411994,128,0,412105:0:0:0:0:
182,192,412105,128,0,412216:0:0:0:0:
36,192,412105,1,0,0:0:0:0:
402,192,412216,128,0,412327:0:0:0:0:
109,192,412216,1,0,0:0:0:0:
256,192,412327,128,0,412438:0:0:0:0:
109,192,412438,128,0,412549:0:0:0:0:
475,192,412438,1,0,0:0:0:0:
182,192,412549,1,0,0:0:0:0:
329,192,412549,1,0,0:0:0:0:
329,192,412772,1,0,0:0:0:0:
182,192,412772,1,0,0:0:0:0:
329,192,412994,1,0,0:0:0:0:
182,192,412994,1,0,0:0:0:0:
109,192,413216,1,0,0:0:0:0:
402,192,413216,1,0,0:0:0:0:
109,192,413438,5,0,0:0:0:0:
402,192,413438,1,0,0:0:0:0:
109,192,413661,1,0,0:0:0:0:
402,192,413661,1,0,0:0:0:0:
36,192,413883,1,0,0:0:0:0:
475,192,413883,1,0,0:0:0:0:
182,192,413883,128,0,414105:0:0:0:0:
36,192,414105,1,0,0:0:0:0:
475,192,414105,1,0,0:0:0:0:
256,192,414105,128,0,414327:0:0:0:0:
36,192,414327,1,0,0:0:0:0:
475,192,414327,1,0,0:0:0:0:
329,192,414327,128,0,414549:0:0:0:0:
36,192,414549,5,0,0:0:0:0:
402,192,414549,128,0,414661:0:0:0:0:
475,192,414549,1,0,0:0:0:0:
182,192,414549,1,0,0:0:0:0:
329,192,414661,128,0,414772:0:0:0:0:
256,192,414772,128,0,414883:0:0:0:0:
109,192,414772,1,0,0:0:0:0:
36,192,414883,128,0,414994:0:0:0:0:
475,192,414883,1,0,0:0:0:0:
182,192,414994,128,0,415105:0:0:0:0:
329,192,415105,128,0,415216:0:0:0:0:
109,192,415105,1,0,0:0:0:0:
475,192,415216,128,0,415327:0:0:0:0:
36,192,415216,1,0,0:0:0:0:
256,192,415327,128,0,415438:0:0:0:0:
402,192,415438,128,0,415549:0:0:0:0:
182,192,415438,1,0,0:0:0:0:
109,192,415549,128,0,415661:0:0:0:0:
36,192,415549,1,0,0:0:0:0:
182,192,415661,128,0,415772:0:0:0:0:
256,192,415772,128,0,415883:0:0:0:0:
402,192,415772,1,0,0:0:0:0:
329,192,415883,128,0,415994:0:0:0:0:
475,192,415883,1,0,0:0:0:0:
182,192,415994,128,0,416105:0:0:0:0:
109,192,416105,128,0,416216:0:0:0:0:
329,192,416105,1,0,0:0:0:0:
36,192,416216,128,0,416327:0:0:0:0:
475,192,416216,1,0,0:0:0:0:
182,192,416327,128,0,416438:0:0:0:0:
329,192,416438,128,0,416549:0:0:0:0:
36,192,416438,1,0,0:0:0:0:
475,192,416549,128,0,416772:0:0:0:0:
182,192,416549,1,0,0:0:0:0:
329,192,416661,128,0,416883:0:0:0:0:
182,192,416772,128,0,416994:0:0:0:0:
36,192,416772,1,0,0:0:0:0:
475,192,416883,128,0,417216:0:0:0:0:
109,192,416883,1,0,0:0:0:0:
329,192,416994,128,0,417216:0:0:0:0:
182,192,417105,128,0,417216:0:0:0:0:
109,192,417105,1,0,0:0:0:0:
36,192,417216,128,0,417327:0:0:0:0:
402,192,417216,1,0,0:0:0:0:
256,192,417327,128,0,417438:0:0:0:0:
402,192,417438,128,0,417994:0:0:0:0:
182,192,417438,1,0,0:0:0:0:
109,192,417549,128,0,417661:0:0:0:0:
36,192,417549,1,0,0:0:0:0:
256,192,417661,128,0,417772:0:0:0:0:
109,192,417772,128,0,418216:0:0:0:0:
329,192,417772,1,0,0:0:0:0:
256,192,417883,128,0,418105:0:0:0:0:
182,192,417883,1,0,0:0:0:0:
475,192,417994,128,0,418216:0:0:0:0:
329,192,418105,128,0,418327:0:0:0:0:
402,192,418105,1,0,0:0:0:0:
182,192,418216,128,0,418438:0:0:0:0:
256,192,418216,1,0,0:0:0:0:
475,192,418327,128,0,418549:0:0:0:0:
329,192,418438,128,0,418549:0:0:0:0:
402,192,418438,1,0,0:0:0:0:
182,192,418549,128,0,418772:0:0:0:0:
256,192,418549,1,0,0:0:0:0:
109,192,418661,128,0,418883:0:0:0:0:
256,192,418772,128,0,418994:0:0:0:0:
475,192,418772,1,0,0:0:0:0:
329,192,418883,128,0,419105:0:0:0:0:
36,192,418883,1,0,0:0:0:0:
402,192,418994,128,0,419216:0:0:0:0:
475,192,419105,128,0,419327:0:0:0:0:
182,192,419105,1,0,0:0:0:0:
256,192,419216,128,0,419549:0:0:0:0:
329,192,419216,1,0,0:0:0:0:
182,192,419327,128,0,419661:0:0:0:0:
402,192,419327,1,0,0:0:0:0:
109,192,419438,128,0,419772:0:0:0:0:
475,192,419438,1,0,0:0:0:0:
329,192,419549,128,0,419661:0:0:0:0:
36,192,419549,1,0,0:0:0:0:
256,192,419661,128,0,419772:0:0:0:0:
475,192,419661,1,0,0:0:0:0:
182,192,419772,128,0,419883:0:0:0:0:
402,192,419772,1,0,0:0:0:0:
36,192,419883,1,0,0:0:0:0:
109,192,419883,128,0,419994:0:0:0:0:
329,192,419883,1,0,0:0:0:0:
182,192,419994,128,0,420105:0:0:0:0:
256,192,420105,128,0,420216:0:0:0:0:
329,192,420105,1,0,0:0:0:0:
182,192,420216,128,0,420327:0:0:0:0:
475,192,420216,1,0,0:0:0:0:
256,192,420327,128,0,420438:0:0:0:0:
402,192,420438,128,0,420549:0:0:0:0:
182,192,420438,1,0,0:0:0:0:
329,192,420549,128,0,420661:0:0:0:0:
36,192,420549,1,0,0:0:0:0:
256,192,420661,128,0,420772:0:0:0:0:
182,192,420772,128,0,420883:0:0:0:0:
402,192,420772,1,0,0:0:0:0:
475,192,420883,128,0,420994:0:0:0:0:
36,192,420883,1,0,0:0:0:0:
402,192,420994,128,0,421105:0:0:0:0:
329,192,421105,128,0,421216:0:0:0:0:
109,192,421105,1,0,0:0:0:0:
256,192,421216,128,0,421327:0:0:0:0:
475,192,421216,1,0,0:0:0:0:
36,192,421327,128,0,421438:0:0:0:0:
329,192,421438,128,0,421549:0:0:0:0:
182,192,421438,1,0,0:0:0:0:
109,192,421549,128,0,421661:0:0:0:0:
475,192,421549,1,0,0:0:0:0:
402,192,421661,128,0,421772:0:0:0:0:
182,192,421772,128,0,421883:0:0:0:0:
329,192,421772,1,0,0:0:0:0:
475,192,421883,128,0,421994:0:0:0:0:
36,192,421883,1,0,0:0:0:0:
329,192,421994,128,0,422105:0:0:0:0:
109,192,421994,1,0,0:0:0:0:
182,192,422105,128,0,422216:0:0:0:0:
256,192,422105,1,0,0:0:0:0:
402,192,422216,128,0,422327:0:0:0:0:
36,192,422216,1,0,0:0:0:0:
256,192,422327,128,0,422438:0:0:0:0:
475,192,422327,1,0,0:0:0:0:
109,192,422438,128,0,422549:0:0:0:0:
402,192,422438,1,0,0:0:0:0:
329,192,422549,128,0,422661:0:0:0:0:
182,192,422549,1,0,0:0:0:0:
36,192,422661,128,0,422772:0:0:0:0:
109,192,422772,128,0,422883:0:0:0:0:
329,192,422772,1,0,0:0:0:0:
182,192,422883,128,0,422994:0:0:0:0:
475,192,422883,1,0,0:0:0:0:
329,192,422994,128,0,423105:0:0:0:0:
256,192,423105,128,0,423216:0:0:0:0:
475,192,423105,1,0,0:0:0:0:
182,192,423216,128,0,423327:0:0:0:0:
36,192,423216,1,0,0:0:0:0:
475,192,423327,128,0,423549:0:0:0:0:
256,192,423327,1,0,0:0:0:0:
329,192,423438,128,0,423661:0:0:0:0:
109,192,423438,1,0,0:0:0:0:
182,192,423549,128,0,423772:0:0:0:0:
36,192,423549,1,0,0:0:0:0:
475,192,423661,128,0,423883:0:0:0:0:
256,192,423661,1,0,0:0:0:0:
329,192,423772,128,0,423883:0:0:0:0:
109,192,423772,1,0,0:0:0:0:
182,192,423883,128,0,424216:0:0:0:0:
36,192,423883,1,0,0:0:0:0:
109,192,423994,128,0,424327:0:0:0:0:
36,192,424105,128,0,424438:0:0:0:0:
402,192,424105,1,0,0:0:0:0:
329,192,424216,128,0,424438:0:0:0:0:
475,192,424216,1,0,0:0:0:0:
256,192,424327,128,0,424549:0:0:0:0:
182,192,424438,128,0,424549:0:0:0:0:
109,192,424438,1,0,0:0:0:0:
329,192,424549,128,0,424772:0:0:0:0:
402,192,424549,1,0,0:0:0:0:
109,192,424661,1,0,0:0:0:0:
182,192,424661,128,0,424883:0:0:0:0:
402,192,424772,128,0,424994:0:0:0:0:
475,192,424772,1,0,0:0:0:0:
256,192,424883,128,0,425105:0:0:0:0:
36,192,424883,1,0,0:0:0:0:
475,192,424994,128,0,425105:0:0:0:0:
109,192,424994,1,0,0:0:0:0:
329,192,425105,128,0,425216:0:0:0:0:
182,192,425105,1,0,0:0:0:0:
256,192,425216,1,0,0:0:0:0:
36,192,425216,128,0,425438:0:0:0:0:
475,192,425216,128,0,425438:0:0:0:0:
402,192,425327,1,0,0:0:0:0:
109,192,425438,1,0,0:0:0:0:
256,192,425438,1,0,0:0:0:0:
329,192,425549,1,0,0:0:0:0:
182,192,425549,1,0,0:0:0:0:
475,192,425661,1,0,0:0:0:0:
36,192,425661,1,0,0:0:0:0:
182,192,425772,1,0,0:0:0:0:
329,192,425772,1,0,0:0:0:0:
109,192,425883,1,0,0:0:0:0:
256,192,425883,128,0,426105:0:0:0:0:
402,192,425994,1,0,0:0:0:0:
36,192,426105,1,0,0:0:0:0:
329,192,426105,1,0,0:0:0:0:
109,192,426216,1,0,0:0:0:0:
475,192,426216,1,0,0:0:0:0:
182,192,426327,1,0,0:0:0:0:
329,192,426327,1,0,0:0:0:0:
402,192,426438,1,0,0:0:0:0:
256,192,426438,1,0,0:0:0:0:
109,192,426549,128,0,426772:0:0:0:0:
329,192,426549,128,0,426772:0:0:0:0:
182,192,426661,1,0,0:0:0:0:
36,192,426772,1,0,0:0:0:0:
256,192,426772,1,0,0:0:0:0:
109,192,426883,1,0,0:0:0:0:
329,192,426883,1,0,0:0:0:0:
182,192,426994,1,0,0:0:0:0:
475,192,426994,1,0,0:0:0:0:
36,192,427105,1,0,0:0:0:0:
329,192,427105,1,0,0:0:0:0:
475,192,427216,128,0,427549:0:0:0:0:
182,192,427216,1,0,0:0:0:0:
402,192,427327,128,0,427549:0:0:0:0:
109,192,427327,1,0,0:0:0:0:
329,192,427438,128,0,427549:0:0:0:0:
36,192,427438,1,0,0:0:0:0:
182,192,427549,1,0,0:0:0:0:
256,192,427549,1,0,0:0:0:0:
36,192,427661,1,0,0:0:0:0:
329,192,427661,1,0,0:0:0:0:
182,192,427772,1,0,0:0:0:0:
402,192,427772,1,0,0:0:0:0:
182,192,427883,1,0,0:0:0:0:
402,192,427883,1,0,0:0:0:0:
256,192,427994,1,0,0:0:0:0:
109,192,428105,1,0,0:0:0:0:
329,192,428105,1,0,0:0:0:0:
109,192,428216,1,0,0:0:0:0:
329,192,428216,1,0,0:0:0:0:
256,192,428327,1,0,0:0:0:0:
182,192,428438,1,0,0:0:0:0:
402,192,428438,1,0,0:0:0:0:
182,192,428549,1,0,0:0:0:0:
402,192,428549,1,0,0:0:0:0:
256,192,428661,1,0,0:0:0:0:
36,192,428772,1,0,0:0:0:0:
329,192,428772,1,0,0:0:0:0:
36,192,428883,1,0,0:0:0:0:
329,192,428883,1,0,0:0:0:0:
256,192,428994,1,0,0:0:0:0:
182,192,429105,1,0,0:0:0:0:
475,192,429105,1,0,0:0:0:0:
182,192,429216,1,0,0:0:0:0:
475,192,429216,1,0,0:0:0:0:
256,192,429327,1,0,0:0:0:0:
109,192,429438,1,0,0:0:0:0:
402,192,429438,1,0,0:0:0:0:
329,192,429438,1,0,0:0:0:0:
182,192,429438,1,0,0:0:0:0:
109,192,429549,1,0,0:0:0:0:
402,192,429549,1,0,0:0:0:0:
329,192,429549,1,0,0:0:0:0:
182,192,429549,1,0,0:0:0:0:
256,192,429661,1,0,0:0:0:0:
182,192,429772,1,0,0:0:0:0:
329,192,429772,1,0,0:0:0:0:
36,192,429772,1,0,0:0:0:0:
475,192,429772,1,0,0:0:0:0:
329,192,429883,128,0,430216:0:0:0:0:
182,192,429883,128,0,430216:0:0:0:0:
256,192,430216,128,0,430438:0:0:0:0:
109,192,430216,128,0,430438:0:0:0:0:
402,192,430216,128,0,430438:0:0:0:0:
475,192,430216,128,0,430438:0:0:0:0:
36,192,430216,128,0,430438:0:0:0:0:
329,192,430549,1,0,0:0:0:0:
402,192,430549,1,0,0:0:0:0:
256,192,430549,1,0,0:0:0:0:
109,192,430661,1,0,0:0:0:0:
36,192,430661,1,0,0:0:0:0:
475,192,430772,1,0,0:0:0:0:
402,192,430772,1,0,0:0:0:0:
256,192,430883,1,0,0:0:0:0:
182,192,430883,1,0,0:0:0:0:
402,192,430994,1,0,0:0:0:0:
329,192,430994,1,0,0:0:0:0:
109,192,431105,1,0,0:0:0:0:
182,192,431105,1,0,0:0:0:0:
329,192,431216,1,0,0:0:0:0:
256,192,431216,1,0,0:0:0:0:
402,192,431216,1,0,0:0:0:0:
109,192,431327,1,0,0:0:0:0:
36,192,431327,1,0,0:0:0:0:
475,192,431438,1,0,0:0:0:0:
402,192,431438,1,0,0:0:0:0:
256,192,431549,1,0,0:0:0:0:
182,192,431549,1,0,0:0:0:0:
402,192,431661,1,0,0:0:0:0:
329,192,431661,1,0,0:0:0:0:
109,192,431772,1,0,0:0:0:0:
182,192,431772,1,0,0:0:0:0:
402,192,431883,1,0,0:0:0:0:
329,192,431883,1,0,0:0:0:0:
475,192,431883,1,0,0:0:0:0:
182,192,431994,1,0,0:0:0:0:
109,192,431994,1,0,0:0:0:0:
402,192,432105,1,0,0:0:0:0:
329,192,432105,1,0,0:0:0:0:
109,192,432216,1,0,0:0:0:0:
36,192,432216,1,0,0:0:0:0:
329,192,432327,1,0,0:0:0:0:
256,192,432327,1,0,0:0:0:0:
182,192,432438,1,0,0:0:0:0:
109,192,432438,1,0,0:0:0:0:
475,192,432549,1,0,0:0:0:0:
402,192,432549,1,0,0:0:0:0:
329,192,432549,1,0,0:0:0:0:
256,192,432661,1,0,0:0:0:0:
109,192,432661,1,0,0:0:0:0:
475,192,432772,1,0,0:0:0:0:
329,192,432772,1,0,0:0:0:0:
182,192,432883,1,0,0:0:0:0:
36,192,432883,1,0,0:0:0:0:
402,192,432994,1,0,0:0:0:0:
256,192,432994,1,0,0:0:0:0:
329,192,433105,1,0,0:0:0:0:
109,192,433105,1,0,0:0:0:0:
475,192,433216,1,0,0:0:0:0:
36,192,433216,1,0,0:0:0:0:
109,192,433272,1,0,0:0:0:0:
402,192,433272,1,0,0:0:0:0:
182,192,433327,1,0,0:0:0:0:
329,192,433327,1,0,0:0:0:0:
36,192,433383,1,0,0:0:0:0:
475,192,433383,1,0,0:0:0:0:
109,192,433439,1,0,0:0:0:0:
402,192,433439,1,0,0:0:0:0:
329,192,433494,1,0,0:0:0:0:
182,192,433494,1,0,0:0:0:0:
475,192,433549,1,0,0:0:0:0:
36,192,433549,1,0,0:0:0:0:
109,192,433605,1,0,0:0:0:0:
402,192,433605,1,0,0:0:0:0:
182,192,433660,1,0,0:0:0:0:
329,192,433660,1,0,0:0:0:0:
36,192,433716,1,0,0:0:0:0:
475,192,433716,1,0,0:0:0:0:
109,192,433772,1,0,0:0:0:0:
402,192,433772,1,0,0:0:0:0:
329,192,433827,1,0,0:0:0:0:
182,192,433827,1,0,0:0:0:0:
475,192,433883,1,0,0:0:0:0:
36,192,433883,1,0,0:0:0:0:
109,192,433939,1,0,0:0:0:0:
402,192,433939,1,0,0:0:0:0:
182,192,433994,1,0,0:0:0:0:
329,192,433994,1,0,0:0:0:0:
36,192,434050,1,0,0:0:0:0:
475,192,434050,1,0,0:0:0:0:
109,192,434106,1,0,0:0:0:0:
402,192,434106,1,0,0:0:0:0:
329,192,434161,1,0,0:0:0:0:
182,192,434161,1,0,0:0:0:0:
475,192,434216,1,0,0:0:0:0:
36,192,434216,1,0,0:0:0:0:
109,192,434272,1,0,0:0:0:0:
402,192,434272,1,0,0:0:0:0:
182,192,434327,1,0,0:0:0:0:
329,192,434327,1,0,0:0:0:0:
475,192,434383,1,0,0:0:0:0:
36,192,434383,1,0,0:0:0:0:
109,192,434439,1,0,0:0:0:0:
402,192,434439,1,0,0:0:0:0:
182,192,434494,1,0,0:0:0:0:
329,192,434494,1,0,0:0:0:0:
475,192,434549,1,0,0:0:0:0:
36,192,434549,1,0,0:0:0:0:
256,192,434549,1,0,0:0:0:0:
109,192,434605,1,0,0:0:0:0:
402,192,434605,1,0,0:0:0:0:
329,192,434660,1,0,0:0:0:0:
182,192,434660,1,0,0:0:0:0:
475,192,434716,1,0,0:0:0:0:
36,192,434716,1,0,0:0:0:0:
256,192,434716,1,0,0:0:0:0:
109,192,434772,1,0,0:0:0:0:
402,192,434772,1,0,0:0:0:0:
182,192,434827,1,0,0:0:0:0:
329,192,434827,1,0,0:0:0:0:
36,192,434883,1,0,0:0:0:0:
475,192,434883,1,0,0:0:0:0:
256,192,434883,1,0,0:0:0:0:
109,192,434939,1,0,0:0:0:0:
402,192,434939,1,0,0:0:0:0:
182,192,434994,1,0,0:0:0:0:
329,192,434994,1,0,0:0:0:0:
256,192,435049,1,0,0:0:0:0:
36,192,435050,1,0,0:0:0:0:
475,192,435050,1,0,0:0:0:0:
402,192,435106,1,0,0:0:0:0:
109,192,435106,1,0,0:0:0:0:
329,192,435161,1,0,0:0:0:0:
182,192,435161,1,0,0:0:0:0:
256,192,435216,128,0,435883:0:0:0:0:
182,192,435883,1,0,0:0:0:0:
109,192,435883,1,0,0:0:0:0:
36,192,435883,1,0,0:0:0:0:
329,192,435883,1,0,0:0:0:0:
402,192,435883,1,0,0:0:0:0:
475,192,435883,1,0,0:0:0:0:
256,192,436383,1,0,2:0:0:0:
36,192,436716,1,0,0:0:0:0:
475,192,436716,1,0,2:0:0:0:
