osu file format v6

[General]
AudioFilename: 242574_drmariofever2.mp3
AudioLeadIn: 0
PreviewTime: -1
Countdown: 1
SampleSet: None
StackLeniency: 0.7
Mode: 0
LetterboxInBreaks: 1

[Editor]
DistanceSpacing: 0.800000011920929
BeatDivisor: 1
GridSize: 32

[Metadata]
Title:dr mario hard only
Artist:Iaruk
Creator:joshisfriend
Version:Hard
Source:
Tags:

[Difficulty]
HPDrainRate:5
CircleSize:5
OverallDifficulty:5
SliderMultiplier:1.4
SliderTickRate:1

[Events]
//Background and Video events
//Break Periods
//Storyboard Layer 0 (Background)
//Storyboard Layer 1 (Fail)
//Storyboard Layer 2 (Pass)
//Storyboard Layer 3 (Foreground)
//Storyboard Sound Samples
//Background Colour Transformations
3,100,163,162,255

[TimingPoints]
0,997.699999999999,4,0,0,100,1,0

[HitObjects]
160,288,2743,1,0
256,224,3117,1,0
288,320,3491,1,0
352,224,3866,1,0
256,192,4240,1,0
288,224,4614,1,0
256,256,4988,1,0
192,160,5612,1,0
256,224,5986,1,0
320,224,6360,1,0
224,224,6734,1,0
192,256,6983,1,0
224,288,7358,1,0
288,288,7732,1,0
320,256,8106,1,0
384,160,8355,1,0
256,128,8729,1,0
224,192,9104,1,0
192,256,9478,1,0
192,256,9852,1,0
160,256,10101,1,0
160,192,10475,1,0
128,128,11224,5,0
192,192,11598,1,0
256,192,11972,1,0
256,192,12346,12,0,13606
128,192,13967,5,0
160,256,14341,1,0
320,160,14716,1,0
224,128,15090,1,0
224,192,15464,1,0
192,256,15838,1,0
160,288,16212,1,0
128,224,16711,1,0
160,256,17085,1,0
192,288,17459,1,0
224,288,17833,1,0
256,256,18208,1,0
256,224,18582,1,0
256,192,18831,1,0
224,192,19330,1,0
192,192,19579,1,0
192,192,19829,1,0
192,192,20078,1,0
192,192,20203,1,0
160,160,20702,1,0
160,192,21076,1,0
192,192,21325,1,0
192,224,21450,1,0
224,224,21699,1,0
256,256,22448,5,0
256,256,22697,1,0
288,224,22947,1,0
288,224,23071,1,0
288,224,23321,1,0
288,192,23570,1,0
288,192,23695,1,0
288,192,23944,1,0
288,192,24194,1,0
256,160,24568,1,0
256,160,24942,1,0
96,128,25191,1,0
96,128,25441,1,0
96,128,25690,1,0
96,128,25815,1,0
192,256,26064,1,0
192,256,26314,1,0
192,256,26439,1,0
384,160,26813,1,0
384,160,26937,1,0
384,160,27187,1,0
256,96,27436,1,0
256,96,27686,1,0
256,96,27935,1,0
224,192,28185,1,0
224,224,28434,1,0
224,224,28559,1,0
96,160,28933,1,0
96,160,29058,1,0
96,160,29307,1,0
192,224,29556,1,0
256,224,29806,1,0
256,224,30055,1,0
256,224,30180,1,0
192,224,30429,1,0
128,160,30679,1,0
128,160,30928,1,0
224,192,31178,1,0
288,224,31427,1,0
352,256,31552,1,0
416,224,31801,1,0
416,192,32051,1,0
448,160,32300,1,0
416,128,32549,1,0
384,96,32674,1,0
352,96,32924,1,0
288,128,33173,1,0
256,160,33422,1,0
224,192,33672,1,0
160,224,33921,1,0
96,192,34046,1,0
160,96,34295,1,0
224,96,34670,1,0
288,192,34919,1,0
320,224,35168,1,0
384,192,35418,1,0
416,160,35792,1,0
96,256,36914,2,0,L|384:64,3,280
192,224,43524,1,0
192,128,44148,1,0
256,192,44647,1,0
256,320,45021,1,0
224,320,45270,1,0
96,352,45520,1,0
96,352,45769,1,0
96,288,46018,1,0
96,256,46143,1,0
96,224,46393,1,0
128,192,46642,1,0
160,192,46767,1,0
160,192,47016,1,0
192,192,47266,1,0
224,224,47515,1,0
224,224,47640,1,0
192,256,47889,1,0
192,288,48139,1,0
160,256,48388,1,0
160,256,48637,1,0
160,224,48887,1,0
160,192,49136,1,0
224,128,49386,1,0
320,128,49635,1,0
352,128,49884,1,0
352,160,50134,1,0
352,192,50259,1,0
320,256,50508,1,0
256,256,50757,1,0
224,256,51007,1,0
224,256,51256,1,0
224,224,51381,1,0
224,224,51630,1,0
224,192,51880,1,0
256,192,52129,1,0
288,192,52379,1,0
320,224,52628,1,0
320,224,52878,1,0
256,288,53376,1,0
256,288,53501,1,0
96,128,54624,1,0
96,128,54748,1,0
384,128,56120,1,0
384,128,56245,1,0
224,160,57367,5,0
224,224,58739,1,0
96,256,59487,1,0
128,128,60111,1,0
384,288,60859,1,0
416,128,61607,1,0
256,224,62356,1,0
128,256,62979,1,0
256,192,64226,12,0,66526
256,192,67220,12,0,68730
192,128,68966,5,0
256,128,69340,1,0
256,224,69714,1,0
160,192,70088,1,0
128,192,70462,1,0
160,96,70711,1,0
192,128,71086,1,0
224,224,71460,1,0
288,256,71709,1,0
352,224,71959,1,0
384,160,72083,1,0
384,128,72333,1,0
352,96,72582,1,0
256,128,72832,1,0
192,160,73081,1,0
192,224,73206,1,0
256,288,73455,1,0
288,288,73705,1,0
352,288,73954,1,0
416,256,74203,1,0
416,192,74328,1,0
384,128,74578,1,0
288,128,74827,1,0
256,192,74952,1,0
256,256,75201,1,0
288,288,75451,1,0
416,224,75700,1,0
384,128,75949,1,0
288,96,76199,1,0
192,128,76448,1,0
160,160,76698,1,0
128,224,76822,1,0
128,256,77072,1,0
128,256,77197,1,0
160,256,77446,1,0
192,288,77695,1,0
192,288,78070,1,0
192,288,78319,1,0
192,288,78568,1,0
192,288,78818,1,0
192,288,78943,1,0
192,288,79192,1,0
192,288,79317,1,0
192,288,79566,1,0
192,288,79691,1,0
192,288,79940,1,0
192,288,80065,1,0
192,288,80314,1,0
192,288,80439,1,0
192,288,80688,1,0
192,288,80938,1,0
224,96,81312,1,0
192,160,81811,1,0
96,224,82060,1,0
128,288,82434,1,0
128,320,82809,1,0
224,288,83058,1,0
288,256,83307,1,0
320,224,83432,1,0
320,192,83806,1,0
256,128,84180,1,0
64,128,84430,1,0
64,160,84679,1,0
64,224,84804,1,0
128,256,85053,1,0
192,288,85303,1,0
256,288,85428,1,0
320,224,85802,1,0
352,192,86051,1,0
384,160,86301,1,0
384,224,86799,1,0
384,256,87049,1,0
352,288,87423,1,0
320,288,87672,1,0
288,256,87922,1,0
288,256,88047,1,0
288,192,88296,1,0
320,160,88545,1,0
352,160,88795,1,0
352,160,89044,1,0
352,128,89294,1,0
320,96,89543,1,0
320,96,89792,1,0
256,96,90042,1,0
192,128,90291,1,0
128,160,90541,1,0
128,192,90665,1,0
128,224,90915,1,0
160,256,91164,1,0
192,288,91289,1,0
256,256,91663,1,0
288,256,91788,1,0
320,224,92037,1,0
320,224,92287,1,0
320,192,92536,1,0
320,160,92786,1,0
320,160,93035,1,0
288,128,93284,1,0
256,160,93409,1,0
224,224,93659,1,0
192,256,93908,1,0
160,288,94157,1,0
128,288,94407,1,0
128,256,94656,1,0
128,256,94906,1,0
128,192,95280,1,0
160,192,95529,1,0
224,224,95779,1,0
256,256,96028,1,0
256,256,96278,1,0
288,288,96402,1,0
320,288,96652,1,0
352,256,96901,1,0
352,256,97151,1,0
384,192,97275,1,0
352,192,97525,1,0
352,192,97649,1,0
320,160,98024,1,0
256,192,98273,1,0
256,192,98398,1,0
224,192,98647,1,0
224,192,98772,1,0
192,224,99146,1,0
192,288,99395,1,0
224,320,99645,1,0
256,320,99894,1,0
320,288,100019,1,0
320,256,100268,1,0
352,224,100518,1,0
320,160,100892,1,0
320,160,101017,1,0
288,160,101266,1,0
224,192,101515,1,0
224,256,101765,1,0
224,288,102014,1,0
192,320,102264,1,0
128,256,102513,1,0
128,224,102887,1,0
160,128,103511,1,0
224,192,104010,1,0
288,224,104259,1,0
352,256,104384,1,0
416,224,104633,1,0
416,160,104758,1,0
416,128,105007,1,0
320,96,105257,1,0
256,160,105506,1,0
192,224,105756,1,0
160,256,106005,1,0
96,192,106255,1,0
64,128,106504,1,0
128,128,106753,1,0
160,192,107003,1,0
224,256,107377,5,0
224,256,107626,1,0
256,224,107876,1,0
256,160,108001,1,0
256,128,108375,1,0
224,128,108624,1,0
192,96,108749,1,0
192,128,108998,1,0
160,160,109248,1,0
160,192,109497,1,0
192,224,109746,1,0
224,224,109996,1,0
256,192,110121,1,0
288,160,110495,1,0
224,160,110744,1,0
192,160,110869,1,0
160,192,111243,1,0
192,224,111492,1,0
224,224,111742,1,0
288,192,111991,1,0
256,128,112365,1,0
192,128,112615,1,0
160,160,112864,1,0
160,224,113114,1,0
192,224,113363,1,0
224,224,113613,1,0
256,224,113862,1,0
288,192,114111,1,0
288,128,114486,1,0
224,96,114735,1,0
160,128,114984,1,0
160,128,115109,1,0
256,256,116232,1,0
256,256,116356,1,0
288,96,117603,1,0
288,96,117728,1,0
64,128,119100,1,0
160,288,120472,1,0
384,288,121095,1,0
288,64,121844,1,0
192,224,122467,1,0
288,288,123091,1,0
352,192,123839,1,0
192,160,124587,1,0
192,192,125086,1,0
192,224,125211,1,0
192,224,125460,1,0
320,96,125834,1,4
