osu file format v9

[General]
AudioFilename: 192.mp3
AudioLeadIn: 0
PreviewTime: 43376
Countdown: 0
SampleSet: Normal
StackLeniency: 0.7
Mode: 0
LetterboxInBreaks: 0

[Editor]
Bookmarks: 9085
DistanceSpacing: 0
BeatDivisor: 4
GridSize: 8

[Metadata]
Title:Nagging
Artist:IU ft. Seulong
Creator:orioncomet
Version:Ploy x Shin
Source:
Tags:Shinxyn

[Difficulty]
HPDrainRate:7
CircleSize:4
OverallDifficulty:7
ApproachRate:7
SliderMultiplier:1.6
SliderTickRate:1

[Events]
//Background and Video events
0,0,"bg2.jpg"
//Break Periods
2,78124,78631
2,164374,164613
//Storyboard Layer 0 (Background)
//Storyboard Layer 1 (Fail)
//Storyboard Layer 2 (Pass)
//Storyboard Layer 3 (Foreground)
//Storyboard Sound Samples
//Background Colour Transformations
3,100,0,0,0

[TimingPoints]
514,535.714285714286,4,1,1,30,1,0
8817,-100,4,1,1,10,0,0
9353,-100,4,1,1,15,0,0
9889,-100,4,1,1,15,0,0
10290,-100,4,2,0,30,0,0
10826,-100,4,1,1,25,0,0
11630,-200,4,1,1,25,0,0
11897,-200,4,2,0,40,0,0
12567,-100,4,1,1,30,0,0
43371,-100,4,1,1,30,0,1
60380,-100,4,1,1,30,0,0
60514,-100,4,1,1,30,0,1
72835,-100,4,1,1,30,0,0
77924,-100,4,2,1,40,0,0
78058,-100,4,1,1,30,0,0
88505,-100,4,1,1,25,0,0
88705,-100,4,2,1,20,0,0
89442,-100,4,1,1,30,0,0
90647,-100,4,1,1,20,0,0
90915,-100,4,1,1,30,0,0
96272,-100,4,1,1,15,0,0
96540,-100,4,1,1,30,0,0
109799,-100,4,1,1,30,0,1
126808,-100,4,1,1,30,0,0
126942,-100,4,1,1,30,0,1
139264,-100,4,1,1,30,0,0
141808,-200,4,1,1,15,0,0
142076,-200,4,1,1,30,0,0
142344,-200,4,2,1,0,0,0
142612,-200,4,1,1,30,0,0
143014,-200,4,2,1,40,0,0
143147,-100,4,1,1,30,0,0
144889,-100,4,1,1,20,0,0
145692,-100,4,1,1,25,0,0
146496,-100,4,1,1,30,0,0
154665,-100,4,1,1,20,0,0
154933,-100,4,1,1,30,0,0
158951,-100,4,1,1,20,0,0
159219,-100,4,1,1,30,0,0
162433,-100,4,2,1,0,0,0
162701,-100,4,1,1,30,0,0
163237,-100,4,1,1,20,0,0
163505,-100,4,1,1,30,0,0
163639,-100,4,1,1,15,0,0
163906,-100,4,1,1,30,0,0
164040,-100,4,1,1,20,0,0
164308,-100,4,1,1,30,0,0
165380,-200,4,2,1,20,0,0
165647,-200,4,2,1,40,0,0
165915,-200,4,2,1,0,0,0
166183,-200,4,2,1,40,0,0
166719,-100,4,2,1,40,0,0
167522,-100,4,1,1,30,0,0
169799,-100,4,1,1,30,0,1
182522,-100,4,1,1,30,0,0
182656,-100,4,1,1,30,0,1
194442,-100,4,1,1,30,0,0
196451,-200,4,1,1,30,0,0
197121,-200,4,2,1,40,0,0
197255,-200,4,2,1,20,0,0
197790,-200,4,2,1,0,0,0
198058,-200,4,2,1,20,0,0
198326,-200,4,2,1,0,0,0
198594,-200,4,2,1,20,0,0
198728,-100,4,2,1,40,0,0
201540,-100,4,2,1,15,0,0
202076,-100,4,2,1,40,0,0
206764,-100,4,2,1,30,0,0
207299,-100,4,2,1,20,0,0
207835,-100,4,2,1,10,0,0
208371,-100,4,2,1,0,0,0

[Colours]
Combo1 : 251,156,51
Combo2 : 70,209,255
Combo3 : 255,147,201
Combo4 : 181,216,61

[HitObjects]
136,192,9085,1,0
256,88,9621,1,0
376,192,10156,1,0
376,192,10424,2,0,B|376:216,4,20
264,304,11228,1,0
264,304,11763,2,0,B|184:304,1,80
184,72,12835,6,0,B|200:64|224:40,2,40
32,152,13371,5,4
32,152,13638,2,0,B|40:192|80:232,1,80,0|8
248,200,14174,1,0
248,200,14442,2,0,B|240:288|144:312,1,160,0|8
56,264,15246,5,0
56,232,15380,1,0
64,200,15513,1,0
112,120,15781,2,0,B|152:136|192:176,1,80,0|8
176,256,16317,1,0
176,256,16585,2,0,B|264:232|264:136,1,160,0|8
216,56,17388,5,0
416,80,17656,1,0
448,168,17924,5,0
448,200,18058,1,0
448,232,18192,2,0,B|416:320|312:320,1,160,8|0
326,319,18996,5,0
136,152,19263,1,8
136,152,19799,6,0,B|168:240|272:240,1,160,0|8
264,80,20603,2,0,B|231:56|176:40,1,80
320,168,21138,2,0,B|354:193|408:208,1,80,0|8
224,160,21674,5,0
192,184,21808,1,0
168,216,21942,2,0,B|128:280|176:344|248:352,1,160,0|8
376,296,22746,5,0
376,296,23014,2,0,B|472:256|440:144,1,160,0|8
320,72,23817,5,0
320,72,24085,2,0,B|256:0|152:48,1,160,0|8
96,64,24889,1,0
24,104,25156,2,0,B|64:160|136:160|184:96,1,160,0|8
240,120,25960,2,0,B|224:192|160:208|112:224,1,160
125,219,26764,1,8
48,216,27031,1,0
464,216,27567,5,0
464,216,27835,1,8
400,168,28103,1,0
360,160,28237,1,0
320,168,28371,1,0
280,96,28639,1,0
248,120,28772,1,0
240,160,28906,1,8
272,232,29174,1,0
312,304,29442,2,0,B|208:320|192:224,1,160,0|8
72,80,30514,5,4
72,80,30781,2,0,B|72:120|104:152,1,80,0|8
103,151,31317,1,0
256,64,31585,1,0
344,112,31853,5,0
424,160,32121,2,0,B|432:200|432:200|424:248,2,80,8|0|0
336,192,32924,2,0,B|248:192,1,80,0|8
168,144,33460,1,0
168,144,33728,2,0,B|144:232|232:280,1,160,0|8
320,304,34531,6,0,B|384:312|424:264,1,80
496,288,35067,2,0,B|496:232|448:192,1,80,0|8
376,200,35603,1,0
448,136,35871,2,0,B|424:104|368:104,1,80
296,152,36406,6,0,B|248:232|128:208,1,160,8|0
64,184,37210,1,0
64,184,37344,2,0,B|32:112|96:64,1,120
152,144,38014,2,0,B|232:168|224:288,1,160,0|8
408,336,39085,5,0
408,336,39487,1,0
408,336,39889,1,0
464,192,40156,5,0
464,192,40558,1,0
464,192,40960,1,0
416,104,41228,5,0
328,136,41496,1,0
328,136,41630,1,0
248,88,41897,1,0
248,88,42031,1,0
152,104,42299,1,0
152,104,42835,2,0,B|152:280,1,160,0|4
248,344,43639,5,0
280,320,43772,1,0
304,288,43906,1,8
272,192,44174,1,0
360,160,44442,1,0
408,240,44710,1,0
408,240,44978,5,8
312,80,45246,1,0
312,80,45514,5,0
240,144,45781,2,0,B|240:192,2,40,0|0|8
168,80,46317,1,0
168,80,46585,2,0,B|112:152|176:232,1,160,0|8
256,336,47389,5,0
256,336,47522,1,0
256,336,47656,1,0
328,272,47924,1,0
328,176,48192,2,0,B|287:171|287:171|248:176,1,80,8|0
104,144,48728,5,0
104,144,48996,2,0,B|131:113|131:113|168:96,1,80,0|8
256,56,49531,1,0
336,104,49799,2,0,B|381:123|381:123|408:152,1,80
400,240,50335,5,8
320,192,50603,1,0
320,288,50871,2,0,B|160:288,1,160,0|8
80,344,51674,5,0
72,248,51942,2,0,B|16:232|8:112|80:120,2,160,4|8|0
136,176,53281,5,0
296,152,53549,1,8
360,224,53817,5,0
424,152,54085,2,0,B|480:136|488:16|416:24,2,160,4|8|0
336,56,55424,5,0
368,216,55692,1,8
320,296,55960,5,0
232,328,56228,2,0,B|168:344|96:320,1,120
40,264,56897,2,0,B|16:208|32:136,1,120
256,192,57835,5,8
256,192,58103,1,0
256,96,58371,5,0
256,96,58639,1,0
336,144,58906,1,0
336,144,59174,1,0
176,144,59442,1,0
176,144,59710,2,0,B|176:200,1,40
256,272,60112,1,0
256,272,60246,1,0
256,272,60514,6,0,B|336:272,2,80,4|0|8
192,200,61317,1,0
104,240,61585,1,0
104,240,61853,5,0
256,88,62121,1,8
176,136,62389,5,0
272,112,62656,1,0
360,144,62924,2,0,B|392:104,2,40,0|0|8
304,224,63460,2,0,B|263:231|216:224,1,80
256,320,63996,5,0
256,128,64264,1,8
184,192,64531,5,0
160,224,64665,1,0
128,240,64799,1,0
56,176,65067,2,0,B|88:144|128:128,1,80,0|8
184,56,65603,5,0
296,168,65871,1,0
296,168,66139,1,0
184,280,66406,1,8
248,136,66674,5,0
344,136,66942,1,0
376,224,67210,1,0
360,256,67344,1,0
328,280,67478,1,8
248,336,67746,1,0
312,248,68014,5,0
248,128,68281,1,0
120,184,68549,1,8
216,224,68817,5,0
136,272,69085,2,0,B|32:264|0:176,2,160,4|8|0
208,312,70424,5,0
368,312,70692,1,8
328,160,70960,5,0
408,216,71228,2,0,B|496:176|488:80,2,160,4|8|0
320,248,72567,5,0
168,208,72835,1,8
88,160,73103,5,0
88,160,73237,1,0
88,160,73371,1,0
184,56,73772,1,0
240,192,74174,1,0
240,192,74442,2,0,B|128:216|64:136,1,160
176,128,75246,1,0
256,192,75513,12,0,77924
112,72,79531,6,0,B|80:48,2,40,0|0|4
208,72,80067,2,0,B|248:88|272:128,1,80,0|8
264,216,80603,2,0,B|224:208|184:160,1,80
197,174,81138,5,0
360,56,81406,1,8
424,128,81674,5,0
416,168,81808,1,0
392,200,81942,1,0
320,264,82210,1,0
248,200,82478,2,0,B|242:157|242:157|248:104,2,80,8|0|0
320,264,83281,5,0
120,264,83549,1,8
120,264,83817,6,0,B|113:224|113:224|120:184,1,80
200,136,84353,1,0
120,80,84621,1,8
208,40,84888,1,0
208,136,85156,2,0,B|224:216|224:216|208:296,1,160,0|8
208,292,86228,5,0
264,216,86496,2,0,B|308:221|308:221|344:216,1,80,0|8
344,120,87031,1,0
344,120,87299,2,0,B|264:90|184:120,1,160,0|8
104,160,88103,5,0
104,160,88237,1,0
104,160,88371,1,4
104,320,88638,2,0,B|184:352|288:312,1,160,4|0
408,160,90246,5,0
408,160,90380,1,0
408,160,90513,1,4
328,296,90781,1,4
56,192,91585,5,0
136,192,92121,1,0
216,192,92656,1,0
296,192,93192,1,8
376,192,93728,5,0
336,280,93996,1,0
296,192,94263,1,8
256,104,94531,1,0
256,104,94665,1,0
256,104,94799,1,0
216,192,95067,1,0
216,192,95201,1,0
176,280,95469,1,0
176,280,95603,1,0
336,280,95871,1,0
256,104,96406,5,4
256,104,96942,5,4
320,176,97210,2,0,B|286:204|240:208,1,80,0|8
152,232,97746,1,0
152,232,98013,2,0,B|200:312|312:280,1,160,0|8
392,280,98817,5,0
472,112,99085,1,0
376,120,99353,5,0
336,104,99487,1,0
304,80,99621,1,8
248,160,99888,2,0,B|200:152|160:160,1,80
96,224,100424,2,0,B|128:248|184:240,1,80,0|8
272,240,100960,5,0
312,240,101094,1,0
344,256,101228,2,0,B|384:280|424:280,1,80
456,192,101763,1,8
392,120,102031,1,0
256,40,102299,5,0
256,40,102567,1,0
112,120,102835,1,8
112,120,103103,1,0
256,192,103371,1,0
256,192,103638,1,0
256,192,103772,1,0
256,192,103906,1,8
392,120,104174,5,0
112,120,104442,1,0
256,344,104978,5,8
56,192,105513,5,0
192,144,105915,1,0
200,288,106317,1,0
456,192,106585,5,0
320,144,106987,1,0
312,288,107388,1,0
256,216,107656,5,0
320,144,107924,1,0
320,144,108058,1,0
192,144,108326,1,0
192,144,108460,1,0
256,216,108728,1,0
256,344,109263,5,0
256,40,109799,5,4
168,80,110067,1,0
136,104,110201,1,0
96,112,110335,1,8
32,184,110603,2,0,B|66:206|112:208,1,80
216,144,111138,5,0
80,304,111406,1,8
96,176,111674,5,0
176,232,111942,1,0
192,264,112076,1,0
224,280,112210,1,0
320,272,112478,1,8
344,176,112746,1,0
344,176,113013,2,0,B|336:80|224:64,1,160,0|8
104,256,113817,6,0,B|64:256,2,40
160,176,114353,1,0
208,88,114621,1,8
280,152,114888,2,0,B|352:200,1,80
432,160,115424,5,0
312,312,115692,1,8
312,312,115960,6,0,B|272:304|272:304|232:272,1,80
168,344,116496,1,0
160,248,116763,1,8
72,288,117031,2,0,B|66:244|66:244|72:208,1,80
160,248,117567,5,0
256,112,117835,1,8
256,208,118103,5,0
160,152,118371,2,0,B|16:72,1,160,4|8
160,152,119442,1,0
256,112,119710,5,0
256,272,119978,1,8
352,232,120246,5,0
352,136,120513,2,0,B|496:48,1,160,4|8
352,136,121585,1,0
256,192,121853,5,0
208,192,121987,1,0
160,192,122121,1,8
64,192,122388,6,0,B|32:240|80:288,1,80
136,328,122924,1,0
136,328,123058,1,0
232,328,123326,2,0,B|376:328,1,120
464,64,124263,5,8
464,64,124531,2,0,B|392:128,1,80
404,117,125067,1,0
280,216,125335,1,0
280,216,125603,1,0
152,120,125871,1,0
152,120,126138,1,0
120,144,126272,1,0
96,176,126406,1,0
88,216,126540,1,0
88,256,126674,1,0
100,292,126808,1,0
124,324,126942,6,0,B|204:372|292:316,1,160,4|8
304,232,127746,1,0
304,232,128013,1,0
392,272,128281,1,0
440,192,128549,2,0,B|436:148|436:148|416:112,1,80,8|0
418,116,129085,1,0
240,112,129353,5,0
240,112,129487,1,0
240,112,129621,1,8
152,152,129888,2,0,B|144:192|160:240,1,80
112,312,130424,5,0
320,208,130692,1,8
408,240,130960,5,0
416,192,131094,1,0
392,152,131228,1,0
312,96,131496,2,0,B|272:90|272:90|224:96,1,80,0|8
168,160,132031,1,0
224,240,132299,1,0
304,184,132567,2,0,B|352:216,2,40,0|0|8
224,312,133103,5,0
136,344,133371,2,0,B|96:328|72:288,1,80
56,200,133906,1,8
144,168,134174,1,0
216,232,134442,5,0
336,336,134710,1,0
456,232,134978,1,8
344,184,135246,5,0
280,256,135513,2,0,B|240:328|136:336,2,160,4|8|0
192,216,136853,5,0
368,88,137121,1,8
240,120,137388,5,0
312,184,137656,2,0,B|344:264|456:264,2,160,4|8|0
256,64,138996,5,0
256,320,139263,1,8
184,264,139531,6,0,B|167:303|120:328,1,80
56,264,140067,2,0,B|16:240,2,40,0|0|8
128,200,140603,1,0
128,200,140871,2,0,B|168:208|208:192,1,80
224,104,141406,5,8
224,288,141674,1,0
224,288,141942,2,0,B|320:288|352:208,1,160,4|0
256,200,143281,5,0
168,152,143549,2,0,B|224:88|320:112,2,160
184,328,145156,5,0
216,312,145290,1,0
256,320,145424,1,0
288,296,145558,1,0
328,304,145692,1,0
352,272,145826,1,0
392,272,145960,1,0
408,240,146094,1,0
448,240,146228,1,4
256,48,146763,5,8
208,136,147031,1,0
304,136,147299,1,0
256,216,147567,5,0
152,48,147835,1,8
344,48,148103,1,0
248,128,148371,5,0
152,152,148638,2,0,B|88:168,2,40,0|0|8
208,232,149174,1,0
128,288,149442,2,0,B|208:328|288:288,2,160,0|8|4
296,192,151049,5,8
376,144,151317,1,0
376,240,151585,1,0
296,192,151853,5,0
464,96,152121,1,8
456,288,152388,1,0
296,192,152656,6,0,B|144:192,1,120
176,192,153460,1,0
144,104,153728,5,0
32,192,154130,1,0
144,280,154531,1,0
176,192,154799,6,0,B|344:192,1,160,4|8
424,144,155603,1,0
424,240,155871,2,0,B|424:288|368:288|368:288|272:288,1,160,0|8
291,96,156942,6,0,B|368:96|368:96|424:96|424:144,1,160,0|8
336,192,157746,1,0
240,192,158013,2,0,B|192:192|192:144|192:144|192:40,1,160,0|8
240,192,159085,6,0,B|192:192|192:240|192:240|192:344,1,160,4|8
192,323,159888,1,0
192,323,160156,1,0
448,192,160692,1,8
352,192,160960,1,0
376,32,161228,5,0
136,32,161630,1,0
256,248,162031,2,0,B|328:200|328:152|304:120|256:160|256:160|200:120|176:152|176:192|224:232,1,320
352,312,163371,5,4
256,96,163772,1,4
160,312,164174,1,4
256,336,165513,6,0,B|288:280|216:240|256:168,1,160,4|0
192,104,166853,5,0
192,104,167121,1,0
56,192,167388,1,0
56,192,167656,1,0
192,272,167924,5,0
224,296,168058,1,0
320,312,168326,1,0
344,280,168460,1,0
352,184,168728,2,0,B|272:232|192:176,1,160
280,120,169531,5,0
360,64,169799,2,0,B|280:16|200:64,1,160,4|8
280,120,170603,1,0
352,184,170871,1,0
272,240,171138,1,0
248,272,171272,1,0
224,304,171406,1,8
128,304,171674,5,0
96,280,171808,1,0
64,256,171942,2,0,B|64:160|168:144,1,160,0|8
384,208,172746,2,0,B|376:168|328:136,1,80
240,72,173281,1,0
240,72,173549,1,8
264,328,173817,5,0
264,328,174085,1,4
136,192,174621,1,8
320,152,175156,1,0
248,216,175424,5,0
304,48,175692,1,8
424,176,175960,5,0
424,176,176228,1,4
240,136,176764,1,8
296,320,177299,1,0
360,248,177567,5,0
304,64,177835,1,8
176,208,178103,5,0
176,208,178371,2,0,B|104:208|64:128,2,120
240,136,179442,2,0,B|312:144|344:208,2,120
256,232,180514,5,0
256,232,180781,1,0
424,160,181049,1,0
424,160,181317,1,0
280,48,181585,1,0
312,136,181853,1,0
312,136,181987,1,0
352,224,182255,1,0
352,224,182389,1,0
288,296,182656,5,4
224,224,182924,1,0
176,304,183192,2,0,B|80:288|80:192,1,160,8|0
176,216,183996,1,0
216,128,184264,1,8
280,200,184531,2,0,B|320:212|368:200,1,80,0|0
440,144,185067,1,0
456,176,185201,1,0
456,216,185335,1,8
424,304,185603,1,0
352,368,185871,5,0
352,368,186139,1,0
256,176,186406,1,8
352,152,186674,5,0
336,112,186808,1,0
304,88,186942,1,0
208,88,187210,2,0,B|168:112|160:152,1,80,0|8
256,176,187746,1,0
184,240,188014,2,0,B|256:288|344:240,1,160,0|8
256,96,188817,5,0
80,192,189085,2,0,B|40:176,2,40,0|0|0
160,248,189621,1,8
200,160,189889,1,0
200,160,190156,2,0,B|288:176|296:272,1,160,0|8
256,360,190960,5,0
392,280,191228,2,0,B|440:192|376:96,1,160,4|8
120,128,192299,1,0
120,288,192567,5,0
392,280,192835,1,8
256,192,193103,5,0
120,104,193371,2,0,B|72:184|128:264,1,160,4|8
392,256,194442,1,0
392,104,194710,6,0,B|440:104,2,40,0|0|8
120,104,195246,6,0,B|72:104,2,40
256,192,195915,1,0
120,280,196317,1,0
224,280,196585,2,0,B|312:280,1,80
264,192,197389,6,0,C|272:184|256:176|272:168|256:160|272:152|256:144|272:136|256:128|272:120|256:112|268:104|264:96,1,200
256,320,199264,5,0
256,256,199531,1,0
256,192,199799,1,0
256,184,200201,1,0
256,176,200603,1,0
408,88,201674,6,0,B|440:56,2,40
280,56,202478,1,0
280,56,202746,1,0
224,80,203014,1,0
224,80,203281,1,0
168,104,203549,1,0
168,104,203817,1,0
112,128,204085,1,0
256,240,205156,5,0
256,240,205692,1,0
256,240,206228,1,0
256,192,206362,12,0,211853
