osu file format v9

[General]
AudioFilename: 192.mp3
AudioLeadIn: 0
PreviewTime: 43376
Countdown: 0
SampleSet: Normal
StackLeniency: 0.7
Mode: 0
LetterboxInBreaks: 0

[Editor]
Bookmarks: 12835
DistanceSpacing: 0
BeatDivisor: 4
GridSize: 8

[Metadata]
Title:Nagging
Artist:IU ft. Seulong
Creator:orioncomet
Version:Normal
Source:
Tags:Shinxyn

[Difficulty]
HPDrainRate:5
CircleSize:4
OverallDifficulty:5
ApproachRate:5
SliderMultiplier:1
SliderTickRate:1

[Events]
//Background and Video events
0,0,"bg2.jpg"
//Break Periods
2,76785,78331
2,143213,145563
2,163303,164313
//Storyboard Layer 0 (Background)
//Storyboard Layer 1 (Fail)
//Storyboard Layer 2 (Pass)
//Storyboard Layer 3 (Foreground)
//Storyboard Sound Samples
//Background Colour Transformations
3,100,0,0,0

[TimingPoints]
514,535.714285714286,4,1,1,30,1,0
43371,-100,4,1,1,30,0,1
59978,-100,4,2,1,40,0,1
60112,-100,4,1,1,29,0,1
60380,-100,4,1,1,30,0,0
60514,-100,4,1,1,30,0,1
68549,-100,4,1,1,30,0,0
74978,-100,4,2,1,40,0,0
75112,-100,4,1,1,30,0,0
76585,-100,4,2,1,40,0,0
76719,-100,4,1,1,30,0,0
109799,-100,4,1,1,30,0,1
126406,-100,4,2,1,40,0,1
126540,-100,4,1,1,30,0,1
126808,-100,4,1,1,30,0,0
126942,-100,4,1,1,30,0,1
134978,-100,4,1,1,30,0,0
143014,-100,4,2,1,40,0,0
143147,-100,4,1,1,30,0,0
163103,-100,4,2,1,40,0,0
163237,-100,4,1,1,30,0,0
165380,-100,4,2,1,40,0,0
166049,-100,4,2,1,20,0,0
166183,-100,4,2,1,40,0,0
166719,-100,4,2,1,40,0,0
167522,-100,4,2,1,0,0,0
167790,-100,4,1,1,30,0,0
168058,-100,4,2,1,0,0,0
168326,-100,4,1,1,35,0,0
169130,-100,4,1,1,30,0,0
169799,-100,4,1,1,30,0,1
182121,-100,4,2,1,40,0,1
182255,-100,4,1,1,30,0,1
182522,-100,4,1,1,30,0,0
182656,-100,4,1,1,30,0,1
190692,-100,4,1,1,30,0,0
196987,-100,4,2,1,40,0,0
197255,-100,4,1,1,30,0,0
198728,-100,4,2,1,40,0,0

[Colours]
Combo1 : 251,156,51
Combo2 : 70,209,255
Combo3 : 255,147,201
Combo4 : 181,216,61

[HitObjects]
152,64,12835,2,0,B|141:113|152:176,1,100,0|4
208,160,13638,1,0
264,160,13906,2,0,B|280:112|264:48,2,100,8|0|8
368,216,15513,6,0,B|360:264|296:312,2,100,0|8|0
368,160,16853,1,0
368,160,17121,1,8
264,216,17656,5,0
216,184,17924,1,0
168,216,18192,1,8
160,96,18728,1,0
280,96,19263,1,8
216,200,19799,6,0,B|216:304,2,100,0|8|0
216,144,21138,1,0
216,88,21406,1,8
328,80,21942,6,0,B|328:200,1,100,0|8
288,224,22746,1,0
248,264,23014,2,0,B|136:264,1,100,0|8
152,144,24085,6,0,B|176:96|224:80,1,100,0|8
280,72,24889,1,0
336,80,25156,2,0,B|384:104|408:160,2,100,0|8|0
288,112,26496,5,0
232,112,26764,2,0,B|128:112,1,100,8|0
120,232,27835,6,0,B|136:280|136:280|192:304,1,100,8|0
304,296,28906,1,8
272,248,29174,1,0
304,200,29442,1,0
304,200,29978,1,8
208,120,30514,6,0,B|160:144|160:144|136:184,2,100,4|8|0
264,104,31853,1,0
320,120,32121,6,0,B|368:152|368:152|392:200,2,100,8|0|8
248,216,33728,1,0
176,120,34264,1,8
264,40,34799,6,0,B|360:112,2,100,4|8|0
208,64,36139,1,0
208,120,36406,1,8
104,200,36942,6,0,B|96:248|96:248|104:304,1,100,0|8
160,296,37746,1,0
216,296,38014,2,0,B|224:240|224:240|216:184,1,100,0|8
256,80,39085,6,0,B|312:88|352:136,1,100,0|8
336,184,39889,1,0
288,216,40156,2,0,B|232:208|192:168,1,100,0|0
256,192,40960,12,0,42299
192,104,43371,6,0,B|136:88|88:104,1,100,4|8
64,152,44174,1,0
88,208,44442,1,0
144,224,44710,1,0
200,224,44978,6,0,B|248:192|256:128,2,100,8|0|8
272,328,46585,2,0,B|328:312|360:264,1,100,0|8
352,152,47656,6,0,B|344:96|288:72,1,100,4|8
240,72,48460,1,0
192,104,48728,1,0
192,160,48996,1,0
192,216,49264,6,0,B|304:216,2,100,8|0|8
136,232,50603,2,0,B|136:288|160:344,1,100
208,328,51406,1,8
256,216,51942,6,0,B|289:179|289:179|336:152,1,100,4|8
392,168,52746,1,0
424,216,53014,2,0,B|392:264|392:264|352:280,1,100,0|8
304,304,53817,5,0
248,288,54085,2,0,B|212:261|212:261|168:200,1,100,0|8
200,160,54889,1,0
256,144,55156,2,0,B|296:172|296:172|336:216,1,100,0|8
256,320,56228,5,0
256,200,56764,1,8
208,160,57031,1,0
160,200,57299,2,0,B|160:304,2,100,0|8|0
232,104,58906,6,0,B|336:104,2,100
224,224,60514,6,0,B|192:264|112:264,1,100,4|8
104,216,61317,1,0
112,160,61585,2,0,B|158:133|208:128,2,100,0|8|0
112,216,62924,5,0
112,272,63192,2,0,B|32:336,2,100,0|0|8
208,200,64799,6,0,B|136:128,1,100,0|8
152,72,65603,1,0
208,48,65871,2,0,B|280:128,1,100,0|8
240,176,66674,5,0
200,216,66942,1,0
208,272,67210,1,0
256,312,67478,2,0,B|344:248,2,100,8|0|8
152,248,69085,6,0,B|88:128,2,100,4|8|0
240,160,70692,1,8
328,240,71228,6,0,B|432:296,2,100,4|8|0
240,160,72835,1,8
128,120,73371,5,0
88,168,73638,1,0
128,216,73906,1,8
88,256,74174,1,0
128,304,74442,2,0,B|232:304,1,100
256,192,75246,12,0,76585
216,104,79531,5,0
216,104,79799,2,0,B|216:216,1,100,4|8
160,208,80603,1,0
160,208,80871,2,0,B|88:120,1,100
192,72,81942,6,0,B|248:72|288:112,1,100,0|8
280,168,82746,1,0
224,168,83013,2,0,B|184:208|184:264,1,100
232,288,83817,5,0
288,312,84085,2,0,B|408:312,2,100,0|8|0
224,208,85692,1,8
288,104,86228,6,0,B|360:184,1,100,0|8
336,232,87031,1,0
288,264,87299,1,0
288,264,87835,1,8
256,144,88371,6,4,B|296:104,1,50
208,208,90246,2,4,B|144:240,1,50
152,48,91585,6,0,B|104:72|64:120,1,100,4|0
120,216,92656,1,0
176,240,92924,1,0
232,224,93192,2,0,B|272:320,2,100,8|0|8
256,192,94799,12,0,96406
248,304,96942,6,0,B|120:304,1,100,4|8
112,256,97746,1,0
112,200,98013,1,0
152,160,98281,1,0
208,152,98549,6,0,B|320:152,1,100,8|0
232,248,99621,2,0,B|112:248,2,100,8|0|8
304,136,101228,5,0
352,104,101496,1,0
408,104,101763,1,8
408,224,102299,6,0,B|408:360,2,100,0|8|0
288,216,103906,2,0,B|288:112,1,100,8|0
288,116,104710,1,0
288,116,104978,1,8
256,192,105513,12,0,108728
128,136,109799,5,4
184,112,110067,1,0
240,120,110335,2,0,B|288:144|312:208,2,100,8|0|8
120,144,111942,6,0,B|96:184|96:240,1,100
144,272,112746,1,0
200,256,113013,1,0
200,136,113549,1,8
320,136,114085,6,0,B|320:80|288:32,2,100,0|8|0
320,192,115424,1,0
280,232,115692,2,0,B|176:232,1,100,8|0
160,184,116496,5,0
184,136,116763,2,0,B|296:136,2,100,8|0|8
120,232,118371,5,4
208,312,118906,2,0,B|256:280|272:224,1,100,8|0
272,112,119978,1,8
152,112,120513,5,4
208,216,121049,2,0,B|208:320,1,100,8|0
328,312,122121,1,8
328,192,122656,6,0,B|240:88,1,100,0|8
208,112,123460,1,0
176,160,123728,1,0
256,248,124263,6,0,B|256:376,1,100,8|0
376,344,125335,2,0,B|480:344,2,100,0|0|0
304,240,126942,5,4
272,192,127210,1,0
304,144,127478,1,8
200,80,128013,2,0,B|80:80,1,100,0|8
168,184,129085,6,0,B|272:184,2,100,0|8|0
112,184,130424,1,0
56,184,130692,1,8
104,80,131228,6,0,B|144:42|200:24,2,100,0|8|0
96,136,132567,1,0
136,176,132835,2,0,B|200:168|232:136,1,100,8|0
344,160,133906,5,8
368,208,134174,1,0
344,256,134442,2,0,B|304:288|248:280,1,100,0|8
136,200,135513,6,0,B|72:88,1,100,4|0
184,48,136585,1,0
288,112,137121,1,0
288,112,137656,6,0,B|360:184,1,100,4|0
280,272,138728,1,0
160,272,139263,1,8
216,168,139799,5,0
320,112,140335,1,8
216,168,140871,2,0,B|216:280,1,100,0|8
256,192,141674,12,0,143013
168,72,146763,6,0,B|128:112|128:112|128:168,1,100,8|0
128,216,147567,1,0
176,248,147835,1,8
224,216,148103,1,0
272,248,148371,1,0
336,144,148906,6,0,B|368:176|368:176|368:232,2,100,8|0|8
296,96,150246,1,0
248,128,150513,1,4
160,216,151049,6,0,B|120:184|120:184|112:128,2,100,8|0|8
248,136,152656,1,4
248,256,153192,6,0,B|304:256|304:256|352:224,1,100
340,231,153996,1,0
340,231,154263,1,8
336,112,154799,6,0,B|216:112,1,100,4|8
192,144,155603,1,0
192,200,155871,1,0
192,320,156406,1,8
192,320,156942,5,0
272,232,157478,1,8
392,232,158013,1,0
328,128,158549,6,0,B|272:112|224:128,2,100,8|0|8
328,128,160156,1,0
256,192,160692,12,0,163103
256,320,165513,6,0,B|270:282|240:256|256:208,1,100,4|0
256,168,166317,1,0
304,136,166585,1,0
360,152,166853,1,0
416,176,167121,6,0,B|442:221|392:264|416:336,2,150,0|0|4
416,176,169263,1,0
328,96,169799,6,0,B|216:96,1,100,0|8
184,136,170603,1,0
144,176,170871,1,0
144,232,171138,1,0
144,288,171406,6,0,B|96:304|40:288,1,100
48,168,172478,2,0,B|96:184|152:168,1,100
152,112,173281,1,0
208,104,173549,1,8
248,216,174085,6,0,B|296:192|296:192|312:144,1,100,4|8
360,120,174889,1,0
408,152,175156,2,0,B|416:200|416:200|400:248,1,100,0|8
360,288,175960,5,0
312,312,176228,2,0,B|264:320|264:320|208:312,1,100,0|8
176,272,177031,1,0
208,224,177299,2,0,B|256:216|256:216|296:184,1,100,0|8
224,72,178371,5,0
112,120,178906,1,8
136,168,179174,1,0
184,184,179442,2,0,B|184:288,2,100,0|8|0
280,112,181049,6,0,B|280:224,2,100,0|0|0
176,48,182656,6,0,B|127:60|127:60|64:88,1,100,4|8
80,136,183460,1,0
120,176,183728,2,0,B|176:176|176:176|224:160,2,100,0|8|0
80,216,185067,5,0
120,256,185335,2,0,B|176:264|176:264|224:256,2,100,8|0|8
120,136,186942,6,0,B|168:152|224:136,1,100,0|8
248,88,187746,1,0
304,88,188014,2,0,B|360:104|376:160,1,100,0|8
344,200,188817,5,0
288,224,189085,1,0
232,200,189353,1,0
176,224,189621,2,0,B|176:328,2,100,8|0|8
176,112,191228,6,0,B|72:112,2,100,4|8|0
256,24,192835,1,8
336,112,193371,6,0,B|448:112,2,100,4|8|0
256,200,194978,1,8
152,144,195514,5,0
104,184,195781,1,0
144,232,196049,1,8
112,280,196317,1,0
144,328,196585,2,0,B|248:328,1,100
256,192,197389,12,0,198728
