osu file format v9

[General]
AudioFilename: 192.mp3
AudioLeadIn: 0
PreviewTime: 43376
Countdown: 0
SampleSet: Normal
StackLeniency: 0.7
Mode: 0
LetterboxInBreaks: 0

[Editor]
Bookmarks: 12835
DistanceSpacing: 1.2
BeatDivisor: 4
GridSize: 8

[Metadata]
Title:Nagging
Artist:IU ft. Seulong
Creator:orioncomet
Version:Easy
Source:
Tags:Shinxyn

[Difficulty]
HPDrainRate:1
CircleSize:3
OverallDifficulty:1
ApproachRate:2
SliderMultiplier:1
SliderTickRate:1

[Events]
//Background and Video events
0,0,"bg2.jpg"
//Break Periods
2,76785,78239
2,143213,145203
2,163303,163953
//Storyboard Layer 0 (Background)
//Storyboard Layer 1 (Fail)
//Storyboard Layer 2 (Pass)
//Storyboard Layer 3 (Foreground)
//Storyboard Sound Samples
//Background Colour Transformations
3,100,0,0,0

[TimingPoints]
514,535.714285714286,4,1,1,30,1,0
43371,-100,4,1,1,30,0,1
59978,-100,4,2,1,40,0,1
60112,-100,4,1,1,30,0,1
60380,-100,4,1,1,30,0,0
60514,-100,4,1,1,30,0,1
68549,-100,4,1,1,30,0,0
74978,-100,4,2,1,40,0,0
75112,-100,4,1,1,30,0,0
76585,-100,4,2,1,40,0,0
76719,-100,4,1,1,30,0,0
109799,-100,4,1,1,30,0,1
126406,-100,4,2,1,40,0,1
126540,-100,4,1,1,30,0,1
126808,-100,4,1,1,30,0,0
126942,-100,4,1,1,30,0,1
134978,-100,4,1,1,30,0,0
143014,-100,4,2,1,40,0,0
143147,-100,4,1,1,30,0,0
163103,-100,4,2,1,40,0,0
163237,-100,4,1,1,30,0,0
165380,-100,4,2,1,40,0,0
166049,-100,4,2,1,20,0,0
166183,-100,4,2,1,40,0,0
166719,-100,4,2,1,40,0,0
167522,-100,4,2,1,0,0,0
167790,-100,4,1,1,35,0,0
168058,-100,4,2,1,0,0,0
168326,-100,4,1,1,40,0,0
169130,-100,4,1,1,30,0,0
169799,-100,4,1,1,30,0,1
182121,-100,4,2,1,40,0,1
182255,-100,4,1,1,30,0,1
182522,-100,4,1,1,30,0,0
182656,-100,4,1,1,30,0,1
190692,-100,4,1,1,30,0,0
196987,-100,4,2,1,40,0,0
197255,-100,4,1,1,30,0,0
198728,-100,4,2,1,40,0,0

[Colours]
Combo1 : 251,156,51
Combo2 : 70,209,255
Combo3 : 255,147,201
Combo4 : 181,216,61

[HitObjects]
152,64,12835,2,0,B|136:112|152:168,1,100,0|4
272,160,13906,2,0,B|288:104|264:48,2,100,8|0|8
176,232,15513,6,0,B|104:328,2,100,0|8|0
256,144,17121,1,8
376,144,17656,5,0
312,248,18192,1,8
192,248,18728,2,0,B|104:184,1,100,0|8
216,128,19799,6,0,B|312:192,2,100,0|8|0
304,48,21406,1,8
400,120,21942,6,0,B|400:224,1,100,0|8
280,224,23014,2,0,B|280:336,1,100,0|8
160,328,24085,6,0,B|112:320|64:288,1,100,0|8
152,200,25156,2,0,B|96:184|40:200,2,100,0|8|0
272,200,26764,2,0,B|328:104,1,100,8|0
440,88,27835,6,0,B|520:184,1,100,8|0
448,272,28906,2,0,B|352:208,1,100,8|0
272,296,29978,1,8
160,256,30514,6,0,B|72:360,2,100,4|8|0
232,160,32121,2,0,B|312:256,2,100,8|0|8
112,160,33728,1,0
112,160,34264,1,8
232,160,34799,6,0,B|232:56,2,100,4|8|0
144,240,36406,1,8
232,328,36942,6,0,B|344:328,1,100,0|8
328,208,38014,2,0,B|328:96,1,100,0|8
208,104,39085,6,0,B|208:216,1,100,0|8
320,256,40156,2,0,B|320:152,1,100,0|8
256,192,40960,12,0,42299
192,96,43371,6,0,B|144:80|88:96,1,100,4|8
96,216,44442,1,0
216,216,44978,6,0,B|232:160|216:104,2,100,8|0|8
216,336,46585,2,0,B|272:320|304:272,1,100,0|8
288,160,47656,6,0,B|240:176|200:232,1,100,0|8
128,128,48728,1,0
208,40,49264,6,0,B|256:48|312:80,2,100,8|0|8
128,128,50871,1,0
232,184,51406,1,0
232,304,51942,6,0,B|288:288|320:232,1,100,4|8
312,128,53014,2,0,B|264:112|208:128,1,100,0|8
152,232,54085,6,0,B|104:208|72:144,1,100,4|8
176,88,55156,2,0,B|224:104|248:160,1,100,0|8
248,272,56228,5,0
344,208,56764,1,8
248,136,57299,2,0,B|136:136,2,100
368,136,58906,6,0,B|392:184|352:200|368:248,2,100
272,64,60514,6,0,B|224:64|160:104,1,100,4|8
208,208,61585,2,0,B|264:208|304:168,2,100,0|8|0
136,304,63192,2,0,B|96:272|88:200,2,100,8|0|8
256,304,64799,6,0,B|296:264|304:216,1,100,0|8
312,96,65871,2,0,B|360:120|384:176,1,100,0|8
376,288,66942,5,0
376,288,67478,2,0,B|480:288,2,100,8|0|8
256,288,69085,6,0,B|192:168,2,100,4|8|0
320,184,70692,1,8
384,288,71228,6,0,B|440:184,2,100,4|8|0
264,288,72835,1,8
264,168,73371,5,0
264,168,73906,2,0,B|264:64,2,100,8|0|0
256,192,75246,12,0,76585
192,144,79799,6,0,B|202:182|184:200|192:256,3,100,4|8|0|8
312,248,81942,6,0,B|296:200|320:176|312:136,3,100,4|8|0|8
192,152,84085,6,0,B|88:152,2,100,0|8|0
192,152,85692,1,8
312,152,86228,6,0,B|384:232,1,100,0|8
272,280,87299,1,0
272,280,87835,1,8
272,160,88371,6,4,B|312:120,1,50
200,192,90246,2,4,B|136:224,1,50
368,104,91585,6,0,B|392:152|360:216,2,100,4|0|0
248,104,93192,6,0,B|232:144|256:208,2,100,8|0|8
256,192,94799,12,0,96406
248,192,96942,6,0,B|192:208|144:192,1,100,4|8
152,72,98013,1,0
272,72,98549,6,0,B|376:72,1,100,8|0
304,168,99621,2,0,B|184:168,2,100,8|0|8
400,240,101228,5,0
304,312,101763,1,8
216,232,102299,2,0,B|272:216|304:176,2,100,0|8|0
152,128,103906,2,0,B|176:80|216:48,1,100,8|0
256,160,104978,1,8
256,192,105513,12,0,108728
128,136,109799,5,4
248,136,110335,2,0,B|296:160|312:216,2,100,8|0|8
128,168,111942,6,0,B|120:224|128:280,1,100
248,264,113013,1,0
248,264,113549,1,8
296,152,114085,6,0,B|264:48,2,100,0|8|0
232,256,115692,2,0,B|177:248|104:208,1,100,8|0
120,160,116496,5,0
160,120,116763,2,0,B|210:114|272:136,2,100,8|0|8
120,232,118371,5,4
208,312,118906,2,0,B|280:232,1,100,8|0
272,120,119978,1,8
392,120,120513,5,4
392,120,121049,2,0,B|392:240,1,100,8|0
288,280,122121,1,8
176,280,122656,6,0,B|128:248|104:192,1,100,0|8
112,144,123460,1,0
112,88,123728,1,0
232,88,124263,6,0,B|208:208,1,100,8|0
152,288,125335,2,0,B|112:176,2,100
224,192,126942,5,4
344,192,127478,1,8
344,192,128013,2,0,B|456:192,1,100,0|8
360,280,129085,6,0,B|264:344,2,100,0|8|0
360,160,130692,1,8
264,232,131228,6,0,B|168:304,2,100,0|8|0
256,112,132835,2,0,B|352:48,1,100,8|0
432,136,133906,5,8
400,248,134442,2,0,B|272:296,1,100,0|8
192,312,135513,6,0,B|144:272|144:216,1,100,4|8
200,120,136585,1,0
304,176,137121,1,8
384,88,137656,6,0,B|432:112|456:160,1,100,4|8
376,248,138728,1,0
272,184,139263,1,8
184,264,139799,5,0
272,184,140335,1,8
264,64,140871,2,0,B|168:160,1,100,0|8
256,192,141674,12,0,143013
168,72,146763,6,0,B|128:112|128:168,1,100,8|0
248,160,147835,1,8
248,160,148371,1,0
368,160,148906,6,0,B|386:210|386:210|368:264,2,100,8|0|8
248,160,150513,1,4
168,256,151049,6,0,B|128:224|128:224|120:176,2,100,8|0|8
288,248,152656,1,4
280,128,153192,6,0,B|328:120|328:120|392:128,1,100,8|0
376,248,154263,1,8
256,248,154799,6,0,B|136:248,1,100,4|8
80,152,155871,1,0
80,152,156406,1,8
176,80,156942,5,4
272,152,157478,1,8
168,216,158013,1,0
240,312,158549,6,0,B|136:312,2,100,8|0|8
240,192,160156,1,0
256,192,160692,12,0,163103
256,336,165513,6,0,B|267:285|267:285|256:224,1,100,4|0
136,240,166585,1,0
144,120,167121,6,0,B|216:96|296:120,2,150,0|0|4
144,240,169263,1,0
224,328,169799,6,0,B|272:344|328:328,1,100,4|8
360,280,170603,1,0
352,224,170871,1,0
264,144,171406,6,0,B|216:152|168:184,2,100,8|0|8
384,144,173013,1,0
320,48,173549,1,8
248,144,174085,6,0,B|235:195|248:248,1,100,4|8
304,240,174889,1,0
360,240,175156,2,0,B|376:184|360:128,1,100,0|8
248,112,176228,6,0,B|136:112,1,100,4|8
144,168,177031,1,0
144,232,177299,2,0,B|144:336,1,100,0|8
264,328,178371,5,0
336,232,178906,1,8
256,136,179442,2,0,B|144:136,2,100,0|8|0
376,144,181049,6,0,B|376:248,2,100,0|0|0
280,72,182656,6,0,B|176:72,1,100,4|8
176,136,183460,1,0
176,200,183728,2,0,B|296:200,2,100,0|8|0
176,320,185335,6,0,B|64:320,2,100,8|0|8
176,200,186942,6,0,B|176:96,1,100,0|8
216,56,187746,1,0
264,96,188014,2,0,B|264:200,1,100,0|8
344,280,189085,5,0
392,240,189353,1,0
432,200,189621,2,0,B|368:112,2,100,8|0|8
352,288,191228,6,0,B|440:336,2,100,4|8|0
256,208,192835,1,8
144,248,193371,6,0,B|88:352,2,100,4|8|0
264,248,194978,1,8
360,176,195514,6,0,B|360:72,1,100,0|8
256,136,196585,2,0,B|256:240,1,100
256,192,197389,12,0,198728
