osu file format v9

[General]
AudioFilename: You & I.mp3
AudioLeadIn: 0
PreviewTime: 44814
Countdown: 1
SampleSet: Soft
StackLeniency: 0.5
Mode: 0
LetterboxInBreaks: 1

[Editor]
Bookmarks: 17165,31493,45821,60150,76269,91493,105821,120149,134478,150597,157761,170299,184627,198955,225821
DistanceSpacing: 1
BeatDivisor: 4
GridSize: 4

[Metadata]
Title:You & I
Artist:IU
Creator:ykcarrot
Version:Insane
Source:
Tags:Yi Ji-eun Last Fantasy k-pop kpop L_i_a yeahyeahyeahhh yyy

[Difficulty]
HPDrainRate:7
CircleSize:4
OverallDifficulty:8
ApproachRate:8
SliderMultiplier:2
SliderTickRate:2

[Events]
//Background and Video events
Video,1360,"BGV.avi"
0,0,"IU.jpg"
//Break Periods
2,84529,88728
2,172090,175672
//Storyboard Layer 0 (Background)
//Storyboard Layer 1 (Fail)
//Storyboard Layer 2 (Pass)
//Storyboard Layer 3 (Foreground)
//Storyboard Sound Samples
//Background Colour Transformations
3,100,163,162,255

[TimingPoints]
15374,447.761194029851,4,2,1,60,1,0
16941,-100,4,1,1,60,0,0
44478,-100,4,1,1,20,0,0
44590,-100,4,1,1,30,0,0
44702,-100,4,1,1,40,0,0
44814,-100,4,1,1,50,0,0
44926,-100,4,1,1,60,0,0
45038,-100,4,1,1,55,0,0
45150,-100,4,1,1,50,0,0
45262,-100,4,1,1,45,0,0
45374,-100,4,1,1,40,0,0
45485,-100,4,1,1,35,0,0
45597,-100,4,1,1,30,0,0
45709,-100,4,1,1,25,0,0
45821,-100,4,1,1,70,0,1
76269,-100,4,1,1,60,0,0
78172,-100,4,1,1,50,0,0
78396,-100,4,1,1,40,0,0
78620,-100,4,1,1,50,0,0
78844,-100,4,1,1,60,0,0
79068,-100,4,1,1,50,0,0
79291,-100,4,1,1,40,0,0
79627,-100,4,1,1,60,0,0
81418,-100,4,2,1,60,0,0
81754,-100,4,1,1,30,0,0
82538,-100,4,1,1,40,0,0
83433,-100,4,1,1,50,0,0
84329,447.761194029851,4,1,1,60,1,0
91940,-100,4,2,1,30,0,0
92500,-100,4,2,1,40,0,0
93060,-100,4,1,1,60,0,0
95521,-100,4,2,1,50,0,0
96640,-100,4,1,1,60,0,0
118806,-100,4,1,1,20,0,0
118918,-100,4,1,1,30,0,0
119030,-100,4,1,1,40,0,0
119142,-100,4,1,1,50,0,0
119254,-100,4,1,1,60,0,0
119366,-100,4,1,1,55,0,0
119478,-100,4,1,1,50,0,0
119590,-100,4,1,1,45,0,0
119702,-100,4,1,1,40,0,0
119814,-100,4,1,1,35,0,0
119926,-100,4,1,1,30,0,0
120037,-100,4,1,1,25,0,0
120149,-100,4,1,1,70,0,1
150597,-100,4,1,1,60,0,0
184627,-83.3333333333333,4,1,1,70,0,1
222239,-83.3333333333333,4,1,1,60,0,0
225149,-83.3333333333333,4,2,1,5,0,0
225821,-83.3333333333333,4,2,1,15,0,0

[Colours]
Combo1 : 81,255,81
Combo2 : 255,60,157
Combo3 : 60,255,255
Combo4 : 255,113,45
Combo5 : 155,55,255

[HitObjects]
256,192,15374,12,2,16717
132,116,17165,5,4
420,192,17612,1,0
132,268,18060,5,0
64,192,18284,1,0
132,116,18508,1,0
208,192,18732,1,0
296,244,18956,2,0,B|340:288|436:288|480:244,1,200
480,140,19627,2,0,B|436:96|340:96|296:140,1,200
208,192,20299,1,0
124,244,20523,6,0,B|76:268|28:244,1,100
28,140,20971,2,0,B|76:116|124:140,2,100
28,244,21642,1,0
76,332,21866,1,0
176,332,22090,1,0
224,244,22314,1,0
312,192,22538,6,0,B|424:192|472:292,1,200,2|0
464,140,23209,2,0,B|352:140|304:40,2,200,2|2|0
464,140,24217,1,0
464,140,24329,1,4
256,356,24776,1,0
48,140,25224,5,0
48,244,25448,1,0
152,244,25672,1,0
152,140,25896,1,0
240,192,26120,2,0,B|272:252|376:252|408:192,1,200
324,136,26791,2,0,B|324:344,2,200
352,40,27911,6,0,B|256:-8|160:40,1,200
184,332,28806,2,0,B|256:368|328:332,2,150,2|0|2
204,232,29702,6,0,B|204:152|308:152|308:72,1,200,2|0
204,72,30374,2,0,B|204:152|308:152|308:232,1,200,2|0
352,324,31045,2,0,B|256:372|160:324,1,200,0|0
256,148,31941,1,8
328,76,32165,5,0
328,76,32276,1,0
328,76,32388,2,0,B|384:76|412:120,1,100
328,308,32836,2,0,B|384:308|412:264,1,100
340,192,33284,6,0,B|124:192,1,200
84,108,33956,2,0,B|24:140|24:244|84:276,2,200
140,192,35075,2,0,B|356:192,1,200,0|8
444,192,35747,5,0
444,192,35859,1,0
444,192,35971,2,0,B|444:248|400:276,1,100,0|0
216,192,36418,2,0,B|216:136|260:108,1,100,0|0
352,156,36866,6,0,B|352:212|308:240|308:240|308:344,1,200
204,340,37538,2,0,B|204:240|204:240|160:212|160:156,2,200
308,340,38657,2,0,B|344:304|344:304|444:304|444:304|480:268,1,200,0|8
204,340,39553,2,0,B|168:304|168:304|68:304|68:304|32:268,1,200,0|8
32,168,40224,5,0
32,68,40448,2,0,B|76:68|76:68|144:68|144:144|204:144,1,200
308,144,41120,2,0,B|368:144|368:68|436:68|436:68|484:68,2,200
204,144,42239,5,0
120,200,42463,1,0
120,300,42687,1,0
204,356,42911,1,0
308,356,43135,2,0,B|388:356|328:200|400:200,1,200
496,200,43806,2,0,B|520:224,4,25
356,56,44478,5,0
332,64,44590,1,0
308,72,44702,1,0
284,80,44814,1,0
260,88,44926,1,0
236,96,45038,1,0
212,104,45150,1,0
188,112,45262,1,0
164,120,45374,1,0
140,128,45485,1,0
116,136,45597,1,0
92,144,45709,1,0
68,152,45821,6,0,B|-12:160|-12:280|68:288,1,200,4|8
168,288,46493,1,0
268,288,46717,2,0,B|348:280|348:160|268:152,1,200,0|8
168,152,47388,5,0
92,220,47612,2,0,B|56:264|4:264,1,100,2|0
112,88,48060,2,0,B|148:44|200:44,1,100,10|0
400,88,48508,2,0,B|364:44|312:44,1,100,2|0
420,220,48956,2,0,B|456:264|508:264,1,100,10|0
344,152,49403,6,0,B|344:252|344:252|368:300|344:348,1,200,0|8
256,300,50075,1,0
168,348,50299,2,0,B|144:300|168:252|168:252|168:152,1,200,0|8
256,100,50971,5,0
348,60,51194,1,0
256,20,51418,1,0
164,60,51642,2,0,B|112:60|112:60|72:88,1,100,10|0
256,100,52090,2,0,B|256:208,1,100,2|0
348,60,52538,2,0,B|400:60|400:60|440:88,1,100,10|0
460,192,52985,6,0,B|360:192|360:192|360:252|316:276,1,200,0|8
256,192,53657,1,0
196,276,53881,2,0,B|152:252|152:192|152:192|52:192,1,200,0|8
4,104,54553,6,0,B|4:56|4:56|40:16,2,100
120,268,55224,2,0,B|156:232|156:232|156:184,1,100,10|0
356,184,55672,2,0,B|356:236|356:236|392:268,1,100,2|0
508,104,56120,2,0,B|508:56|508:56|472:16,1,100,10|0
352,56,56568,6,0,B|324:56|296:76|296:76|216:76|216:76|188:56|160:56,1,200,0|8
160,156,57239,1,0
160,256,57463,2,0,B|188:256|216:236|216:236|296:236|296:236|324:256|352:256,1,200,0|8
352,156,58135,1,0
256,124,58359,6,0,B|256:24,1,100,0|2
256,324,59030,1,2
156,324,59254,5,0
356,324,59478,1,2
156,324,59702,1,0
356,324,59926,1,2
156,324,60150,6,0,B|128:280|128:280|128:184|128:184|156:140,1,200,4|8
256,140,60821,1,0
356,140,61045,2,0,B|384:184|384:184|384:280|384:280|356:324,1,200,0|8
256,324,61717,5,0
180,256,61941,2,0,B|256:192,1,100,2|0
332,256,62388,2,0,B|256:192,1,100,10|0
136,192,62836,5,0
196,88,63060,1,0
316,88,63284,1,8
376,192,63508,1,0
316,296,63732,6,0,B|196:272|196:160,1,200,0|8
256,80,64403,1,0
316,160,64627,2,0,B|316:272|196:296,1,200,0|8
156,204,65299,5,0
156,100,65523,1,0
156,100,65971,2,2,B|196:32|256:8|340:28|392:72|412:152|392:232|340:276|256:296|196:272|156:204,1,600,2|4
156,204,67762,1,8
356,204,68209,5,0
256,136,68433,1,0
156,204,68657,1,8
256,272,68881,1,0
356,340,69105,6,0,B|356:136,1,200,0|8
256,272,69776,2,0,B|256:68,2,200,0|0|0
156,140,70896,2,0,B|156:344,1,200,0|8
444,292,71791,5,0
332,252,72015,1,0
332,132,72239,1,8
444,92,72463,1,0
512,192,72687,6,0,B|416:236|416:148|320:192,3,200,4|8|0|8
0,192,74478,2,0,B|96:236|96:148|192:192,3,200,4|8|0|8
432,324,76269,5,6
76,256,76717,1,2
432,192,77165,1,2
76,128,77612,1,2
432,60,78060,5,2
392,152,78284,1,10
344,240,78508,1,2
256,192,78732,1,10
168,144,78956,1,2
128,236,79179,1,10
80,324,79403,1,10
256,12,79851,5,6
512,192,80299,1,2
256,372,80747,1,2
0,192,81194,1,2
256,192,81642,5,2
256,192,81754,12,4,84329
168,144,89478,6,0,B|136:144,4,25
256,96,89926,1,0
344,144,90149,1,0
256,192,90373,2,0,B|256:232,3,25
256,192,90597,2,0,B|252:188|252:188|260:184|260:184|252:180|252:180|260:176|260:176|252:172|252:172|260:168|260:168|252:164|252:164|260:160|260:160|252:156|252:156|260:152|260:152|252:148|252:148|260:144|260:144|252:140|252:140|260:136|260:136|252:132|252:132|260:128|260:128|252:124|252:124|260:120|260:120|252:116|252:116|260:112|260:112|252:108|252:108|260:104|260:104|252:100|252:100|260:96|260:96|252:92|252:92|260:88|260:88|252:84|252:84|260:80|260:80|252:76|252:76|260:72|260:72|252:68|252:68|260:64|260:64|252:60|252:60|260:56|260:56|252:52|252:52|260:48|260:48|252:44|252:44|260:40|260:40|252:36|252:36|260:32|260:32|252:28|252:28|260:24|260:24|252:20|252:20|260:16|260:16|256:8|256:8,1,400,0|2
256,8,91717,1,2
256,192,92164,6,0,B|256:264,2,50
256,192,92612,1,0
0,192,93284,5,2
0,192,93508,1,2
256,376,94179,5,2
256,376,94403,1,2
512,192,95075,5,2
512,192,95299,1,2
256,192,95746,6,0,B|256:248,2,50
256,192,96194,1,0
256,8,96866,5,2
20,128,97314,1,2
20,256,97537,1,2
256,376,97985,1,2
448,192,98433,1,0
448,192,98545,1,0
448,192,98657,2,0,B|352:148|352:236|256:192,1,200,4|0
80,96,99552,5,0
48,192,99776,1,0
128,252,100000,1,0
208,192,100224,1,0
176,96,100448,2,0,B|208:48|272:48|272:48|360:48,1,200
432,120,101120,2,0,B|400:168|336:168|336:168|248:168,2,200
360,48,102239,6,0,B|272:48|272:48|208:48|176:96,2,200
448,96,103358,1,2
480,192,103582,1,0
448,288,103806,1,2
360,336,104030,6,0,B|280:268|172:288,1,200,2|0
72,288,104702,2,0,B|24:192|72:96,1,200,2|0
172,96,105373,2,0,B|280:116|360:48,1,200,0|0
500,192,106269,1,8
400,192,106493,5,0
400,192,106605,1,0
400,192,106717,1,0
328,260,106940,1,0
228,260,107164,1,0
156,328,107388,1,0
56,328,107612,6,0,B|-4:300|-4:188|56:160,1,200
112,76,108284,2,0,B|172:104|172:216|112:244,2,200
56,160,109403,2,0,B|256:160,1,200,0|8
360,160,110075,5,0
360,160,110187,1,0
360,160,110299,1,0
308,72,110523,1,0
204,72,110746,1,0
152,160,110970,1,0
256,160,111194,6,0,B|256:364,1,200
340,304,111866,2,0,B|312:244|200:244|172:304,2,200
440,304,112985,2,2,B|440:244|416:208|416:208|440:172|440:112,1,200,0|8
72,112,113881,2,0,B|72:172|96:208|96:208|72:244|72:304,1,200,0|8
172,304,114552,5,0
256,248,114776,2,0,B|284:192|352:212|352:136|320:112|288:116|276:144,1,200
256,248,115448,2,0,B|228:192|160:212|160:136|192:112|224:116|236:144,2,200
340,304,116567,5,0
420,244,116791,1,0
336,192,117015,1,0
420,140,117239,1,0
340,80,117463,2,0,B|304:20|208:20|172:80,1,200,0|0
92,140,118134,2,0,B|64:112,4,25
236,280,118806,5,0
256,268,118918,1,0
276,256,119030,1,0
296,244,119142,1,0
316,232,119254,1,0
336,220,119366,1,0
356,208,119478,1,0
376,196,119590,1,0
396,184,119702,1,0
416,172,119814,1,0
436,160,119926,1,0
456,148,120037,1,0
476,136,120149,6,0,B|408:68|408:68|304:68,1,200,4|8
256,156,120821,1,0
208,68,121045,2,0,B|104:68|104:68|36:136,1,200,0|8
36,236,121717,5,0
36,336,121940,2,0,B|96:336|120:288,1,100,2|0
200,108,122388,2,0,B|140:108|116:156,1,100,10|0
312,108,122836,2,0,B|372:108|396:156,1,100,2|0
476,336,123284,2,0,B|416:336|392:288,1,100,10|0
476,236,123731,6,0,B|440:176|344:176|308:236,1,200,0|8
256,324,124403,1,0
204,236,124627,2,0,B|168:176|72:176|36:236,1,200,0|8
120,292,125299,5,0
204,236,125523,1,0
120,180,125746,1,0
120,80,125970,2,0,B|172:80|172:80|208:112,1,100,10|0
392,80,126418,2,0,B|340:80|340:80|304:112,1,100,2|0
256,292,126866,2,0,B|256:188,1,100,10|0
256,92,127314,6,0,B|192:92|156:144|156:200|156:200|156:236,1,200,0|8
256,292,127985,1,0
356,236,128209,2,0,B|356:200|356:200|356:144|320:92|256:92,1,200,0|8
156,92,128881,6,0,B|100:92|68:136,2,100
356,92,129552,2,0,B|412:92|444:136,1,100,10|0
400,332,130000,2,0,B|344:332|312:288,1,100,2|0
112,332,130448,2,0,B|168:332|200:288,1,100,10|0
256,208,130896,6,0,B|256:144|156:192|156:52,1,200,0|8
256,52,131567,1,0
356,52,131791,2,0,B|356:192|256:144|256:208,1,200,0|8
256,308,132463,1,0
156,308,132687,6,0,B|52:308,1,100,0|2
356,308,133358,1,2
456,308,133582,5,0
456,108,133806,1,2
456,308,134030,1,0
456,108,134254,1,2
456,308,134478,6,0,B|456:256|408:224|408:224|360:248|312:224,1,200,4|8
256,140,135149,1,0
200,224,135373,2,0,B|152:248|104:224|104:224|56:256|56:308,1,200,0|8
156,308,136045,5,0
256,308,136269,2,0,B|328:236,1,100,2|0
256,308,136717,2,0,B|176:228,1,100,10|0
256,140,137164,5,0
316,36,137388,1,0
196,36,137612,1,8
256,140,137836,1,0
316,36,138060,6,0,B|396:36|396:36|460:36|476:112,1,200,0|8
400,192,138731,1,0
476,272,138955,2,0,B|460:348|396:348|396:348|316:348,1,200,0|8
308,248,139627,5,0
204,248,139851,1,0
204,248,140299,2,2,B|136:208|112:148|132:64|176:12|256:-8|336:12|380:64|400:148|376:208|308:248,1,600,2|4
308,248,142090,1,8
156,104,142537,5,0
256,36,142761,1,0
356,104,142985,1,8
256,172,143209,1,0
168,256,143433,6,0,B|204:308|308:308|344:256,1,200,0|8
256,172,144105,2,0,B|256:380,2,200
344,88,145224,2,0,B|308:36|204:36|168:88,1,200,0|8
408,272,146120,5,0
316,348,146343,1,0
196,348,146567,1,8
104,272,146791,1,0
40,172,147015,6,0,B|80:144|136:160|136:160|136:100|176:72,3,200,4|8|0|8
472,172,148806,2,0,B|432:144|376:160|376:160|376:100|336:72,3,200,4|8|0|8
256,328,150597,6,0,B|256:388,2,50,2|0|8
256,196,151045,1,2
256,196,151269,1,0
256,196,151493,1,2
256,196,151717,1,8
256,196,151940,2,2,B|256:96,1,100,2|0
132,56,152388,6,0,B|76:56,2,50,2|0|8
256,16,152836,1,2
256,16,153060,1,0
256,16,153284,1,2
380,56,153508,1,8
488,128,153731,1,2
488,256,153955,1,0
380,328,154179,6,0,B|380:380,2,50,2|0|8
380,192,154627,1,2
380,192,154851,1,0
256,236,155075,2,0,B|256:300,2,50,2|0|8
256,104,155523,1,2
256,104,155746,1,0
132,148,155970,6,0,B|132:200,2,50,2|0|8
132,16,156418,1,2
132,16,156642,2,0,B|184:16,2,50,0|0|2
20,80,157090,1,8
132,148,157314,1,2
20,212,157538,1,8
132,280,157761,6,0,B|224:348|316:280,1,200,4|0
408,236,158433,1,0
324,180,158657,1,0
316,280,158881,1,0
408,236,159105,1,0
324,180,159328,1,0
316,280,159552,6,0,B|224:348|132:280,1,200,0|0
52,220,160224,2,0,B|8:124|96:124|52:28,2,200
132,280,161343,2,0,B|224:348|316:280,1,200,0|0
368,192,162015,1,0
316,104,162239,2,0,B|224:36|132:104,1,200,0|0
80,192,162911,5,2
80,192,163023,1,0
80,192,163134,1,0
84,312,163358,1,2
196,360,163582,1,0
316,360,163806,5,2
404,312,164030,1,2
404,212,164254,1,0
316,164,164478,1,2
228,212,164702,1,0
228,312,164926,2,0,B|116:312|64:216,1,200,2|8
20,128,165597,5,0
20,128,165709,1,0
20,128,165821,1,2
88,56,166045,1,0
176,104,166269,1,2
164,204,166493,1,0
64,216,166717,2,0,B|116:312|228:312,1,200,2|8
328,312,167388,5,0
328,312,167500,1,0
328,312,167612,1,2
408,192,167836,1,0
328,72,168060,1,2
184,72,168284,1,0
104,192,168508,2,0,B|104:248|144:280,1,100,2|0
256,192,168843,12,4,170299
0,32,177463,6,0,B|204:32,1,200,4|0
0,112,178134,1,4
100,112,178358,2,0,B|312:112,1,200
100,192,179030,1,4
200,192,179254,2,0,B|404:192,1,200
200,272,179926,1,4
300,272,180149,2,0,B|504:272,1,200
300,352,180821,1,4
400,352,181045,5,0
460,272,181269,1,2
400,192,181493,1,0
400,192,181605,1,2
300,192,181828,1,2
300,192,181940,1,0
240,272,182164,2,0,B|240:320,1,50,2|0
212,280,182388,2,0,B|200:336,1,50,0|2
180,284,182612,2,0,B|156:328,1,50,0|2
144,280,182836,5,0
115,272,182948,1,0
89,257,183060,1,2
66,238,183172,1,0
49,213,183284,1,0
38,185,183396,1,2
36,155,183508,1,0
39,125,183620,1,2
48,96,183731,5,0
65,70,183843,1,0
87,48,183955,1,0
114,33,184067,1,0
144,27,184179,1,0
175,27,184291,1,0
205,34,184403,1,0
231,49,184515,1,0
256,64,184627,6,0,B|332:160|476:112,1,240.000005722046,4|8
376,44,185299,1,0
256,64,185523,2,0,B|256:192|388:248,1,240.000005722046,0|8
356,132,186194,5,0
256,64,186418,2,0,B|132:64,1,120.000002861023,2|0
356,132,186866,2,0,B|492:132,1,120.000002861023,10|0
256,200,187314,2,0,B|128:200,1,120.000002861023,2|0
356,264,187761,2,0,B|484:264,1,120.000002861023,10|0
256,332,188209,6,0,B|112:332|72:208,1,240.000005722046,0|8
48,88,188881,1,0
168,88,189105,2,0,B|312:88|352:212,1,240.000005722046,0|8
376,332,189776,5,0
256,276,190000,1,0
136,332,190224,1,0
60,224,190448,2,0,B|60:192|60:192|88:144|88:144|88:112,1,120.000002861023,10|0
312,32,190896,2,0,B|256:52|256:52|200:32,1,120.000002861023,2|0
424,112,191343,2,0,B|424:144|424:144|452:192|452:192|452:224,1,120.000002861023,10|0
376,332,191791,6,0,B|292:296|292:216|292:216|340:200|352:156,1,240.000005722046,0|8
256,84,192463,1,0
160,156,192687,2,0,B|172:200|220:216|220:216|220:296|136:332,1,240.000005722046,0|8
60,224,193358,6,0,B|0:248|0:320,2,120.000002861023
300,192,194030,2,0,B|364:176|376:108,1,120.000002861023,10|0
136,108,194478,2,0,B|148:176|212:192,1,120.000002861023,2|0
452,224,194926,2,0,B|512:248|512:320,1,120.000002861023,10|0
376,332,195373,6,0,B|268:328|268:192|376:188,1,240.000005722046,0|8
480,132,196045,1,0
376,72,196269,2,0,B|136:72,1,240.000005722046,0|8
32,132,196940,1,0
32,252,197164,5,6
256,24,197500,1,2
480,252,197836,1,2
480,132,198060,5,2
256,360,198396,1,2
32,132,198731,1,2
32,252,198955,6,0,B|100:252|100:252|160:152|160:152|216:152,1,240.000005722046,4|8
256,264,199627,1,0
296,152,199851,2,0,B|352:152|352:152|412:252|412:252|480:252,1,240.000005722046,0|8
480,132,200523,5,0
376,72,200746,2,0,B|256:72,1,120.000002861023,2|0
136,72,201194,2,0,B|256:72,1,120.000002861023,10|0
360,152,201642,5,0
256,232,201866,1,0
152,152,202090,1,8
256,72,202314,1,0
360,152,202537,6,0,B|424:200|400:324|320:348,1,240.000005722046,0|8
256,232,203209,1,0
192,348,203433,2,0,B|112:324|88:200|152:152,1,240.000005722046,0|8
196,40,204105,5,0
316,40,204328,1,0
316,40,204776,2,2,B|380:72|416:120|416:220|392:300|312:344|200:344|120:300|96:220|96:120|132:72|196:40,1,720.000017166138,2|4
196,40,206567,1,8
464,284,207015,5,0
360,344,207239,1,0
256,284,207463,1,8
360,224,207687,1,0
360,344,207911,6,0,B|360:100,1,240.000005722046,0|8
464,284,208582,2,0,B|464:40,2,240.000005722046
464,284,209590,1,0
464,284,209702,1,4
464,44,210149,1,8
48,284,210597,5,0
152,344,210821,1,0
256,284,211045,1,8
152,224,211269,1,0
152,344,211493,6,0,B|152:100,1,240.000005722046,0|8
48,284,212164,2,0,B|48:40,2,240.000005722046
48,284,213172,1,0
48,284,213284,1,4
48,44,213731,1,8
256,372,214179,5,0
256,252,214403,1,0
256,132,214627,1,8
256,12,214851,1,0
324,100,215075,6,0,B|324:192|188:192|188:284,1,240.000005722046,0|8
324,284,215746,2,0,B|324:192|188:192|188:100,2,240.000005722046
324,284,216754,1,0
324,284,216866,1,4
256,12,217314,1,8
168,360,217761,5,0
168,184,217985,1,0
344,184,218209,1,8
344,360,218433,1,0
256,280,218657,6,0,B|256:32,3,240.000005722046,4|8|0|8
184,272,220448,2,0,B|184:352|256:376|328:352|328:272,3,240.000005722046,4|8|0|8
256,40,222239,5,0
256,192,222351,12,2,225821
