osu file format v9

[General]
AudioFilename: You & I.mp3
AudioLeadIn: 0
PreviewTime: 44814
Countdown: 1
SampleSet: Normal
StackLeniency: 0.5
Mode: 0
LetterboxInBreaks: 1

[Editor]
Bookmarks: 17165,31493,45821,60150,76269,91493,105821,120149,134478,150597,157761,170299,184627,198955,225821
DistanceSpacing: 1.2
BeatDivisor: 4
GridSize: 4

[Metadata]
Title:You & I
Artist:IU
Creator:ykcarrot
Version:Hard
Source:
Tags:Yi Ji-eun Last Fantasy k-pop kpop L_i_a yeahyeahyeahhh yyy

[Difficulty]
HPDrainRate:6
CircleSize:4
OverallDifficulty:7
ApproachRate:7
SliderMultiplier:1.5
SliderTickRate:2

[Events]
//Background and Video events
Video,1360,"BGV.avi"
0,0,"IU.jpg"
//Break Periods
2,84529,88578
2,172090,175672
//Storyboard Layer 0 (Background)
//Storyboard Layer 1 (Fail)
//Storyboard Layer 2 (Pass)
//Storyboard Layer 3 (Foreground)
//Storyboard Sound Samples
//Background Colour Transformations
3,100,163,162,255

[TimingPoints]
15374,447.761194029851,4,2,1,60,1,0
16941,-100,4,1,1,50,0,0
22426,-100,4,1,1,30,0,0
24273,-100,4,1,1,50,0,0
45821,-100,4,1,1,70,0,1
76269,-100,4,1,1,60,0,0
79627,-100,4,1,1,60,0,0
81418,-100,4,2,1,60,0,0
81754,-100,4,1,1,30,0,0
82538,-100,4,1,1,40,0,0
83433,-100,4,1,1,50,0,0
84329,447.761194029851,4,1,1,60,1,0
91940,-100,4,2,1,50,0,0
93060,-100,4,1,1,60,0,0
95523,-100,4,2,1,30,0,0
96642,-100,4,1,1,60,0,0
116231,-200,4,1,1,60,0,0
119366,-100,4,1,1,60,0,0
120149,-100,4,1,1,70,0,1
124515,-100,4,1,1,40,0,1
125411,-100,4,1,1,70,0,1
150597,-100,4,1,1,60,0,0
184627,-83.3333333333333,4,1,1,70,0,1
222239,-200,4,1,1,60,0,0
222687,-200,4,1,1,50,0,0
223134,-200,4,1,1,40,0,0
223582,-200,4,1,1,30,0,0
224030,-200,4,1,1,20,0,0
224478,-200,4,1,1,10,0,0
224926,-200,4,1,1,10,0,0

[Colours]
Combo1 : 81,255,81
Combo2 : 255,60,157
Combo3 : 60,255,255
Combo4 : 255,113,45
Combo5 : 155,55,255

[HitObjects]
256,192,15374,12,4,16717
156,128,17165,5,0
156,128,17612,1,0
308,128,18060,2,0,B|332:164|308:200,1,75
232,200,18508,1,0
272,264,18732,1,0
196,264,18956,2,0,B|192:324|260:360|312:332,1,150,0|0
272,264,19627,2,0,B|332:268|368:200|340:148,1,150
272,184,20299,1,0
268,108,20523,6,0,B|208:104|176:172|200:224,1,150
252,260,21194,1,0
272,184,21418,2,0,B|372:48,1,150
436,64,22090,1,0
436,64,22314,1,0
436,168,22538,5,2
272,296,22985,1,0
272,296,23209,1,2
104,172,23657,2,2,B|152:96|240:100,1,150,2|4
264,96,24217,1,0
296,100,24329,6,0,B|371:96|419:172,2,150,0|0|0
296,180,25448,1,0
228,216,25672,2,0,B|248:256|292:256,1,75
356,228,26120,2,0,B|240:344,1,150
196,280,26791,2,0,B|144:256|140:176|200:152,1,150
228,216,27463,1,0
264,152,27687,1,0
300,216,27911,6,0,B|324:252|364:256,1,75
424,172,28359,2,0,B|400:136|360:132,1,75
152,132,29030,1,0
76,132,29254,1,0
152,132,29478,1,0
152,236,29702,2,2,B|160:316|248:360,1,150,2|0
340,352,30374,2,2,B|415:314|423:234,1,150,2|0
420,132,31045,1,0
420,132,31493,5,4
268,132,31941,1,8
228,196,32165,1,0
204,216,32276,1,0
180,236,32388,2,0,B|136:232|120:188,1,75
108,120,32836,2,0,B|64:132|48:172,1,75,8|0
52,240,33284,2,0,B|92:316|180:320,1,150,0|8
216,260,33956,2,0,B|244:284|244:320|244:320|332:320,1,150
400,320,34627,1,8
400,320,34851,1,0
476,320,35075,6,0,B|472:280|440:256|440:256|440:176,1,150,0|8
364,180,35747,1,0
364,180,35859,1,0
364,180,35971,2,0,B|368:136|404:116,1,75
476,116,36418,1,8
440,52,36642,1,0
364,52,36866,2,0,B|328:76|308:112|308:112|240:112,1,150,0|8
240,36,37538,2,0,B|172:36|144:108|172:160,1,150
164,216,38209,1,8
240,216,38433,1,0
316,216,38657,6,0,B|376:228|400:288,1,112.5,0|0
399,285,39105,1,8
344,336,39329,2,0,B|176:336,1,150,0|0
140,284,40000,1,8
140,284,40224,1,0
196,196,40448,6,0,B|268:156|340:196,1,150,0|8
288,288,41120,2,0,B|288:336,2,37.5,0|0|0
392,288,41568,2,0,B|392:324,2,37.5,0|0|8
432,196,42015,2,0,B|416:20|256:0|96:28|80:196,1,525,4|8
104,264,43806,1,0
104,264,43918,1,0
104,264,44030,2,0,B|416:264,1,300,4|0
368,88,45374,5,0
196,40,45821,1,4
184,128,46045,1,0
240,200,46269,2,0,B|208:228|164:216,1,75,8|0
184,128,46717,2,0,B|232:92|320:112|332:180,1,150,0|8
352,232,47388,1,0
276,276,47612,2,0,B|312:332|384:332|420:288,1,150,0|8
464,232,48284,1,0
412,160,48508,2,0,B|404:128|348:108|288:128|280:180,1,150,0|8
236,232,49179,1,0
192,120,49403,6,2,B|156:88|156:88|120:132|56:100,1,150,2|8
24,220,50075,1,0
128,280,50299,2,0,B|204:332|276:276,1,150,0|8
268,192,50971,1,0
340,248,51194,2,0,B|376:212|364:124|284:104,1,150,0|8
224,116,51866,1,0
176,192,52090,2,0,B|128:160|120:84|176:40,1,150,0|8
224,116,52762,1,0
344,116,52985,6,2,B|392:124|404:176|376:224|320:212,1,150,2|0
444,244,53657,1,0
340,304,53881,2,0,B|268:256|188:312,1,150,2|8
132,364,54553,1,0
64,304,54776,2,0,B|64:220,1,75
128,164,55224,2,0,B|104:124|12:120|-8:180,2,150,8|0|8
128,164,56344,1,0
204,256,56568,6,2,B|240:224|272:256|272:256|312:224|344:264,1,150,2|8
448,308,57239,1,0
336,348,57463,2,0,B|300:380|268:348|268:348|228:380|196:340,1,150,2|8
88,308,58135,1,0
88,172,58359,6,0,B|108:136|164:128,1,75,0|2
248,220,58806,2,0,B|228:256|172:264,1,75,8|2
96,260,59254,1,0
144,336,59478,1,0
236,336,59702,1,8
144,336,59926,1,0
328,216,60150,6,2,B|324:156|268:124|204:152,1,150,2|8
220,268,60821,1,0
112,216,61045,2,0,B|116:156|172:124|236:152,1,150,0|8
220,56,61717,1,0
220,146,61941,2,0,B|220:302,1,150,0|8
400,296,62836,1,0
324,252,63060,1,0
400,204,63284,1,8
324,156,63508,1,0
348,40,63732,6,2,B|284:24|216:64|220:128,1,150,2|8
224,216,64403,1,0
196,332,64627,2,0,B|260:348|328:308|324:244,1,150,0|8
392,216,65299,1,0
324,156,65523,1,0
144,152,65971,2,2,B|172:68|256:40|356:72|372:148,1,300
372,148,67314,5,4
264,296,67762,1,8
156,152,68209,1,0
92,216,68433,1,0
72,128,68657,2,0,B|84:88|132:68,1,75,8|0
208,92,69105,2,0,B|248:128|248:196|176:232,1,150,0|8
148,300,69776,1,0
240,300,70000,2,2,B|424:300,1,150,2|8
464,248,70672,1,0
392,192,70896,6,0,B|380:116|276:72,2,150,4|8|0
308,228,72015,1,0
332,316,72239,2,0,B|288:328|248:296,1,75,8|0
40,224,72687,6,2,B|40:64|256:0|472:68|472:224,2,600,2|2|4
164,352,76717,1,8
344,352,77165,1,0
476,228,77612,1,8
236,252,78060,5,8
344,200,78284,1,0
228,172,78508,1,8
308,268,78732,1,0
296,144,78956,2,0,B|312:68,2,75,8|0|8
84,312,79851,5,4
84,72,80299,1,2
140,180,80523,1,0
256,216,80747,1,10
372,180,80971,1,0
424,72,81194,1,10
256,192,81642,12,4,84329
164,192,89478,6,0,B|124:192,2,37.5,0|0|0
256,192,89926,1,0
256,192,90149,1,0
348,192,90373,2,0,B|384:192,1,37.5
256,192,90597,12,2,91493
256,192,91717,5,2
220,32,93284,5,2
292,32,93508,1,2
220,352,94179,1,2
292,352,94403,1,2
256,192,95075,1,2
256,192,95299,1,2
108,192,95746,5,0
108,192,95858,1,8
108,192,95970,1,8
184,192,96194,1,8
32,72,96866,5,2
32,304,97314,1,0
32,304,97537,1,2
284,256,97985,1,2
284,256,98433,1,2
284,256,98545,1,0
284,256,98657,2,0,B|344:196|312:100,1,150,4|0
168,116,99552,5,0
108,164,99776,2,0,B|132:200|176:192,1,75
236,156,100224,1,0
244,232,100448,2,0,B|308:288|400:272,1,150
384,200,101120,2,0,B|340:208|304:184|304:184|320:144|292:104,1,150
236,84,101791,1,0
160,84,102015,6,2,B|140:272|248:320|360:268|336:84,1,450,2|0
392,32,103582,1,2
392,32,103806,1,0
452,136,104030,6,2,B|468:220|404:304,1,150,2|0
300,276,104702,2,2,B|253:216|269:132,1,150,2|0
360,56,105373,1,0
360,296,105821,5,4
360,296,106269,1,8
296,340,106493,1,0
296,340,106605,1,0
296,340,106717,2,0,B|260:316|224:344,1,75
172,288,107164,1,8
120,340,107388,1,0
100,268,107612,6,0,B|120:220|168:216|168:216|168:144,1,150,0|8
244,156,108284,1,0
208,92,108508,1,0
284,92,108731,2,0,B|332:120|336:200|256:240,1,150,0|0
212,220,109403,2,0,B|216:276|268:292|268:292|328:292,1,150,4|8
396,292,110075,5,0
396,292,110187,1,0
396,292,110299,2,0,B|396:252|356:224,1,75
288,228,110746,1,8
288,152,110970,1,0
364,152,111194,6,0,B|364:100|312:56|240:88,1,150,0|8
212,144,111866,2,0,B|180:124|180:80|180:80|104:80,2,150,0|0|0
288,152,112985,2,0,B|288:312,3,150,0|8|0|8
212,304,114552,1,0
212,228,114776,2,0,B|204:184|164:160|124:184|112:232,1,150,0|8
108,304,115448,2,0,B|40:288|40:228|40:228|16:188,1,150
164,148,116343,6,4,B|176:88|228:72|288:88|296:156,1,187.5,4|0
294,145,117911,1,8
304,220,118134,1,0
304,220,118246,1,0
304,220,118358,2,0,B|140:220,1,150
64,64,119702,5,0
244,84,120149,1,4
160,136,120373,1,0
108,212,120597,2,0,B|140:236|180:228,1,75,8|0
236,160,121045,2,0,B|264:184|264:228|264:228|344:228,1,150,0|8
428,228,121717,1,0
424,316,121940,2,0,B|348:356|348:280|268:320,1,150,0|8
192,316,122612,1,0
104,340,122836,2,0,B|96:284|128:232|184:232,1,150,0|8
272,232,123508,1,0
257,112,123731,6,2,B|409:112,1,150,2|8
408,112,124403,1,0
408,232,124627,2,0,B|456:240|484:204,1,75,0|2
408,112,125075,2,0,B|360:104|332:140,1,75,8|2
272,196,125523,2,0,B|188:196,1,75,0|0
136,128,125970,2,0,B|100:164|100:248|160:276,2,150,8|0|8
136,128,127090,1,0
256,128,127314,6,2,B|300:112|336:136|336:136|304:176|344:224,1,150,2|0
448,208,127985,1,0
448,328,128209,2,0,B|376:284|304:328,1,150,2|8
216,324,128881,1,0
124,324,129105,2,0,B|132:272|168:248,1,75
244,236,129552,2,0,B|232:196|192:176|192:176|192:104,2,150,8|0|8
336,236,130672,1,0
432,164,130896,6,2,B|480:232|436:312,1,150,2|8
336,236,131567,1,0
236,168,131791,2,2,B|188:236|232:316,1,150,2|8
320,324,132463,1,0
336,236,132687,2,0,B|380:248|400:288,1,75,0|2
316,148,133134,2,0,B|272:160|252:200,1,75,8|2
244,280,133582,1,0
152,280,133806,1,0
244,280,134030,1,8
152,280,134254,1,0
152,160,134478,6,2,B|184:80|272:52,1,150,2|8
256,176,135149,1,0
256,176,135373,2,0,B|284:128|340:116|388:116,1,150,0|8
444,184,136045,1,0
388,252,136269,2,0,B|388:332,1,75
296,328,136717,2,0,B|296:248|296:248|252:264|204:240,1,150,8|0
136,252,137388,1,0
188,324,137612,2,0,B|156:348|108:340,1,75,8|0
36,252,138060,6,2,B|44:188|88:148|152:152,1,150,2|8
216,68,138731,1,0
304,152,138955,2,0,B|368:160|408:204|404:268,1,150,0|8
312,328,139627,1,0
192,328,139851,1,0
128,96,140299,6,2,B|144:40|256:12|368:40|384:96,1,300
256,192,141642,1,4
256,192,142090,1,8
76,192,142537,1,0
124,268,142761,1,0
44,312,142985,2,0,B|64:352|120:364,1,75,8|0
188,328,143433,6,0,B|216:284|216:220|160:188,1,150,0|8
76,192,144105,1,0
124,116,144329,2,2,B|280:116,1,150,2|8
348,168,145000,1,0
432,132,145224,2,0,B|452:180|432:244|372:256,2,150,4|8|0
360,80,146343,1,0
348,168,146567,2,0,B|304:160|284:120,1,75,8|0
40,124,147015,6,2,B|40:288|256:336|472:284|472:124,2,600,2|2|2
40,124,150709,1,0
40,124,150821,1,0
108,56,151045,2,0,B|188:56,1,75,2|0
128,136,151493,2,0,B|208:136,1,75,2|0
148,216,151940,2,0,B|236:216,1,75,2|0
320,216,152388,5,2
352,216,152500,1,0
384,216,152612,2,0,B|392:260|360:288,1,75,0|8
292,352,153060,1,0
164,352,153284,5,2
164,256,153508,1,0
80,160,153731,5,8
80,256,153955,1,0
164,352,154179,5,2
164,352,154291,1,0
164,352,154403,1,0
240,292,154627,1,8
320,352,154851,1,0
396,220,155075,5,2
396,220,155187,1,0
396,220,155299,1,0
320,160,155523,1,8
240,220,155747,1,0
84,220,155970,5,2
84,220,156082,1,0
84,220,156194,1,0
160,160,156418,1,8
240,220,156642,1,0
160,160,156866,5,2
320,160,157090,1,0
84,220,157314,1,8
396,220,157537,1,0
240,220,157761,5,4
240,220,158209,1,0
172,252,158433,1,0
236,292,158657,2,0,B|216:324|168:328,1,75
108,292,159105,1,0
172,252,159329,1,0
104,220,159552,2,0,B|100:132|180:84,1,150,0|0
208,156,160224,2,0,B|372:156,1,150
388,88,160896,1,0
388,88,161120,6,0,B|455:128|451:216,1,150
376,228,161791,2,0,B|216:228,2,150,0|0|0
428,284,162911,2,0,B|428:324,2,37.5,0|0|2
428,284,163358,1,0
428,180,163582,1,2
428,180,163806,1,0
340,236,164030,2,2,B|236:300|112:232,1,225,2|0
52,240,164926,6,0,B|40:196|104:136|160:176,1,150,4|8
228,172,165597,1,0
260,172,165709,1,0
292,172,165821,2,0,B|316:208|288:248,1,75
220,244,166269,1,8
260,308,166493,1,0
336,308,166717,6,0,B|376:264|376:224|376:224|464:224,1,150,0|8
432,148,167388,1,0
432,148,167500,1,0
432,148,167612,2,0,B|356:148,1,75
280,148,168060,1,8
280,148,168284,1,0
256,192,168508,12,4,170299
96,112,177463,6,0,B|172:68|240:120,1,150,4|0
236,192,178134,2,0,B|464:192,1,225,4|0
460,268,179030,2,0,B|232:268,1,225,4|0
236,344,179926,2,0,B|464:344,1,225,4|0
461,344,180821,1,4
460,268,181045,6,2,B|460:184,1,75
408,140,181493,2,2,B|368:140,1,37.5,0|2
296,140,181829,1,0
184,140,182164,2,0,B|140:140,1,37.5,2|0
108,140,182388,2,0,B|60:140,3,37.5,2|0|0|2
72,252,183060,2,0,B|112:252,3,37.5,2|0|2|0
184,252,183620,1,2
256,192,183731,12,4,184627
184,140,184851,5,0
296,200,185075,2,0,B|280:248|228:264,1,90.0000021457673,8|0
234,261,185411,1,0
234,261,185523,1,0
108,264,185746,1,2
212,336,185970,1,8
84,336,186194,1,2
84,336,186306,1,0
84,336,186418,6,0,B|16:316|12:208|88:188,1,180.000004291535,0|8
196,184,187090,1,0
108,264,187314,2,0,B|296:264,1,180.000004291535,0|8
416,264,187985,1,0
416,100,188209,2,2,B|408:176|324:216|232:180|220:64,1,270.000006437302
100,84,189105,1,0
152,200,189329,1,0
104,316,189552,1,8
228,304,189776,1,0
152,200,190000,6,0,B|200:160|304:176|324:248,1,180.000004291535,0|8
228,304,190672,1,0
352,296,190896,2,0,B|312:248|328:144|400:124,1,180.000004291535,0|8
464,224,191567,1,0
364,352,191791,2,2,B|356:276|272:236|180:272|168:388,1,270.000006437302
48,352,192687,2,2,B|48:160,1,180.000004291535,2|8
156,108,193358,1,0
200,228,193582,5,4
284,136,193806,1,0
372,228,194030,2,0,B|420:180|420:104|372:36,1,180.000004291535,8|0
284,136,194702,1,0
200,224,194926,2,0,B|152:176|152:100|200:32,1,180.000004291535,8|2
284,136,195597,1,0
284,264,195821,2,0,B|284:360,2,90.0000021457673,8|0|2
284,264,196717,1,8
284,136,196940,1,0
136,200,197164,5,2
336,340,197500,1,2
336,96,197836,1,2
460,200,198060,5,2
260,340,198396,1,2
260,96,198732,1,2
296,216,198955,6,0,B|216:272|120:216,1,180.000004291535,4|8
88,100,199627,1,0
212,128,199851,2,0,B|212:316,1,180.000004291535,0|8
340,308,200523,1,0
340,308,200746,2,0,B|340:116,2,180.000004291535,0|8|0
468,308,201866,1,0
340,308,202090,1,8
468,308,202314,1,0
468,128,202537,6,2,B|460:204|376:244|284:208|272:92,1,270.000006437302
92,128,203433,2,2,B|100:204|184:244|276:208|284:96,1,270.000006437302,2|0
279,126,204329,1,0
256,192,204776,12,4,206120
256,192,206567,5,8
256,192,207015,1,0
144,252,207239,1,0
152,128,207463,1,8
264,68,207687,1,0
372,132,207911,2,0,B|408:188|384:280|320:304,1,180.000004291535,0|8
216,292,208582,2,2,B|172:278|148:186|184:130,2,180.000004291535,2|2|8
216,292,209590,1,0
216,292,209702,5,4
336,328,209926,1,0
308,204,210149,2,0,B|420:184|456:284,1,180.000004291535,8|0
336,328,210821,1,0
216,292,211045,2,0,B|100:292,1,90.0000021457673,8|0
36,204,211493,6,0,B|216:204,1,180.000004291535,0|8
308,120,212164,2,0,B|368:204|304:296,1,180.000004291535
184,284,212836,2,0,B|124:200|188:108,1,180.000004291535,8|4
308,120,213508,1,0
388,220,213731,2,0,B|356:264|252:264|216:212,1,180.000004291535,8|0
156,116,214403,1,0
100,228,214627,1,8
176,328,214851,1,0
52,296,215075,6,0,B|0:248|8:164|92:144,1,180.000004291535,0|8
172,228,215746,2,0,B|256:288|352:220,1,180.000004291535
252,136,216418,1,8
376,112,216642,1,2
376,112,216754,1,0
376,112,216866,6,0,B|432:132|472:192|452:264,1,180.000004291535,0|8
360,340,217537,1,0
252,272,217761,2,0,B|252:180,1,90.0000021457673
124,184,218209,2,0,B|124:280,1,90.0000021457673,8|0
256,192,218657,12,0,220000
256,192,220448,12,0,221791
256,8,222239,6,2,B|48:188|464:192|256:376,1,450,2|0
258,374,225149,1,4
