osu file format v9

[General]
AudioFilename: You & I.mp3
AudioLeadIn: 0
PreviewTime: 44814
Countdown: 1
SampleSet: Soft
StackLeniency: 0.5
Mode: 0
LetterboxInBreaks: 1

[Editor]
Bookmarks: 17165,31493,45821,60150,76269,91493,105821,120149,134478,150597,157761,170299,184627,198955,225821
DistanceSpacing: 1
BeatDivisor: 2
GridSize: 4

[Metadata]
Title:You & I
Artist:IU
Creator:ykcarrot
Version:Easy
Source:
Tags:Yi Ji-eun Last Fantasy k-pop kpop L_i_a yeahyeahyeahhh yyy

[Difficulty]
HPDrainRate:2
CircleSize:3
OverallDifficulty:2
ApproachRate:3
SliderMultiplier:0.8
SliderTickRate:2

[Events]
//Background and Video events
Video,1360,"BGV.avi"
0,0,"IU.jpg"
//Break Periods
2,84529,90053
2,172090,175672
//Storyboard Layer 0 (Background)
//Storyboard Layer 1 (Fail)
//Storyboard Layer 2 (Pass)
//Storyboard Layer 3 (Foreground)
//Storyboard Sound Samples
//Background Colour Transformations
3,100,163,162,255

[TimingPoints]
15374,447.761194029851,4,2,1,60,1,0
16717,-100,4,2,1,5,0,0
17165,-100,4,1,1,60,0,0
45821,-100,4,1,1,70,0,1
76269,-100,4,1,1,60,0,0
81418,-100,4,2,1,60,0,0
81754,-100,4,1,1,30,0,0
82538,-100,4,1,1,40,0,0
83433,-100,4,1,1,50,0,0
84329,447.761194029851,4,1,1,60,1,0
120149,-100,4,1,1,70,0,1
150597,-100,4,1,1,60,0,0
184627,-80,4,1,1,70,0,1
222239,-80,4,1,1,60,0,0
225149,-80,4,2,1,5,0,0
225821,-80,4,2,1,15,0,0

[Colours]
Combo1 : 81,255,81
Combo2 : 255,60,157
Combo3 : 60,255,255
Combo4 : 255,113,45
Combo5 : 155,55,255

[HitObjects]
256,192,15374,12,4,17165
392,236,18060,5,0
324,192,18508,1,0
256,236,18956,2,0,B|216:276|152:276|112:236,1,160
44,192,20299,1,0
112,148,20747,6,0,B|152:108|216:108|256:148,1,160
324,192,22090,1,0
392,236,22538,2,0,B|416:268|472:268|496:236,2,120,2|2|0
444,176,24329,1,4
324,72,25224,5,0
256,28,25672,1,0
188,72,26120,2,0,B|188:128|136:152|136:152|76:152,1,160
8,192,27463,1,0
76,232,27911,6,0,B|136:232|136:232|188:256|188:312,1,160
256,356,29254,1,0
324,312,29702,2,0,B|376:312|368:360|432:360,2,120,2|2|0
256,268,31493,1,0
148,152,32388,5,0
84,200,32836,1,8
148,248,33284,2,0,B|128:280|88:280|88:280|48:320,2,120
212,200,35075,1,0
364,152,35971,5,0
428,200,36418,1,8
364,248,36867,2,0,B|384:280|424:280|424:280|464:320,2,120
300,200,38658,1,0
256,48,39553,1,0
212,200,40448,6,0,B|208:296|56:296|52:200,1,240
132,192,42239,2,0,B|132:128|132:128|132:72|176:48,1,160
256,48,43582,2,0,B|276:88|320:88,1,80
480,88,44926,5,0
432,152,45374,1,0
384,216,45821,2,0,B|348:272|304:272|304:272|240:272,1,160,4|0
84,272,47612,5,0
46,203,48060,1,8
86,134,48508,1,0
164,133,48956,1,8
124,202,49403,2,2,B|170:274|210:205|256:278,1,160,2|2
428,272,51194,5,0
466,203,51642,1,8
426,134,52090,1,0
348,133,52538,1,8
388,202,52985,2,2,B|343:274|303:205|257:278,1,160
176,124,54776,5,0
216,56,55224,1,8
296,56,55672,1,0
336,124,56120,1,8
256,124,56568,2,0,B|216:200|296:200|256:276,2,160,2|0|2
416,124,59254,5,2
484,164,59702,1,2
416,204,60150,2,0,B|416:264|416:264|416:316|364:344,2,160,4|0|2
416,124,62388,1,2
352,76,62836,5,0
288,124,63284,1,8
224,76,63732,2,0,B|148:32|72:76,2,160,0|0|0
288,124,65971,2,2,B|360:156|360:292|288:324,1,240,2|4
128,324,68209,5,0
68,272,68657,1,8
68,192,69105,2,0,B|72:136|128:120|128:120|128:60,2,160,0|2|2
180,304,71791,5,0
256,328,72239,1,8
332,304,72687,2,0,B|456:292|456:92|332:80,2,320,4|4|6
324,224,76717,5,2
256,180,77165,1,2
188,224,77612,1,2
180,304,78060,6,0,B|180:348|216:372,1,80,2|8
296,372,78956,2,0,B|332:348|332:304,1,80,2|8
324,224,79851,5,6
296,148,80299,1,2
216,148,80747,1,2
188,224,81194,1,2
256,268,81642,5,2
256,192,81754,12,4,84329
256,80,91493,6,0,B|256:32,1,40,2|2
344,260,93284,6,0,B|372:288,1,40,2|2
256,300,94179,2,0,B|256:356,1,40,2|2
168,264,95075,2,0,B|140:292,1,40,2|2
256,32,96866,5,2
256,112,97314,2,0,B|256:160,1,40,2|2
256,232,97985,1,2
292,348,98657,2,0,B|256:376|220:348,1,80,4|0
148,308,99552,5,0
80,268,100000,1,0
148,228,100448,2,0,B|168:188|148:152,1,80
76,188,101343,2,0,B|56:148|76:112,1,80
144,72,102239,6,0,B|256:-4|368:72,1,240
408,140,104030,2,0,B|476:140|496:72,2,120,2|2|0
328,140,105821,1,0
208,248,106717,5,0
152,192,107164,1,8
96,248,107612,2,0,B|60:216|76:164|76:164|64:128,2,120
152,304,109403,1,0
304,248,110299,5,0
360,192,110746,1,8
416,248,111194,2,0,B|452:216|436:164|436:164|448:128,2,120
360,304,112985,2,2,B|284:344|284:264|208:304,1,160,0|0
48,304,114776,6,0,B|16:288|0:260|-4:232|8:196|36:176|76:172|112:188|128:232,1,240
128,304,116567,2,0,B|180:304|180:304|240:304|256:240,1,160
256,160,117911,2,0,B|304:160|328:200,1,80,0|0
448,296,119254,5,0
496,232,119702,1,0
496,152,120149,2,0,B|468:68|372:68,1,160,4|0
256,176,121940,5,0
256,96,122388,1,8
180,72,122836,1,0
132,136,123284,1,8
180,200,123731,2,2,B|144:228|96:208|96:208|96:280,1,160
256,176,125523,5,0
256,96,125971,1,8
332,72,126419,1,0
380,136,126867,1,8
332,200,127314,2,2,B|368:228|416:208|416:208|416:280,1,160
256,176,129105,5,0
196,124,129552,1,8
256,72,130000,1,0
316,124,130448,1,8
256,176,130896,2,0,B|256:344,2,160,2|0|2
96,152,133582,5,2
28,192,134030,1,2
96,232,134478,2,0,B|128:288|180:288|180:288|236:288,2,160,4|0|2
96,152,136717,1,2
164,112,137164,5,0
232,152,137612,1,8
164,192,138060,2,0,B|164:284|76:316,2,160
164,112,140299,2,2,B|188:28|324:28|348:112,1,240,2|4
348,272,142537,5,0
296,332,142985,1,8
216,332,143433,2,0,B|164:332|148:272|148:272|84:272,2,160,0|2|2
376,332,146120,5,0
420,264,146567,1,8
376,196,147015,2,0,B|348:80|164:80|136:196,2,320,4|4|2
376,276,151045,6,0,B|464:276,2,80,0|0|2
296,276,152388,1,2
216,276,152836,2,0,B|124:276,2,80,0|0|2
216,195,154179,6,0,B|216:115,1,80,2|0
296,116,155075,2,0,B|296:196,1,80,2|0
216,196,155970,2,0,B|132:196,1,80,2|0
136,276,156866,2,0,B|48:276,2,80,2|2|4
296,276,158657,5,0
364,232,159105,1,0
364,152,159552,2,0,B|308:92|204:92|148:152,1,240
148,232,161343,2,0,B|204:292|308:292|364:232,1,240
420,176,163134,5,2
364,120,163582,1,2
308,176,164030,2,0,B|308:268|308:268|336:288|336:328,1,160,2|2
256,328,165373,1,8
176,328,165821,2,0,B|176:288|204:268|204:268|204:176,1,160,2|2
256,116,167164,1,8
320,68,167612,2,0,B|300:16|212:16|192:68,1,160,2|2
256,192,168731,12,4,170299
256,192,177463,5,4
336,192,177911,2,0,B|384:192,2,40,0|4|0
296,124,178806,2,0,B|332:88,2,40,0|4|0
216,124,179702,2,0,B|176:84,2,40,0|4|0
176,192,180597,2,0,B|120:192,2,40,0|4|0
256,192,181493,6,0,B|256:276,2,80,0|0|0
336,188,182836,2,0,B|324:88|188:88|176:188,1,240
256,248,184627,6,0,B|292:316|380:316|416:248,1,199.999997019768,4|0
464,160,185970,1,8
416,72,186418,2,0,B|368:48|320:72,1,99.9999985098839,0|8
368,160,187314,2,0,B|392:208|368:256,1,99.9999985098839,0|8
280,208,188209,6,2,B|184:164|184:252|88:208,1,199.999997019768
0,160,189552,1,8
88,112,190000,2,0,B|124:72|176:72,1,99.9999985098839,0|8
256,132,190896,2,8,B|292:172|344:172,1,99.9999985098839,0|8
444,172,191791,6,2,B|512:184|512:312|444:324,1,199.999997019768
344,324,193134,1,8
344,224,193582,2,0,B|312:204|340:160|308:136,1,99.9999985098839,0|8
204,136,194478,2,0,B|172:160|200:204|168:224,1,99.9999985098839,0|8
168,324,195373,6,2,B|224:324|256:284|256:284|288:324|344:324,1,199.999997019768
444,324,196717,1,8
444,224,197164,2,0,B|464:192|512:192,2,74.9999988824129,2|2|2
400,252,198060,2,0,B|380:284|332:284,2,74.9999988824129,2|2|2
400,200,198955,6,0,B|352:104|236:104,1,199.999997019768,4|0
136,104,200299,1,8
36,104,200746,2,0,B|36:160|80:188,1,99.9999985098839,2|2
164,244,201642,5,0
256,204,202090,1,8
348,244,202537,2,0,B|428:236|428:116|348:108,2,199.999997019768
256,284,204776,2,2,B|140:256|140:96|256:68,1,299.999995529652,2|4
336,284,207015,5,0
336,180,207463,1,8
436,160,207911,2,0,B|480:172|500:232|500:232|480:292|436:304,2,199.999997019768,0|0|4
176,180,210597,5,0
176,284,211045,1,8
76,304,211493,2,0,B|32:292|12:232|12:232|32:172|76:160,2,199.999997019768,0|0|4
308,168,214179,5,0
204,168,214627,1,8
172,72,215075,2,0,B|204:12|308:12|340:72,2,199.999997019768,0|0|4
256,252,217761,6,0,B|256:136,1,99.9999985098839,0|8
172,204,218657,2,0,B|172:264|172:264|172:360|256:384|340:360|340:264|340:264|340:204,2,399.999994039536,4|4|0
256,192,222351,12,2,225821
