osu file format v7

[General]
AudioFilename: Marshmallow.mp3
AudioLeadIn: 0
PreviewTime: 123831
Countdown: 0
SampleSet: Soft
StackLeniency: 0.7
Mode: 0
LetterboxInBreaks: 0
UseSkinSprites: 1

[Editor]
DistanceSpacing: 1
BeatDivisor: 4
GridSize: 8

[Metadata]
Title:Marshmallow
Artist:IU
Creator:saymun
Version:Normal
Source:
Tags:Lee Ji Eun

[Difficulty]
HPDrainRate:2
CircleSize:3
OverallDifficulty:4
SliderMultiplier:1.6
SliderTickRate:1

[Events]
//Background and Video events
0,0,"bg.jpg"
Video,400,"Marshmallow1.avi"
//Break Periods
//Storyboard Layer 0 (Background)
//Storyboard Layer 1 (Fail)
//Storyboard Layer 2 (Pass)
//Storyboard Layer 3 (Foreground)
//Storyboard Sound Samples
//Background Colour Transformations
3,100,0,0,0

[TimingPoints]
11460,428.571428571429,4,2,1,100,1,0
25067,-100,4,2,1,100,0,0
38781,-200,4,2,0,70,0,0
44995,-100,4,2,1,100,0,0
52495,-200,4,2,0,70,0,0
57852,-100,4,2,0,100,0,0
59460,-100,4,2,1,100,0,1
64281,-200,4,2,1,100,0,1
65567,-100,4,2,1,100,0,1
71138,-200,4,2,1,100,0,1
72424,-100,4,2,1,100,0,1
73174,-100,4,2,0,100,0,0
79924,-100,4,2,1,100,0,0
85067,-100,4,2,1,50,0,0
87531,-100,4,2,1,25,0,0
88174,-100,4,2,1,0,0,0

[Colours]
Combo1 : 255,255,222
Combo2 : 209,255,255
Combo3 : 255,255,255
Combo4 : 247,219,233

[HitObjects]
376,48,11459,1,2
136,48,12102,1,2
256,152,12531,2,0,B|256:256,1,80,0|8
376,336,13174,5,2
136,336,13817,1,2
256,232,14245,2,0,B|256:128,1,80,0|8
104,192,14888,5,2
344,192,15531,2,0,B|440:192|432:192,2,80
264,192,16174,2,0,B|160:192,1,80
144,264,16602,5,8
144,264,16817,1,8
144,264,17031,1,8
144,264,17245,1,8
304,264,17674,1,8
304,264,17888,1,8
272,104,18317,6,0,B|184:104,3,80,2|0|0|2
32,104,19388,2,0,B|128:104,1,80,0|8
240,200,20031,6,0,B|328:200,3,80,2|0|0|2
480,200,21102,2,0,B|384:200,1,80,0|8
272,296,21745,6,0,B|88:296,2,160,2|0|0
352,296,22817,1,2
352,296,23031,1,8
256,168,23460,6,0,B|256:64,6,80,0|0|0|0|0|0|0
104,112,25174,6,0,B|72:192|112:288,2,160,2|0|0
256,56,26460,1,8
256,56,26674,1,0
336,56,26888,6,0,B|496:136|440:360,1,320,2|2
288,328,28174,1,8
128,328,28602,6,0,B|32:328,2,80,0|0|8
192,280,29245,1,0
128,232,29460,2,0,B|128:48,1,160,0|8
288,72,30317,6,0,B|480:72,2,160,0|8|0
208,72,31388,1,8
248,144,31602,1,8
88,144,32031,6,0,B|80:336|288:352,1,320,2|0
440,352,33317,2,0,B|496:288,2,80,8|0|2
440,192,34174,1,2
304,272,34602,2,0,B|248:208,2,80,2|0|8
344,120,35460,6,0,B|240:120,1,80
184,120,35888,2,0,B|80:120,2,80,8|0|0
184,280,36745,1,8
184,280,36960,1,0
104,280,37174,5,0
264,280,37602,1,8
424,280,38031,2,0,B|312:280,2,80,0|0|8
424,120,38888,6,0,B|344:104|256:120,3,160,2|2|2|2
264,280,42317,2,0,B|344:296|432:280,3,160,2|2|2|2
120,192,45745,6,0,B|288:192,2,160,2|0|0
232,304,47031,1,8
312,304,47245,1,0
392,304,47460,2,0,B|488:304,4,80,2|0|2|0|2
352,240,48531,1,0
352,160,48745,1,8
256,32,49174,6,0,B|112:48|96:192,2,240,0|0|8
256,112,50674,1,0
256,192,50888,2,0,B|240:336|56:336,2,240,0|0|8
376,296,52602,6,0,B|408:216|376:128,1,160,2|2
304,112,53888,1,0
232,144,54317,2,0,B|200:224|232:312,2,160,2|2|2
184,80,56460,1,0
112,112,56888,1,2
40,80,57317,1,0
112,40,57745,1,0
256,192,59031,5,0
416,192,59460,1,2
416,192,59674,2,0,B|416:336|240:344,1,240
104,344,60745,5,8
104,184,61174,1,2
104,184,61388,2,0,B|176:80|352:120,1,240
320,272,62460,1,8
456,192,62888,6,0,B|344:192,1,80,2|0
296,176,63317,2,0,B|184:176,1,80,8|2
136,160,63745,2,0,B|24:160,2,80,2|0|8
176,88,64388,6,0,B|384:88,1,200
376,248,65888,5,8
216,248,66317,1,2
296,248,66531,2,0,B|296:104|136:104,1,240
64,104,67388,1,2
104,176,67602,5,8
104,336,68031,1,2
104,256,68245,2,0,B|184:288|256:216|360:264,1,240
340,256,69102,1,2
340,256,69317,1,8
432,128,69745,6,0,B|320:128,1,80,2|0
280,168,70174,2,0,B|168:168,2,80,8|2|2
280,88,70817,2,0,B|184:88,1,80,0|8
120,88,71245,6,0,B|88:184|120:288,1,200
440,320,73174,6,0,B|440:224,1,80,2|0
440,160,73602,2,0,B|440:64,4,80,2|0|0|2|8
320,56,74888,6,0,B|320:152,1,80,2|0
320,216,75317,2,0,B|320:312,4,80,2|0|0|2|8
184,304,76602,5,0
24,304,77031,1,0
24,144,77460,1,8
184,144,77888,1,8
320,232,78317,5,8
480,232,78745,1,8
480,72,79174,1,8
320,72,79602,1,8
160,40,80031,5,2
160,200,80460,1,2
296,120,80888,2,0,B|408:120,2,80,2|2|8
432,200,81745,5,2
432,360,82174,1,2
288,280,82602,2,0,B|176:280,2,80,2|2|8
256,120,83460,5,2
96,120,83888,1,2
176,256,84317,1,2
176,176,84531,1,2
176,96,84745,1,8
256,192,85174,12,2,86888
256,192,87102,12,0,88602
