osu file format v7

[General]
AudioFilename: Marshmallow.mp3
AudioLeadIn: 0
PreviewTime: 123831
Countdown: 0
SampleSet: Soft
StackLeniency: 0.7
Mode: 0
LetterboxInBreaks: 0
UseSkinSprites: 1

[Editor]
DistanceSpacing: 1.20000004768372
BeatDivisor: 4
GridSize: 8

[Metadata]
Title:Marshmallow
Artist:IU
Creator:saymun
Version:Insane
Source:
Tags:Lee Ji Eun

[Difficulty]
HPDrainRate:7
CircleSize:4
OverallDifficulty:8
SliderMultiplier:1.6
SliderTickRate:1

[Events]
//Background and Video events
0,0,"bg.jpg"
Video,400,"Marshmallow1.avi"
//Break Periods
2,88802,94067
2,120945,123242
2,165764,169528
//Storyboard Layer 0 (Background)
//Storyboard Layer 1 (Fail)
//Storyboard Layer 2 (Pass)
//Storyboard Layer 3 (Foreground)
Sprite,Foreground,Centre,"followpoint.png",320,240 M,0,56240,,262,276 S,0,56240,,0.6 F,0,56722,57097,0,1 F,0,57097,57955,1,0
Sprite,Foreground,Centre,"hitcircle.png",320,240 F,0,56567,,0 F,0,56781,57210,0,1 M,0,57210,,304,254 C,0,57210,57317,247,219,233,255,236,255 F,0,57210,57745,1 S,0,57745,,0.58
Sprite,Foreground,Centre,"hitcircleoverlay.png",320,240 F,0,56674,,0 F,0,56781,57210,0,1 F,0,57210,57745,1 M,0,57745,,304,254 S,0,57745,,0.58
Sprite,Foreground,Centre,"approachcircle.png",320,240 M,0,56781,,304,254 S,0,56781,57745,2.5,0.58 F,0,56995,57424,0,1 C,0,57210,,247,219,233 F,0,57424,57745,1
Sprite,Foreground,Centre,"default-8.png",320,240 M,0,56781,,304,254 S,0,56781,,0.48 F,0,56781,57317,0,1 F,0,57317,57745,1
Sprite,Foreground,Centre,"hit0.png",320,240 M,0,57745,,304,254 S,0,57745,57799,0.3,0.96 F,0,57745,57852,0,1 S,0,57799,57852,0.96,0.6 F,0,57852,58281,1 F,0,58281,59031,1,0
Sprite,Foreground,Centre,"followpoint.png",320,240 F,0,119888,120317,0,1 F,0,120317,120745,1 M,0,120745,,263,375 S,0,120745,,0.6 F,0,120745,121281,1,0
Sprite,Foreground,Centre,"hitcircle.png",320,240 F,0,119995,,0 F,0,120210,120745,0,1 C,0,120745,120852,209,255,255 F,0,120745,121174,1 M,0,121174,,312,376 S,0,121174,,0.58 F,0,121174,121281,1,0
Sprite,Foreground,Centre,"hitcircleoverlay.png",320,240 F,0,120102,,0 M,0,120210,,312,376 S,0,120210,,0.58 F,0,120210,120745,0,1 F,0,120745,121174,1 F,0,121174,121281,1,0
Sprite,Foreground,Centre,"approachcircle.png",320,240 M,0,120210,,312,376 F,0,120210,120745,0,1 S,0,120210,121174,2.5,0.58 C,0,120745,,209,255,255 F,0,120745,121174,1 F,0,121174,121281,1,0
Sprite,Foreground,Centre,"default-8.png",320,240 F,0,120210,120745,0,1 M,0,120745,,312,376 S,0,120745,,0.48 F,0,120745,121174,1 F,0,121174,121281,1,0
Sprite,Foreground,Centre,"hit0.png",320,240 M,0,121174,,312,376 S,0,121174,121227,0.3,0.96 F,0,121174,121281,0,1 S,0,121227,121281,0.96,0.6 F,0,121281,121710,1 F,0,121710,122460,1,0
//Storyboard Sound Samples
Sample,57750,3,"combobreak.mp3",100
Sample,121174,3,"combobreak.mp3",100
Sample,160421,1,"soft-hitwhistle.wav",100
//Background Colour Transformations
3,100,0,0,0

[TimingPoints]
11460,428.571428571429,4,2,1,100,1,0
25067,-100,4,2,1,100,0,0
38781,-200,4,2,0,70,0,0
44995,-100,4,2,1,100,0,0
52495,-200,4,2,0,70,0,0
57852,-100,4,2,0,100,0,0
59460,-100,4,2,1,100,0,1
73174,-100,4,2,0,100,0,0
79924,-100,4,2,1,100,0,0
85281,-100,4,2,0,50,0,0
85817,-100,4,2,0,75,0,0
86245,-100,4,2,0,100,0,0
86781,-100,4,1,0,100,0,0
94602,-100,4,2,1,100,0,0
102210,-200,4,2,0,70,0,0
108424,-100,4,2,1,100,0,0
115924,-200,4,2,0,70,0,0
122707,428.571428571429,4,2,0,100,1,0
124421,-100,4,2,1,100,0,1
138135,-100,4,2,0,100,0,0
144885,-100,4,2,1,100,0,0
150028,-200,4,2,0,100,0,0
150671,-100,4,2,1,100,0,0
160099,-200,4,2,0,100,0,0
160742,-100,4,2,1,100,0,0
170707,-100,4,2,1,100,0,1
184421,-100,4,2,0,100,0,0
191171,-100,4,2,1,100,0,0
196314,-200,4,2,0,100,0,0
196957,-100,4,2,0,100,0,0

[Colours]
Combo1 : 255,255,222
Combo2 : 209,255,255
Combo3 : 255,255,255
Combo4 : 247,219,233

[HitObjects]
256,192,11459,1,2
80,264,11888,2,0,B|40:344,1,80,0|2
144,192,12317,1,0
80,120,12531,2,0,B|40:40,1,80,0|8
144,48,12959,1,0
240,48,13174,5,2
240,240,13602,2,0,B|240:136,1,80,0|2
328,208,14031,1,0
416,240,14245,2,0,B|416:136,1,80,0|8
328,208,14674,1,0
328,304,14888,5,2
136,304,15317,2,0,B|32:304,1,80,0|2
56,208,15745,1,2
56,112,15959,1,2
128,176,16174,1,2
128,80,16388,1,0
200,144,16602,6,0,B|200:40,1,80,8|8
312,240,17031,2,0,B|312:328,1,80,8|8
216,320,17460,1,0
256,192,17674,1,8
296,64,17888,1,8
464,152,18317,6,0,B|440:64,1,80,2|0
464,232,18745,2,0,B|440:320,1,80,0|2
392,192,19174,1,0
296,192,19388,1,0
296,192,19495,1,0
296,192,19602,1,8
200,192,19817,1,0
112,152,20031,6,0,B|136:64,1,80,2|0
112,232,20460,2,0,B|136:320,1,80,0|2
40,192,20888,1,0
40,192,20995,1,0
40,192,21102,1,0
40,96,21317,1,8
40,192,21531,1,0
40,288,21745,6,0,B|96:352,1,80,2|0
184,352,22174,1,0
280,352,22388,2,0,B|320:344|384:352,2,80,2|2|2
232,272,23031,1,10
232,176,23245,1,0
232,80,23460,5,0
232,80,23674,1,0
312,128,23888,1,2
360,136,23995,1,0
408,144,24102,1,0
336,208,24317,1,0
384,216,24424,1,0
432,224,24531,1,8
360,288,24745,1,8
408,296,24852,1,0
456,304,24960,1,0
384,368,25174,6,0,B|216:368,1,160,2|0
128,368,25817,1,0
224,368,26031,1,0
176,288,26245,1,0
176,288,26352,1,0
176,288,26460,2,0,B|80:256,1,80,8|0
168,192,26888,2,0,B|72:160,1,80,2|0
160,96,27317,2,0,B|64:64,1,80,2|0
76,67,27638,1,0
68,64,27745,1,2
48,192,27960,5,0
256,192,28174,1,8
464,192,28388,1,0
464,104,28602,5,0
376,144,28817,1,0
376,144,28924,1,0
376,144,29031,1,8
304,80,29245,1,0
208,80,29460,1,0
136,144,29674,1,0
48,104,29888,1,8
136,144,30102,1,0
136,240,30317,1,0
88,320,30531,6,0,B|48:368,2,40,0|0|8
184,320,30960,1,0
280,320,31174,1,0
376,320,31388,5,8
256,192,31602,1,8
136,64,31817,1,0
232,64,32031,6,0,B|400:64,1,160,2|0
488,64,32674,1,0
440,144,32888,1,0
488,224,33102,1,0
480,232,33210,1,0
472,240,33317,2,0,B|408:304,1,80,8|0
328,336,33745,6,0,B|312:240,1,80,2|0
256,48,34174,2,0,B|256:160,1,80,2|0
256,128,34602,1,2
184,336,34817,2,0,B|200:248,1,80,0|8
104,256,35245,1,0
8,256,35460,5,0
56,176,35674,1,0
56,128,35781,1,0
56,80,35888,1,8
152,80,36102,1,0
56,80,36317,1,0
152,80,36531,1,0
200,80,36638,1,0
248,80,36745,1,8
344,80,36960,1,0
440,80,37174,2,0,B|440:264,1,160,0|8
440,336,37817,1,0
256,336,38031,5,0
256,192,38245,1,8
256,48,38460,1,8
72,336,38888,5,2
56,288,39102,1,0
40,248,39317,1,0
56,200,39531,1,0
72,152,39745,1,2
232,296,40174,5,0
440,232,40602,5,2
456,184,40817,1,0
472,144,41031,1,0
456,96,41245,1,0
440,48,41459,1,2
280,88,41888,5,0
120,320,42317,6,0,B|112:272,1,40,2|0
120,64,42745,2,0,B|112:112,1,40,2|0
184,264,43174,1,2
184,120,43602,1,0
392,64,44031,6,0,B|400:112,1,40,2|0
392,320,44459,2,0,B|400:272,1,40,2|0
416,192,44888,1,2
96,192,45102,5,8
96,288,45316,1,8
96,192,45531,1,0
96,96,45745,2,0,B|264:96,1,160,2|0
352,72,46388,1,0
352,72,46495,1,0
352,72,46602,1,0
448,96,46817,1,0
432,192,47031,6,0,B|328:192,1,80,8|0
80,264,47459,2,0,B|184:264,1,80,2|0
432,336,47888,2,0,B|328:336,1,80,2|0
256,336,48317,5,2
256,192,48531,1,0
256,48,48745,1,8
256,192,48960,1,0
192,264,49174,6,0,B|152:336,1,80
184,128,49602,2,0,B|96:184,1,80,8|0
328,256,50031,2,0,B|416:200,1,80
320,120,50460,2,0,B|360:48,1,80,8|0
256,48,50888,5,0
160,48,51102,1,0
152,48,51210,1,0
144,48,51317,2,0,B|56:48,1,80,8|2
56,48,51638,1,0
48,48,51745,1,0
48,144,51960,1,8
48,144,52174,1,8
208,240,52602,6,0,B|176:272,1,40,2|0
304,240,53031,2,0,B|336:272,1,40
304,144,53460,2,0,B|336:112,1,40,2|0
208,144,53889,2,0,B|176:112,1,40
120,192,54317,6,0,B|168:192,1,40,2|0
256,328,54745,2,0,B|256:280,1,40
392,192,55174,2,0,B|344:192,1,40,2|0
256,56,55602,2,0,B|256:104,1,40
160,96,56031,5,2
120,120,56245,1,0
80,144,56460,1,0
40,168,56674,1,0
80,192,56888,1,2
120,216,57102,1,0
160,240,57317,1,0
472,192,59031,5,0
376,216,59245,1,0
280,192,59459,2,0,B|232:184|184:200,1,80,2|0
112,240,59888,1,0
200,288,60102,2,0,B|248:296|296:280,2,80,2|0|0
112,240,60745,5,8
64,152,60960,1,0
112,64,61174,2,0,B|184:128,1,80,2|0
248,56,61602,2,0,B|320:120,1,80,0|2
392,56,62031,1,0
408,152,62245,1,0
392,248,62459,1,8
408,344,62674,1,0
64,312,62888,6,0,B|48:264|64:208,1,80,2|0
144,192,63317,2,0,B|160:240|144:296,2,80,8|2|2
64,136,63960,2,0,B|48:88|64:32,2,80,0|8|0
144,88,64602,5,2
240,88,64817,1,2
336,112,65031,1,8
432,112,65245,1,8
384,200,65460,5,0
256,352,65674,1,8
128,200,65888,1,8
256,32,66102,1,0
256,192,66317,6,0,B|256:288,1,80,2|0
344,312,66745,1,0
344,304,66852,1,0
344,296,66959,2,0,B|344:200,2,80,2|0|0
440,272,67602,1,8
440,176,67817,1,0
331,46,68031,6,0,B|400:88,1,80,2|0
187,89,68460,2,0,B|264:112,1,80,0|2
64,182,68888,2,0,B|144:176,2,80,0|0|8
184,264,69531,1,0
256,328,69745,5,2
272,232,69960,1,0
320,312,70174,5,8
336,200,70388,1,2
384,296,70602,5,2
400,168,70817,1,0
448,280,71031,5,8
464,136,71245,1,0
464,40,71459,5,2
256,24,71674,1,2
48,40,71888,1,8
48,344,72317,5,2
256,360,72531,1,2
464,344,72745,1,8
256,120,73174,6,0,B|256:32,1,80,2|0
256,264,73602,2,0,B|256:352,1,80,2|0
400,192,74031,1,0
304,192,74245,1,2
208,192,74459,1,8
112,192,74674,1,0
64,112,74888,6,0,B|160:112,1,80,2|0
448,112,75317,2,0,B|352:112,1,80,2|0
360,112,75638,1,0
352,112,75745,1,0
256,112,75959,1,2
256,16,76174,1,8
256,112,76388,1,0
256,208,76602,6,0,B|256:376,2,160,2|2|2
176,160,77674,1,2
176,256,77888,1,8
256,312,78102,1,0
336,256,78317,6,0,B|424:248,1,80,8|0
352,176,78745,1,8
352,176,78960,1,8
448,168,79174,1,0
440,152,79281,1,0
432,136,79388,1,8
424,120,79495,1,0
416,104,79602,2,0,B|368:8,1,80,8|0
192,32,80031,5,2
96,32,80245,1,0
96,32,80460,1,2
192,32,80674,1,0
288,32,80888,5,2
256,192,81102,1,8
224,352,81317,1,4
416,352,81745,5,2
320,352,81960,1,0
416,352,82174,1,2
320,352,82388,1,0
384,280,82602,5,2
256,192,82817,1,2
128,104,83031,1,4
88,288,83459,5,2
424,288,83888,1,2
256,40,84317,5,2
256,192,84531,1,2
256,344,84745,1,2
256,40,85174,5,0
352,40,85388,2,0,B|400:40,10,40
160,40,86888,5,0
160,344,87531,1,0
400,192,88388,5,0
400,192,88495,1,0
400,192,88602,1,0
176,288,94817,5,0
256,336,95031,1,0
336,288,95245,1,0
416,336,95459,5,2
416,240,95674,1,0
416,144,95888,2,0,B|416:48,2,80,0|0|0
336,192,96531,1,0
256,144,96745,1,8
176,192,96959,1,0
160,200,97067,1,0
144,208,97174,2,0,B|72:160,1,80,2|0
40,80,97602,2,0,B|152:80,1,80,2|0
216,64,98031,2,0,B|296:48,1,80,2|0
304,64,98352,1,0
312,80,98459,1,8
352,168,98674,1,0
312,256,98888,5,0
224,296,99102,1,0
176,296,99210,1,0
128,296,99317,1,8
32,296,99531,1,0
80,216,99745,2,0,B|80:120,1,80
168,96,100174,2,0,B|168:192,2,80,8|0|2
344,176,101031,2,0,B|344:96,1,80,8|2
432,136,101459,2,0,B|432:56,2,80,0|8|8
432,232,102102,1,0
432,328,102317,5,2
384,328,102531,1,0
336,312,102745,1,0
288,312,102960,1,0
240,296,103174,1,2
192,296,103602,5,0
144,280,104031,5,2
144,232,104245,1,0
120,192,104459,1,0
120,144,104674,1,0
104,96,104888,1,2
104,48,105317,5,0
152,32,105745,6,0,B|208:32,1,40,2|0
304,32,106174,2,0,B|248:32,1,40,0|0
200,104,106602,6,0,B|256:104,1,40,2|0
360,104,107031,2,0,B|304:104,1,40,0|0
248,176,107460,6,0,B|304:176,1,40,2|0
416,176,107889,2,0,B|360:176,1,40,0|0
296,248,108317,5,0
80,272,108531,5,8
80,176,108745,1,8
160,224,108959,1,0
160,320,109174,1,2
240,272,109388,1,0
240,272,109495,1,0
240,272,109602,1,0
328,320,109817,2,0,B|376:328|432:320|424:320,2,80
368,232,110460,2,0,B|416:224|472:232|464:232,1,80,8|0
448,136,110888,5,2
376,72,111102,1,0
328,88,111210,1,0
280,104,111317,1,2
360,160,111531,1,0
312,176,111638,1,0
264,192,111745,1,2
192,128,111959,2,0,B|152:120|88:128,2,80,0|8|0
56,328,112602,5,0
136,280,112817,1,0
136,280,112924,1,0
136,280,113031,1,8
216,328,113245,1,0
216,328,113352,1,0
216,328,113460,1,0
296,280,113674,2,0,B|408:280,2,80,0|8|0
216,232,114317,5,2
264,152,114531,2,0,B|264:64,2,80,0|8|2
168,152,115174,2,0,B|168:64,2,80,0|8|2
176,304,116031,5,2
224,304,116245,1,0
256,336,116460,1,0
288,304,116674,1,0
336,304,116888,1,2
256,192,117317,5,0
392,224,117745,5,2
392,176,117960,1,0
408,128,118174,1,0
408,80,118388,1,0
424,32,118602,1,2
288,32,119031,5,0
152,32,119460,5,2
136,80,119674,1,0
120,128,119888,1,0
104,176,120102,1,0
120,224,120317,1,2
136,272,120531,1,0
152,320,120745,1,0
256,192,123992,5,0
256,288,124207,1,0
336,240,124421,2,0,B|376:248|424:240,1,80,2|0
376,152,124849,2,0,B|416:144|464:152,2,80,0|2|0
304,88,125492,1,0
304,88,125599,1,0
304,88,125706,5,8
208,88,125921,1,0
112,88,126135,1,2
112,88,126349,1,0
48,160,126564,2,0,B|40:200|48:248,2,80,0|2|0
144,160,127206,1,0
48,160,127421,1,8
144,160,127635,1,0
256,248,127849,6,0,B|256:352,1,80,2|0
312,192,128278,2,0,B|416:192,1,80,8|2
256,136,128707,2,0,B|256:32,1,80,2|0
200,192,129135,2,0,B|96:192,1,80,8|0
40,144,129564,5,2
40,144,129778,1,2
40,240,129992,1,8
40,240,130207,1,8
128,192,130421,5,0
256,192,130635,1,8
384,192,130849,1,8
256,192,131064,1,0
256,192,131171,1,0
256,192,131278,6,0,B|256:288,1,80,2|0
256,368,131707,1,0
256,192,131921,2,0,B|256:104,1,80,2|0
256,16,132349,1,0
384,64,132564,1,8
128,64,132778,1,0
256,192,132992,6,0,B|368:192,1,80,2|0
432,192,133421,1,0
256,192,133635,2,0,B|144:192,1,80,2|0
80,192,134064,1,0
168,320,134278,1,8
168,64,134492,1,0
320,32,134707,6,0,B|328:72|320:128,1,80,2|0
320,352,135135,2,0,B|328:312|320:256,1,80,8|2
416,80,135564,6,0,B|424:120|416:176,1,80,2|0
416,304,135992,2,0,B|424:264|416:208,1,80,8|0
328,192,136421,5,2
232,192,136635,1,2
176,112,136849,1,8
136,144,136957,1,0
96,176,137064,1,2
96,272,137278,2,0,B|56:304,2,40,0|0|2
176,328,137707,1,8
224,328,137814,1,0
272,312,137921,1,0
320,312,138028,1,0
368,296,138135,5,2
368,200,138349,1,0
368,296,138564,1,2
368,200,138778,1,0
456,248,138992,5,0
280,248,139207,1,2
104,248,139421,1,8
104,248,139528,1,0
104,248,139635,1,0
104,152,139849,6,0,B|104:64,1,80,2|0
192,120,140278,2,0,B|192:208,1,80,2|0
192,248,140599,1,0
192,296,140707,1,0
256,368,140921,1,2
320,296,141135,1,8
320,200,141349,1,0
416,192,141564,5,2
96,192,141992,1,2
256,40,142421,5,0
256,192,142635,1,2
256,344,142849,1,8
184,120,143278,6,0,B|128:40,1,80,8|0
256,192,143707,1,8
256,192,143921,1,8
328,120,144135,2,0,B|384:40,2,80,0|8|8
112,232,144992,6,0,B|24:288,1,80,2|0
136,304,145421,2,0,B|80:392,1,80,2|0
184,360,145849,1,2
328,344,146064,1,2
472,328,146278,1,4
336,72,146707,6,0,B|416:0,1,80,2|0
400,112,147135,2,0,B|496:136,1,80,2|0
392,184,147564,1,2
248,192,147778,1,2
104,184,147992,1,4
256,64,148421,5,2
256,64,148849,1,2
448,40,149278,5,2
472,192,149492,1,2
448,344,149707,1,2
256,192,150135,6,0,B|344:192,1,80
256,192,151421,5,0
64,192,151849,1,2
104,280,152064,1,0
200,280,152278,1,0
240,368,152492,1,2
328,320,152707,2,0,B|416:320,2,80
328,224,153349,5,0
328,224,153564,1,2
368,136,153778,1,0
368,136,153992,1,0
328,48,154207,2,0,B|240:48,2,80,2|0|0
424,48,154849,5,0
464,136,155064,1,0
424,224,155278,2,0,B|440:264|424:320,1,80,2|0
344,352,155707,2,0,B|328:312|344:256,1,80,0|2
344,176,156135,2,0,B|360:136|344:80,2,80
256,224,156778,1,0
184,288,156992,6,0,B|112:328,1,80,2|0
144,232,157421,2,0,B|72:272,1,80,0|2
104,176,157849,2,0,B|32:216,2,80
120,168,158385,1,0
136,160,158492,1,0
152,152,158599,1,0
168,144,158707,5,2
256,104,158921,1,0
344,144,159135,2,0,B|448:144,2,80,0|2|0
256,176,159778,1,0
256,176,159885,1,0
256,176,159992,1,0
256,280,160207,6,0,B|256:368,1,80
336,304,160849,2,0,B|336:208,1,80,0|2
176,304,161278,2,0,B|176:208,1,80,0|0
256,176,161707,1,0
256,80,161921,1,0
256,80,162028,1,0
256,80,162135,1,0
256,192,162242,12,0,165564
48,152,170278,6,0,B|32:64,1,80
80,232,170707,2,0,B|96:320,1,80,2|0
120,152,171135,2,0,B|104:64,1,80,0|2
152,232,171564,2,0,B|168:320,1,80
256,112,171992,5,8
256,272,172207,1,0
360,232,172421,6,0,B|344:320,1,80,2|0
392,152,172849,2,0,B|408:64,1,80,0|2
432,232,173278,2,0,B|416:320,1,80
464,152,173707,2,0,B|480:64,1,80,8|0
384,48,174135,5,2
288,24,174349,1,0
192,48,174564,1,8
96,24,174778,1,2
56,112,174992,2,0,B|56:216,1,80,2|0
144,160,175421,2,0,B|144:264,1,80,8|0
104,328,175849,6,0,B|224:328,1,80,2|2
408,328,176278,2,0,B|288:328,1,80,8|8
256,368,176707,5,0
56,192,176921,1,8
256,16,177135,1,8
456,192,177349,1,0
256,192,177564,6,0,B|256:280,1,80,2|0
256,120,177992,1,0
176,232,178207,2,0,B|176:120,1,80,2|0
176,304,178635,1,0
256,352,178849,5,8
352,352,179064,1,0
448,352,179278,2,0,B|448:256,1,80,2|0
448,128,179707,1,0
440,136,179814,1,0
432,144,179921,1,2
424,152,180028,1,0
416,160,180135,2,0,B|344:240,2,80,0|0|8
336,104,180778,1,0
264,48,180992,6,0,B|168:48,1,80,2|0
96,88,181421,2,0,B|0:88,2,80,8|2|2
184,128,182064,1,0
184,128,182171,1,0
184,128,182278,1,8
96,168,182492,1,0
184,208,182707,5,2
184,208,182921,1,2
184,304,183135,1,8
184,304,183242,1,0
184,304,183349,1,2
272,256,183564,1,0
280,256,183671,1,0
288,256,183778,1,2
296,256,183885,1,0
304,256,183992,1,8
312,256,184099,1,0
320,256,184207,1,0
328,256,184314,1,0
336,256,184421,6,0,B|440:256,1,80,2|0
480,184,184849,2,0,B|376:184,1,80,2|0
336,112,185278,2,0,B|448:112,2,80,0|2|8
240,112,185921,1,0
144,112,186135,6,0,B|32:112,1,80,2|0
112,192,186564,2,0,B|224:192,1,80,2|0
200,192,186885,1,0
208,192,186992,1,0
304,192,187207,2,0,B|424:192,2,80,2|8|0
216,336,187849,6,0,B|120:352,1,80,2|0
296,336,188278,2,0,B|392:352,1,80,2|0
256,264,188707,1,0
256,256,188814,1,0
256,248,188921,1,2
256,240,189028,1,0
256,232,189135,1,8
256,136,189349,1,0
216,48,189564,6,0,B|176:40|128:48,1,80,8|0
48,72,189992,1,8
48,72,190099,1,0
48,72,190207,1,8
120,136,190421,1,0
40,192,190635,1,8
120,248,190849,1,8
48,312,191064,1,0
136,344,191278,5,2
288,264,191492,1,2
192,264,191707,1,0
344,344,191921,1,0
440,344,192135,5,2
440,192,192349,1,2
440,40,192564,1,4
440,192,192778,1,0
376,120,192992,5,2
208,56,193207,1,2
304,56,193421,1,0
136,120,193635,1,0
48,152,193849,5,2
256,192,194064,1,2
464,232,194278,1,4
256,192,194492,1,0
256,344,194707,5,2
256,40,195135,1,2
56,192,195564,5,2
256,192,195778,1,2
456,192,195992,1,2
256,192,196421,6,0,B|160:192,1,80
256,336,197707,5,0
256,48,198135,1,0
256,48,198349,1,0
