osu file format v7

[General]
AudioFilename: Marshmallow.mp3
AudioLeadIn: 0
PreviewTime: 123831
Countdown: 0
SampleSet: Soft
StackLeniency: 0.7
Mode: 0
LetterboxInBreaks: 0
UseSkinSprites: 1

[Editor]
DistanceSpacing: 1.20000004768372
BeatDivisor: 4
GridSize: 8

[Metadata]
Title:Marshmallow
Artist:IU
Creator:saymun
Version:Hard
Source:
Tags:Lee Ji Eun

[Difficulty]
HPDrainRate:4
CircleSize:4
OverallDifficulty:7
SliderMultiplier:1.6
SliderTickRate:1

[Events]
//Background and Video events
0,0,"bg.jpg"
Video,400,"Marshmallow1.avi"
//Break Periods
2,88802,93917
2,120945,123092
2,165764,169378
//Storyboard Layer 0 (Background)
//Storyboard Layer 1 (Fail)
//Storyboard Layer 2 (Pass)
//Storyboard Layer 3 (Foreground)
Sprite,Foreground,Centre,"followpoint.png",320,240 M,0,56250,,417,288 S,0,56250,,0.6 F,0,56250,56786,0,1 F,0,56786,,1 F,0,56786,57322,1 F,0,57322,57965,1,0
Sprite,Foreground,Centre,"hitcircle.png",320,240 F,0,56572,,0 F,0,56786,57215,0,1 M,0,57215,,376,312 C,0,57215,57322,247,219,233,255,236,255 F,0,57215,57750,1 S,0,57750,,0.58
Sprite,Foreground,Centre,"hitcircleoverlay.png",320,240 F,0,56679,,0 F,0,56786,57215,0,1 F,0,57215,57750,1 M,0,57750,,376,312 S,0,57750,,0.58
Sprite,Foreground,Centre,"default-4.png",320,240 M,0,56786,,376,312 S,0,56786,,0.48 F,0,56786,57322,0,1 F,0,57322,57750,1
Sprite,Foreground,Centre,"approachcircle.png",320,240 M,0,56786,,376,312 F,0,56786,57322,0,1 S,0,56786,57750,2.5,0.58 C,0,57215,,247,219,233 F,0,57322,57750,1
Sprite,Foreground,Centre,"hit0.png",320,240 M,0,57750,,376,312 S,0,57750,57804,0.3,0.96 F,0,57750,57857,0,1 S,0,57804,57857,0.96,0.6 F,0,57857,58286,1 F,0,58286,59036,1,0
Sprite,Foreground,Centre,"followpoint.png",320,240 F,0,119893,120322,0,1 F,0,120322,120750,1 M,0,120750,,286,312 S,0,120750,,0.6 F,0,120750,121286,1,0
Sprite,Foreground,Centre,"hitcircle.png",320,240 F,0,120000,,0 F,0,120215,120750,0,1 C,0,120750,120857,255,255,255 F,0,120750,121179,1 M,0,121179,,320,346 S,0,121179,,0.58 F,0,121179,121286,1,0
Sprite,Foreground,Centre,"hitcircleoverlay.png",320,240 F,0,120107,,0 M,0,120215,,320,346 S,0,120215,,0.58 F,0,120215,120750,0,1 F,0,120750,121179,1 F,0,121179,121286,1,0
Sprite,Foreground,Centre,"default-5.png",320,240 F,0,120215,120750,0,1 M,0,120750,,320,346 S,0,120750,,0.48 F,0,120750,121179,1 F,0,121179,121286,1,0
Sprite,Foreground,Centre,"approachcircle.png",320,240 M,0,120215,,320,346 F,0,120215,120750,0,1 S,0,120215,121179,2.5,0.58 C,0,120750,,255,255,255 F,0,120750,121179,1 F,0,121179,121286,1,0
Sprite,Foreground,Centre,"hit0.png",320,240 M,0,121179,,320,346 S,0,121179,121232,0.3,0.96 F,0,121179,121286,0,1 S,0,121232,121286,0.96,0.6 F,0,121286,121715,1 F,0,121715,122465,1,0
//Storyboard Sound Samples
Sample,57750,3,"combobreak.mp3",100
Sample,121174,3,"combobreak.mp3",100
Sample,160421,1,"soft-hitwhistle.wav",100
//Background Colour Transformations
3,100,0,0,0

[TimingPoints]
11460,428.571428571429,4,2,1,100,1,0
31067,-200,4,2,0,100,0,0
31709,-100,4,2,1,100,0,0
38781,-200,4,2,0,70,0,0
44995,-100,4,2,1,100,0,0
52495,-200,4,2,0,70,0,0
57852,-100,4,2,0,100,0,0
59460,-100,4,2,1,100,0,1
73174,-100,4,2,0,100,0,0
79924,-100,4,2,1,100,0,0
85281,-100,4,2,0,50,0,0
85817,-100,4,2,0,75,0,0
86245,-100,4,2,0,100,0,0
86781,-100,4,1,0,100,0,0
94602,-100,4,2,1,100,0,0
102210,-200,4,2,0,70,0,0
108424,-100,4,2,1,100,0,0
115924,-200,4,2,0,70,0,0
122707,428.571428571429,4,2,0,100,1,0
124421,-100,4,2,1,100,0,1
138135,-100,4,2,0,100,0,0
139314,-200,4,2,0,100,0,0
139957,-100,4,2,0,100,0,0
141028,-200,4,2,0,100,0,0
141671,-100,4,2,0,100,0,0
144885,-100,4,2,1,100,0,0
150028,-200,4,2,0,100,0,0
150671,-100,4,2,1,100,0,0
152599,-200,4,2,1,100,0,0
153242,-100,4,2,1,100,0,0
170707,-100,4,2,1,100,0,1
184421,-100,4,2,0,100,0,0
191171,-100,4,2,1,100,0,0
196314,-200,4,2,0,100,0,0
196957,-100,4,2,0,100,0,0

[Colours]
Combo1 : 255,255,222
Combo2 : 209,255,255
Combo3 : 255,255,255
Combo4 : 247,219,233

[HitObjects]
256,192,11459,1,2
168,56,11888,2,0,B|208:136,1,80,0|2
344,56,12531,2,0,B|304:136,1,80,0|8
256,280,13174,5,2
104,224,13602,2,0,B|208:224,1,80,0|2
408,224,14245,2,0,B|304:224,1,80,0|8
256,80,14888,5,2
256,240,15317,2,0,B|256:144,1,80,0|2
328,120,15745,1,2
408,136,15959,1,2
360,200,16174,1,2
440,216,16388,1,0
392,280,16602,6,0,B|312:328,1,80,8|8
120,280,17031,2,0,B|200:328,1,80,8|8
256,72,17674,1,8
256,72,17888,1,8
64,152,18317,6,0,B|88:64,1,80,2|0
64,232,18745,2,0,B|88:320,1,80,0|2
240,192,19388,1,0
144,192,19602,1,8
328,152,20031,6,0,B|304:64,1,80,2|0
328,232,20460,2,0,B|304:320,1,80,0|2
456,192,21102,1,0
456,192,21317,1,8
328,48,21745,5,2
136,48,22174,1,0
232,48,22388,1,2
184,128,22602,2,0,B|152:208,1,80,2|2
208,280,23031,2,0,B|240:200,1,80,2|0
296,280,23460,5,0
296,280,23674,1,0
384,320,23888,2,0,B|440:352,2,40,2|0|0
440,240,24317,2,0,B|496:248,2,40,0|0|8
456,144,24745,2,0,B|512:136,2,40,8|0|0
408,64,25174,5,2
216,64,25602,1,0
120,64,25817,1,0
216,64,26031,1,0
40,136,26460,2,0,B|24:224,1,80,8|0
96,280,26888,2,0,B|112:192,1,80,2|0
200,160,27317,2,0,B|184:248,1,80,2|0
256,304,27745,1,2
448,304,28174,5,4
448,112,28602,5,0
352,136,28817,2,0,B|352:200,2,40,0|0|8
256,112,29245,1,0
168,72,29460,2,0,B|112:56|56:80,1,80
40,152,29888,2,0,B|96:168|152:144,1,80,8|0
168,240,30317,1,0
104,312,30531,6,0,B|64:360,2,40,0|0|8
200,336,30960,1,0
296,312,31174,2,0,B|392:312,1,80,0|8
448,136,32031,5,2
272,56,32460,2,0,B|223:46|168:56,2,80
360,96,33102,1,0
336,192,33317,2,0,B|312:296,1,80,8|0
224,296,33745,2,0,B|248:192,1,80,2|0
168,152,34174,2,0,B|144:256,1,80,2|0
64,272,34602,1,2
24,184,34817,2,0,B|16:96,1,80,0|8
200,56,35460,5,0
288,88,35674,2,0,B|288:144,2,40,0|0|8
376,56,36102,1,0
464,88,36317,2,0,B|448:168,1,80
446,174,36638,1,0
444,181,36745,1,8
416,272,36960,1,0
328,232,37174,2,0,B|160:232,1,160,0|8
64,72,38031,5,0
160,72,38245,1,8
160,72,38460,1,8
352,72,38888,6,0,B|352:208,1,120,2|0
384,224,39745,2,0,B|384:320,1,80,2|0
288,288,40602,1,2
240,304,40817,1,0
192,320,41031,1,0
144,304,41245,1,0
96,288,41460,1,2
192,248,41888,1,0
96,192,42317,6,0,B|40:192,1,40,2|0
96,136,42745,2,0,B|48:136,1,40,0|0
96,80,43174,1,2
232,104,43602,1,0
368,80,44031,2,0,B|424:80,1,40,2|0
368,136,44459,2,0,B|416:136,1,40
368,192,44888,1,2
368,288,45102,5,8
272,288,45317,1,8
184,328,45531,1,0
88,328,45745,1,2
88,136,46174,1,0
88,232,46388,1,0
88,136,46602,1,0
256,48,47031,2,0,B|200:128,1,80,8|0
304,104,47459,2,0,B|248:184,1,80,2|0
352,160,47888,2,0,B|296:240,1,80,2|0
400,216,48317,2,0,B|344:296,1,80,2|0
448,272,48745,1,8
256,304,49174,6,0,B|216:312|160:304,2,80,0|0|8
216,216,49817,1,0
176,128,50031,2,0,B|136:120|80:128,1,80,0|0
56,40,50459,1,8
152,40,50674,2,0,B|192:48|248:40,1,80,0|2
424,56,51317,6,0,B|424:152,1,80,0|2
424,328,51959,2,0,B|424:232,1,80,8|8
344,192,52602,6,0,B|296:192,1,40,2|0
264,216,53031,2,0,B|216:216,1,40,0|0
184,240,53459,2,0,B|88:240,1,80,2|0
56,152,54317,5,2
80,112,54531,1,0
104,72,54745,1,0
144,48,54959,1,0
184,24,55174,1,2
256,80,55602,1,0
352,56,56031,6,0,B|352:112,1,40,2|0
376,136,56459,2,0,B|376:192,1,40,0|0
400,216,56888,2,0,B|400:272,2,40,2|0|0
256,336,59031,5,0
64,328,59459,2,0,B|80:240,1,80,2|0
64,56,60102,2,0,B|80:144,1,80,2|0
160,192,60531,1,0
256,192,60745,5,8
392,56,61174,2,0,B|408:144,1,80,2|0
392,328,61817,2,0,B|408:240,1,80,2|0
480,192,62245,1,0
480,192,62459,1,8
320,88,62888,6,0,B|208:88,1,80,2|0
152,128,63317,2,0,B|40:128,2,80,8|2|2
240,168,63959,2,0,B|360:168,2,80,0|8|0
152,208,64602,5,8
152,208,64817,1,8
80,272,65031,1,8
80,272,65245,1,8
152,336,65459,1,0
224,272,65674,1,8
224,272,65888,1,4
200,80,66317,6,0,B|112:48,1,80,2|0
312,80,66959,2,0,B|400:48,1,80,2|0
464,104,67388,1,0
464,104,67602,1,8
464,296,68031,6,0,B|424:200,1,80,2|0
256,296,68674,2,0,B|296:200,1,80,2|0
360,280,69102,1,0
360,184,69317,1,8
360,88,69531,1,0
264,64,69745,6,0,B|232:160,1,80,2|0
192,56,70174,2,0,B|160:152,1,80,8|2
120,48,70602,2,0,B|88:144,1,80,2|0
48,40,71031,2,0,B|16:136,1,80,8|0
24,216,71459,5,2
120,232,71674,1,2
216,216,71888,1,8
488,168,72317,5,2
392,152,72531,1,2
296,168,72745,1,8
112,112,73174,6,0,B|24:112,1,80,2|0
112,56,73602,2,0,B|208:56,1,80,2|0
288,56,74031,1,0
384,56,74245,1,2
480,56,74459,1,8
432,240,74888,6,0,B|432:344,2,80,2|0|2
352,192,75531,1,0
352,192,75638,1,0
352,192,75745,1,0
272,240,75959,1,2
272,240,76174,1,8
88,288,76602,5,2
88,96,77031,1,2
216,240,77459,1,0
216,144,77674,1,2
216,240,77888,1,8
400,192,78317,5,8
304,192,78531,1,0
400,192,78745,1,8
400,192,78959,1,8
488,152,79174,2,0,B|464:64,1,80,8|8
488,232,79602,2,0,B|464:320,1,80,8|0
368,304,80031,6,0,B|288:320,1,80,2|0
192,320,80459,2,0,B|113:304,2,80,2|0|2
192,320,81102,1,2
240,240,81317,1,8
72,152,81745,6,0,B|72:64,1,80,2|0
152,120,82174,2,0,B|152:208,1,80,2|0
232,152,82602,1,2
232,152,82817,1,2
232,56,83031,1,8
416,104,83459,5,2
416,296,83888,1,2
416,104,84317,2,0,B|416:8,2,80,2|0|2
416,296,85174,1,0
432,200,85388,6,0,B|480:200,10,40
296,336,86888,5,0
296,48,87531,1,0
96,192,88388,6,0,B|40:192,2,40
176,96,94817,5,0
256,48,95031,1,0
336,96,95245,1,0
256,144,95459,5,2
256,336,95888,2,0,B|256:240,2,80,0|0|0
64,336,96745,1,8
160,336,96959,1,0
112,256,97174,2,0,B|24:216,1,80,2|0
120,176,97602,2,0,B|192:209,1,80,2|0
168,112,98031,2,0,B|80:72,1,80,2|0
184,40,98459,1,8
376,40,98888,5,0
456,96,99102,2,0,B|512:96,2,40,0|0|8
376,144,99531,1,0
456,200,99745,2,0,B|456:296,1,80
376,224,100174,2,0,B|376:320,2,80,8|0|2
200,304,101031,2,0,B|200:224,1,80,8|2
120,280,101459,2,0,B|120:200,2,80,0|8|8
288,376,102317,6,0,B|288:240,1,120,2|0
248,224,103174,2,0,B|248:128,1,80,2|0
176,80,104031,1,2
128,96,104245,1,0
80,112,104459,1,0
64,160,104674,1,0
48,208,104888,1,2
64,304,105317,1,0
152,336,105745,6,0,B|208:336,1,40,2|0
232,312,106174,2,0,B|288:312,1,40,0|0
312,336,106602,1,2
384,272,107031,1,0
456,208,107459,2,0,B|456:160,1,40,2|0
440,120,107888,2,0,B|440:72,1,40
424,32,108317,1,2
328,32,108531,5,8
232,32,108745,1,8
328,32,108959,1,0
232,32,109174,1,2
56,104,109602,1,0
16,192,109817,1,0
56,280,110031,1,0
96,192,110245,2,0,B|192:192,1,80,0|8
368,192,110888,5,2
232,56,111317,2,0,B|248:136,1,80,2|0
168,192,111745,1,2
248,248,111959,2,0,B|232:328,1,80,0|8
424,336,112602,5,0
456,248,112817,2,0,B|504:248,2,40,0|0|8
424,160,113245,2,0,B|424:72,2,80,0|0|0
328,160,113888,1,8
232,160,114102,1,0
280,80,114317,5,2
184,80,114531,2,0,B|96:80,2,80,0|8|2
184,272,115388,1,8
184,272,115602,1,8
376,272,116031,6,0,B|440:272|432:272,2,40,2|0|0
328,272,116674,2,0,B|280:272,1,40,0|2
352,200,117317,1,0
304,120,117745,6,0,B|304:72,1,40,2|0
256,88,118174,2,0,B|256:32,1,40
208,56,118602,1,2
120,88,119031,1,0
120,184,119459,6,0,B|120:240,1,40,2|0
152,264,119888,2,0,B|152:320,2,40,0|0|2
184,224,120531,1,0
184,224,120745,1,0
256,192,123992,5,0
120,328,124421,2,0,B|200:312,1,80,2|0
392,328,125064,2,0,B|312:312,1,80,2|0
256,232,125492,1,0
256,136,125706,5,8
88,40,126135,2,0,B|168:56,1,80,2|0
88,232,126778,2,0,B|168:216,1,80,2|0
120,136,127206,1,0
24,136,127421,1,8
120,136,127635,1,0
216,136,127849,6,0,B|320:136,1,80,2|0
376,184,128278,2,0,B|488:184,2,80,8|2|2
296,232,128921,1,0
296,232,129135,1,8
200,232,129349,1,0
200,328,129564,6,0,B|120:304,1,80,2|2
312,328,129992,2,0,B|392:304,1,80,8|8
256,256,130421,1,0
256,160,130635,1,8
256,64,130849,1,8
64,56,131278,6,0,B|48:152,1,80,2|0
64,328,131921,2,0,B|48:232,1,80,2|0
128,192,132349,1,0
224,192,132564,1,8
128,192,132778,1,0
224,192,132992,6,0,B|336:192,1,80,2|0
480,272,133635,2,0,B|368:272,1,80,2|0
304,272,134064,1,0
208,296,134278,1,8
112,320,134492,1,0
56,240,134707,6,0,B|152:248,1,80,2|0
72,176,135135,2,0,B|168:184,1,80,8|2
88,112,135564,2,0,B|184:120,1,80,2|0
104,48,135992,2,0,B|200:56,1,80,8|0
280,64,136421,5,2
280,64,136635,1,2
376,64,136849,2,0,B|440:64,2,40,0|0|0
328,152,137278,1,0
328,152,137385,1,0
328,152,137492,1,8
384,232,137707,2,0,B|448:232,2,40,8|0|0
328,312,138135,5,2
328,312,138349,1,0
232,296,138564,1,2
232,296,138778,1,0
136,312,138992,1,2
136,312,139207,1,2
40,296,139421,6,0,B|40:200,1,80,8|2
40,120,140064,1,0
40,24,140278,1,2
40,120,140492,1,0
40,120,140599,1,0
40,120,140707,1,2
120,72,140921,1,2
216,72,141135,6,0,B|320:72,1,80,8|2
296,264,141992,1,2
296,72,142421,1,2
312,168,142635,1,8
296,264,142849,1,8
128,168,143278,6,0,B|80:160|24:168,1,80,8|0
48,264,143707,1,8
48,264,143921,1,8
128,320,144135,2,0,B|168:328|224:320,2,80,0|8|8
320,328,144992,6,0,B|320:224,1,80,2|0
400,304,145421,2,0,B|400:200,1,80,2|0
480,280,145849,1,2
480,184,146064,1,2
480,88,146278,1,8
288,56,146707,6,0,B|184:56,1,80,2|0
256,136,147135,2,0,B|152:136,1,80,2|0
224,216,147564,1,2
128,216,147778,1,2
224,216,147992,1,8
352,360,148421,5,2
160,360,148849,1,2
256,192,149278,1,2
256,288,149492,1,2
256,192,149707,1,8
256,0,150135,2,0,B|256:96,1,80
256,192,151421,5,0
64,192,151849,1,2
160,192,152064,1,0
64,192,152278,1,0
160,192,152492,1,2
112,272,152707,2,0,B|112:368,1,80
208,368,153349,6,0,B|256:384|320:360,1,80,0|2
336,288,153778,2,0,B|288:272|224:296,2,80,0|0|0
424,328,154421,1,0
424,136,154849,5,0
328,136,155064,1,0
376,48,155278,1,2
184,48,155707,2,0,B|296:48,1,80,0|2
96,136,156349,2,0,B|208:136,1,80
176,232,156778,1,0
176,328,156992,5,2
360,280,157421,2,0,B|256:280,1,80,0|2
440,176,158064,2,0,B|336:176,1,80
264,176,158492,1,0
168,176,158707,6,0,B|128:184|72:176,1,80,2|0
128,88,159135,2,0,B|168:80|224:88,2,80,0|2|0
128,280,159992,1,0
224,296,160207,6,0,B|304:312|392:296,1,160
408,208,160849,2,0,B|456:200|504:208,2,80,0|2|0
256,96,161707,1,0
256,192,161921,1,0
256,192,162028,1,0
256,192,162135,1,0
256,192,162242,12,0,165564
256,192,170278,5,0
112,320,170707,2,0,B|192:304,1,80,2|0
256,376,171135,1,0
321,304,171349,2,0,B|400:320,1,80,2|0
256,192,171992,5,8
160,32,172421,2,0,B|128:16|80:24,2,80,2|0|0
256,48,173064,1,2
256,48,173171,1,0
256,48,173278,1,0
352,32,173492,2,0,B|384:16|432:24,1,80,0|8
384,208,174135,6,2,B|360:296,1,80
312,200,174564,2,0,B|288:288,1,80,8|2
240,192,174992,2,0,B|216:280,1,80,2|0
168,184,175421,2,0,B|144:272,1,80,8|0
96,176,175849,5,2
40,96,176064,1,2
136,112,176278,1,8
80,32,176492,1,8
176,48,176707,1,0
240,120,176921,1,8
240,120,177135,5,8
424,72,177564,2,0,B|408:160,1,80,2|0
328,192,177992,1,0
392,264,178207,2,0,B|376:352,1,80,2|0
184,344,178849,5,8
48,208,179278,2,0,B|128:168,1,80,2|0
216,192,179707,1,0
216,192,179814,1,0
216,192,179921,1,2
248,104,180135,2,0,B|328:64,2,80,0|0|8
432,152,180992,5,2
464,240,181207,1,0
376,200,181421,1,8
408,288,181635,1,2
320,248,181849,1,2
352,336,182064,1,0
264,296,182278,1,8
264,296,182492,1,0
168,320,182707,6,0,B|80:320,1,80,2|2
56,232,183135,1,8
56,232,183242,1,0
56,232,183349,1,8
112,152,183564,2,0,B|176:152,2,40,0|0|8
56,72,183992,1,8
56,72,184099,1,0
56,72,184207,1,0
152,72,184421,6,0,B|224:24,1,80,2|0
208,120,184849,2,0,B|280:72,1,80,2|0
264,168,185278,2,0,B|344:112,1,80,2|2
320,216,185707,1,8
160,328,186135,5,2
64,328,186349,1,0
160,328,186564,1,2
160,232,186778,1,0
160,232,186885,1,0
160,232,186992,1,2
160,328,187207,1,2
256,328,187421,1,8
448,320,187849,6,0,B|432:224,1,80,2|0
448,64,188278,2,0,B|432:160,1,80,2|0
352,192,188707,1,2
256,192,188921,1,2
160,192,189135,1,8
216,8,189564,6,0,B|136:32,1,80,8|0
296,8,189992,2,0,B|376:32,1,80,8|8
256,80,190421,1,0
256,176,190635,1,8
256,272,190849,1,8
64,240,191278,5,2
64,144,191492,1,0
64,240,191707,1,2
64,144,191921,1,0
144,192,192135,2,0,B|248:192|248:184,2,80,2|2|8
336,192,192992,5,2
336,192,193207,1,0
432,192,193421,1,2
432,192,193635,1,0
384,112,193849,2,0,B|384:16,2,80,2|2|8
200,48,194707,5,2
8,48,195135,1,2
104,216,195564,1,2
104,120,195778,1,2
104,216,195992,1,8
288,168,196421,2,0,B|192:168,1,80
432,288,197707,5,8
432,96,198135,1,2
432,96,198349,1,0
