osu file format v7

[General]
AudioFilename: Marshmallow.mp3
AudioLeadIn: 0
PreviewTime: 123831
Countdown: 0
SampleSet: Soft
StackLeniency: 0.7
Mode: 0
LetterboxInBreaks: 0
UseSkinSprites: 1

[Editor]
DistanceSpacing: 1
BeatDivisor: 4
GridSize: 8

[Metadata]
Title:Marshmallow
Artist:IU
Creator:saymun
Version:Easy
Source:
Tags:Lee Ji Eun

[Difficulty]
HPDrainRate:2
CircleSize:3
OverallDifficulty:4
SliderMultiplier:1
SliderTickRate:1

[Events]
//Background and Video events
0,0,"bg.jpg"
Video,400,"Marshmallow1.avi"
//Break Periods
//Storyboard Layer 0 (Background)
//Storyboard Layer 1 (Fail)
//Storyboard Layer 2 (Pass)
//Storyboard Layer 3 (Foreground)
//Storyboard Sound Samples
//Background Colour Transformations
3,100,0,0,0

[TimingPoints]
11460,428.571428571429,4,2,1,100,1,0
25067,-100,4,2,1,100,0,0
38781,-200,4,2,0,70,0,0
44995,-100,4,2,1,100,0,0
52495,-200,4,2,0,70,0,0
57852,-100,4,2,0,100,0,0
59460,-100,4,2,1,100,0,1
73174,-100,4,2,0,100,0,0
79924,-100,4,2,1,100,0,0
85067,-100,4,2,1,50,0,0
87531,-100,4,2,1,25,0,0
88174,-100,4,2,1,0,0,0

[Colours]
Combo1 : 255,255,222
Combo2 : 209,255,255
Combo3 : 255,255,255
Combo4 : 247,219,233

[HitObjects]
80,192,11459,1,2
432,192,13174,5,2
256,48,14888,6,0,B|256:352,1,300,2|2
152,352,16602,5,8
152,352,16817,1,8
152,352,17031,1,8
152,352,17245,1,8
48,352,17674,1,8
48,352,17888,1,8
48,248,18317,6,0,B|56:40|224:40,1,300,2|8
296,40,20031,2,0,B|464:48|464:256,1,300,2|8
408,312,21745,2,0,B|104:312,1,300,2|8
104,208,23460,6,0,B|104:56,2,150
208,208,25174,5,2
400,208,26031,1,0
304,40,26888,1,2
304,144,27317,1,2
304,248,27745,1,2
56,248,28817,5,0
56,248,29031,1,8
56,144,29460,2,0,B|56:72,2,50,0|0|8
160,144,30317,2,0,B|248:120|352:176|464:144,1,300
456,248,32031,5,2
256,248,32888,1,0
56,248,33745,1,2
56,144,34174,1,2
56,40,34602,1,2
256,192,35674,5,0
256,192,35888,1,8
256,288,36317,2,0,B|256:352,2,50,0|0|8
344,240,37174,2,0,B|456:184|440:56,1,200
304,40,38888,6,0,B|192:40,3,100,2|2|2|2
104,40,42317,2,0,B|-8:40,3,100,2|2|2|2
72,192,45745,5,2
256,264,46602,1,0
440,192,47460,1,2
440,96,47888,1,2
440,192,48317,1,2
208,96,49388,6,0,B|136:96,3,50,0|8|0|0
56,96,50460,1,8
56,200,50888,2,0,B|272:200,1,200
208,344,52602,6,0,B|320:344,3,100,2|2|2|2
408,344,56031,1,2
408,248,56888,1,2
496,296,57745,1,2
256,48,59031,5,0
208,136,59460,2,0,B|208:208|160:296,2,150,2|2|8
304,136,61174,2,0,B|304:208|352:296,2,150,2|2|8
384,80,62888,5,2
480,112,63317,1,8
392,160,63745,1,2
488,192,64174,1,8
400,240,64602,2,0,B|400:304,6,50,2|2|8|8|0|8|8
312,288,66317,6,0,B|216:288|160:336,2,150,2|2|8
312,192,68031,2,0,B|216:192|160:144,2,150,2|2|8
400,240,69745,5,2
400,240,69960,1,0
400,240,70174,1,8
400,144,70602,1,2
472,208,71031,1,8
472,112,71460,2,0,B|472:48,6,50,2|2|8|8|0|8|8
392,48,73174,6,0,B|176:48,1,200,2|2
88,48,74460,1,8
88,144,74888,6,0,B|304:144,1,200,2|2
392,144,76174,1,8
392,240,76602,6,0,B|288:240,1,100,2|8
192,240,77460,2,0,B|128:240,2,50,2|2|8
192,336,78317,5,8
288,336,78745,1,8
288,336,78960,1,8
288,336,79174,1,8
288,336,79388,1,8
288,336,79602,1,8
384,336,80031,5,2
400,240,80460,1,2
384,144,80888,1,2
384,144,81102,1,2
384,144,81317,1,8
288,144,81745,5,2
192,128,82174,1,2
96,144,82602,1,2
96,144,82817,1,2
96,144,83031,1,8
96,240,83460,6,0,B|96:320|96:352,3,100,2|2|2|2
256,192,85174,12,0,88602
