osu file format v9

[General]
AudioFilename: IU - Good Day.mp3
AudioLeadIn: 0
PreviewTime: 46777
Countdown: 1
SampleSet: Normal
StackLeniency: 0.6
Mode: 0
LetterboxInBreaks: 1

[Editor]
Bookmarks: 17832,32832,47832,79707,94707,109707,124707,154707,162207,177207,207207
DistanceSpacing: 1
BeatDivisor: 4
GridSize: 4

[Metadata]
Title:Good Day
Artist:IU
Creator:ykcarrot
Version:Normal
Source:
Tags:Yi Lee Ji-eun REAL Joeunnal

[Difficulty]
HPDrainRate:4
CircleSize:4
OverallDifficulty:4
ApproachRate:4
SliderMultiplier:1.44
SliderTickRate:2

[Events]
//Background and Video events
0,0,"IU_BG.jpg"
Video,400,"BGV.avi"
//Break Periods
2,79906,89637
2,154906,161355
//Storyboard Layer 0 (Background)
//Storyboard Layer 1 (Fail)
//Storyboard Layer 2 (Pass)
//Storyboard Layer 3 (Foreground)
//Storyboard Sound Samples
//Background Colour Transformations
3,100,163,162,255

[TimingPoints]
10332,468.75,4,1,1,60,1,0
47597,-100,4,1,1,70,0,0
90722,-100,4,1,1,60,0,0
94355,-100,4,2,1,60,0,0
98691,-100,4,2,1,40,0,0
101972,-100,4,1,1,60,0,0
124472,-100,4,1,1,70,0,0
162441,-100,4,1,1,60,0,0
179199,-100,4,1,1,10,0,0
179433,-100,4,1,1,15,0,0
179550,-100,4,1,1,20,0,0
179667,-100,4,1,1,25,0,0
179785,-100,4,1,1,30,0,0
179902,-100,4,1,1,35,0,0
180019,-100,4,1,1,40,0,0
180136,-100,4,1,1,45,0,0
180253,-100,4,1,1,50,0,0
180371,-100,4,1,1,55,0,0
180488,-100,4,1,1,60,0,0
180605,-100,4,1,1,65,0,0
180722,-100,4,1,1,70,0,0
180957,-100,4,1,1,70,0,1
192089,-100,4,1,1,5,0,1
192558,-100,4,1,1,70,0,1
192792,-100,4,1,1,5,0,1
193378,-100,4,1,1,40,0,1
193613,-100,4,1,1,50,0,1
193847,-100,4,1,1,60,0,1
194082,-100,4,1,1,70,0,1
194257,-100,4,1,1,5,0,1
194374,-100,4,1,1,70,0,1
194492,-100,4,1,1,5,0,1
194609,-100,4,1,1,70,0,1
205800,-100,4,2,1,70,0,0
206972,-100,4,1,1,70,0,0
209082,-100,4,2,1,70,0,1
214648,-100,4,2,1,70,0,0
214707,-100,4,2,1,50,0,1
214765,-100,4,2,1,80,0,1
216523,-100,4,2,1,80,0,0
216582,-100,4,2,1,60,0,1
216640,-100,4,2,1,90,0,1
219863,-100,4,1,1,70,0,0
222792,-100,4,2,1,70,0,0
224082,487.80487804878,4,2,1,60,1,0
224813,-100,4,2,1,50,0,0
225240,-100,4,2,1,5,0,0
225362,-100,4,2,1,50,0,0
225484,-100,4,2,1,5,0,0
225606,-100,4,2,1,50,0,0
226764,-100,4,2,1,40,0,0
232374,-100,4,2,1,30,0,0
232618,-100,4,2,1,20,0,0
232862,-100,4,2,1,10,0,0
233106,-100,4,2,1,5,0,0

[Colours]
Combo1 : 255,128,64
Combo2 : 255,128,255
Combo3 : 0,128,255
Combo4 : 128,255,128

[HitObjects]
256,192,15957,12,4,17832
256,192,18300,5,0
400,128,18769,2,0,B|436:156|436:228|400:256,2,144
256,116,20175,1,0
256,268,20644,1,0
112,256,21113,2,0,B|76:228|76:156|112:128,1,144
256,116,22050,5,2
400,116,22519,2,0,B|440:116|468:144|472:184,2,108,2|2|2
400,188,23457,2,2,B|352:308|160:308|112:188,1,360,2|2
112,44,25097,2,0,B|152:44|176:76,1,72,0|4
256,192,25800,5,0
328,316,26269,1,0
184,316,26738,2,0,B|136:312|124:268|124:268|60:268,2,144
196,244,27910,2,0,B|224:200|288:200|316:244,1,144
328,316,28613,2,0,B|376:312|388:268|388:268|452:268,1,144
380,144,29550,5,2
256,216,30019,2,0,B|256:324,2,108,2|2|2
248,144,30957,2,2,B|236:32|60:32|48:144,1,288,2|0
40,216,32128,2,2,B|256:216,1,216,2|0
376,140,33300,5,0
376,140,33535,1,0
376,140,33769,2,0,B|428:120|428:160|480:140,2,108
324,192,34707,2,0,B|256:232|188:192,1,144,2|8
136,140,35410,5,0
136,140,35644,2,0,B|84:120|84:160|32:140,2,108
188,192,36582,2,0,B|256:232|324:192,1,144,2|8
376,140,37285,5,0
376,140,37519,2,0,B|404:112|444:112|472:140,2,108
304,140,38457,2,0,B|276:112|276:72|304:44,2,108
304,212,39394,2,0,B|276:240|236:240|208:212,2,108
376,212,40332,2,0,B|412:244|412:308|376:340,1,144,2|8
304,340,41035,5,0
304,340,41269,2,0,B|276:368|236:368|208:340,2,108
256,288,42207,2,0,B|220:220|292:220|256:152,1,144,2|8
132,76,43144,6,0,B|104:48|64:48|36:76,2,108
84,128,44082,2,0,B|72:264|172:360|340:360|440:264|428:128,1,576,0|2
380,76,46191,1,2
256,148,46660,1,6
184,148,46894,6,0,B|156:128|148:88|148:88|156:48|184:28,1,144
328,28,47832,2,0,B|356:48|364:88|364:88|356:128|328:148,1,144,4|8
256,272,48769,1,0
184,148,49238,2,0,B|156:128|148:88|148:88|156:48|184:28,2,144,8|0|8
324,192,50644,5,0
256,320,51113,1,8
188,192,51582,2,0,B|140:192|140:192|100:236|116:280,1,144,0|8
256,320,52519,1,0
396,280,52988,2,0,B|412:236|372:192|372:192|324:192,2,144,8|0|8
256,320,54394,6,0,B|212:288|168:320|168:320|132:284,1,144,0|8
60,284,55097,2,0,B|60:240|96:212|124:212|124:212|172:212|172:212|204:212|220:180,1,216,0|10
256,320,56269,2,0,B|300:288|344:320|344:320|380:284,1,144,2|8
452,284,56972,2,0,B|452:240|416:212|388:212|388:212|340:212|340:212|308:212|292:180,1,216,0|10
256,320,58144,5,2
220,180,58613,1,8
292,180,58847,2,0,B|372:194|434:111|398:39,1,216,0|8
256,32,60019,1,0
292,180,60488,1,8
220,180,60722,2,0,B|141:194|79:111|115:39,1,216,0|8
256,32,61894,5,0
380,104,62363,1,8
256,176,62832,2,0,B|256:328,2,144,4|8|0
132,104,64238,1,8
256,32,64707,2,0,B|256:180,1,144,0|8
256,320,65644,5,0
124,260,66113,1,8
124,260,66347,2,0,B|75:191|167:102|234:154,1,216,2|8
256,320,67519,1,0
388,260,67988,1,8
388,260,68222,2,0,B|438:191|346:102|279:154,1,216,0|10
312,276,69394,2,0,B|300:324|212:324|200:276,1,144,2|8
208,132,70332,6,0,B|140:132|160:204|92:204,2,144,4|8|0
256,268,71738,1,8
304,132,72207,2,0,B|372:132|352:204|420:204,2,144,0|8|0
256,268,73613,1,8
208,132,74082,6,0,B|276:0|376:0|456:12|504:68|512:132|512:244|452:292|340:232|256:372|256:372|172:232|60:292|0:244|0:132|8:68|56:12|136:0|236:0|304:132,1,1440,4|2
256,188,79003,1,0
256,188,79238,2,0,B|256:280,2,72,0|0|4
184,148,90957,5,2
328,148,91425,1,2
328,292,91894,2,0,B|320:380|192:380|184:292,2,216,2|2|2
256,168,93769,5,0
256,168,94003,1,0
256,168,94238,2,0,B|256:12,1,144,0|2
444,192,96347,6,0,B|444:276,1,72,0|2
68,192,98222,2,0,B|68:276,1,72,0|2
184,352,98925,5,2
328,352,99394,2,0,B|388:352|420:304,2,108,2|2|2
256,352,100332,2,0,B|200:308|196:212|256:192|316:172|312:80|256:32,1,360,2|2
112,32,101972,2,0,B|72:32|56:68,1,72,0|4
56,212,102675,5,0
156,316,103144,1,0
256,212,103613,2,0,B|256:64,2,144,0|0|0
328,212,104785,2,0,B|328:252|292:276|292:276|292:344,1,144,0|0
220,344,105488,2,0,B|220:276|220:276|184:252|184:212,1,144,0|0
256,88,106425,5,2
388,144,106894,2,0,B|360:172|360:212|388:240,2,108,2|2|2
444,192,107832,2,2,B|148:192,1,288,2|0
148,120,109003,2,2,B|60:128|60:256|148:264,1,216,2|0
292,264,110175,6,0,B|368:264,1,72
420,216,110644,2,0,B|448:244|448:284|420:312,2,108
352,192,111582,2,0,B|204:192,1,144,2|8
136,192,112285,5,0
80,144,112519,2,0,B|52:172|52:212|80:240,2,108
148,120,113457,2,0,B|304:120,1,144,2|8
364,120,114160,5,0
364,192,114394,2,0,B|424:188|436:124,2,108
364,264,115332,2,0,B|424:264|464:224,2,108
364,336,116269,2,0,B|420:336|472:308,2,108
292,336,117207,2,0,B|292:184,1,144,2|8
256,128,117910,5,0
256,128,118144,2,0,B|256:16,2,108
220,192,119082,2,0,B|220:336,1,144,2|8
76,336,120019,6,0,B|16:332|4:268,2,108
76,264,120957,2,0,B|88:112|180:40|332:40|424:112|436:264,1,576,0|2
436,336,123066,1,2
312,264,123535,1,6
312,336,123769,6,0,B|300:384|212:384|200:336,1,144
128,212,124707,2,0,B|84:188|84:116|128:92,1,144,4|8
256,156,125644,1,0
384,212,126113,2,0,B|428:188|428:116|384:92,2,144,8|0|8
328,344,127519,5,0
184,344,127988,1,8
64,264,128457,2,0,B|92:228|116:216|116:216|116:184|140:148,1,144,0|8
256,64,129394,1,0
372,148,129863,2,0,B|396:184|396:216|396:216|420:228|448:264,2,144,8|0|8
256,64,131269,5,0
111,64,131738,1,8
112,64,131972,2,0,B|40:64|17:128|40:192|113:192,1,216,0|10
256,192,133144,1,2
400,192,133613,1,8
399,192,133847,2,0,B|471:192|494:128|471:64|398:64,1,216,0|10
256,64,135019,6,0,B|220:64|220:64|168:116|168:116|132:116,1,144,2|8
60,116,135722,2,0,B|60:172|112:188|112:188|156:188|156:188|196:188|220:224,1,216,0|8
256,64,136894,2,0,B|292:64|292:64|344:116|344:116|380:116,1,144,0|8
452,116,137597,2,0,B|452:172|400:188|400:188|356:188|356:188|316:188|292:224,1,216,0|8
184,320,138769,5,0
328,320,139238,1,8
328,176,139707,2,0,B|360:144|360:84|360:84|396:52,2,144,4|8|0
184,176,141113,2,0,B|152:144|152:84|152:84|116:52,2,144,8|0|8
196,320,142519,6,0,B|220:364|292:364|316:320,1,144,0|8
256,280,143222,2,0,B|256:132,1,144,2|0
256,64,143925,1,8
368,156,144394,2,0,B|412:180|412:252|368:276,1,144,0|8
328,216,145097,2,0,B|172:216,1,144
144,156,145800,2,0,B|100:180|100:252|144:276,2,144,10|2|8
292,156,147207,6,0,B|316:132|316:132|392:132|392:132|420:104,2,144,4|8|0
256,296,148613,1,8
220,156,149082,2,0,B|196:132|196:132|120:132|120:132|92:104,2,144,0|8|0
256,296,150488,1,8
292,156,150957,6,0,B|328:124|376:124|384:52|352:8|300:-4|256:44|256:44|212:-4|160:8|128:52|136:124|184:124|220:156|220:156|244:176|256:212,1,576,4|2
328,336,153300,1,0
328,336,153535,1,2
184,336,154003,1,0
184,336,154238,2,0,B|96:336,2,72,0|0|4
184,104,162675,5,8
184,104,162910,1,0
184,104,163144,2,0,B|144:104|144:104|112:104|84:132,2,108
196,176,164082,2,0,B|220:220|292:220|316:176,1,144,0|8
328,104,164785,1,0
328,104,165019,2,0,B|368:104|368:104|400:104|428:132,2,108
256,104,165957,1,0
256,248,166425,6,0,B|220:248|220:248|192:224,1,72,8|0
144,172,166894,2,0,B|120:196|120:196|120:236|120:236|92:264,2,108
192,120,167832,1,0
256,248,168300,2,0,B|292:248|292:248|320:224,1,72,8|0
368,172,168769,2,0,B|392:196|392:196|392:236|392:236|420:264,2,108
292,52,169941,6,0,B|328:52|352:84,2,72,2|0|2
220,52,170644,2,0,B|184:52|160:84,1,72,2|0
256,192,171347,1,2
292,332,171816,2,0,B|328:332|352:300,2,72,2|0|2
220,332,172519,2,0,B|184:332|160:300,1,72,2|0
256,192,173222,5,2
328,68,173691,2,0,B|368:76|380:112,2,72,2|0|2
256,56,174394,1,0
184,68,174628,2,0,B|144:76|132:112,2,72,2|0|2
256,192,175566,2,0,B|256:276,1,72,0|4
256,192,177207,5,4
256,192,179316,12,4,180957
384,260,181425,5,8
256,192,181894,2,0,B|220:256|292:264|256:328,2,144,0|8|0
128,260,183300,1,8
36,148,183769,6,0,B|108:148|108:148|124:180|164:188,1,144,0|8
172,116,184472,2,0,B|196:84|232:84|256:132|256:132|280:84|316:84|340:116,1,216,0|10
476,148,185644,2,0,B|404:148|404:148|388:180|348:188,1,144,2|8
340,116,186347,2,0,B|316:72|256:52|256:52|196:72|172:116,1,216,0|8
192,260,187519,6,0,B|256:292|256:292|320:260,1,144,0|8
340,188,188222,2,0,B|292:188|256:128|256:128|220:188|172:188,1,216,0|8
256,304,189394,2,0,B|256:376,2,72,2|0|10
256,232,190097,2,2,B|256:76,1,144,2|0
256,16,190800,1,8
160,124,191269,6,0,B|80:124,2,72
184,192,191972,2,0,B|192:280|320:280|328:192,2,216,0|4|0
256,184,193613,2,0,B|256:108,1,72
304,60,194082,2,0,B|280:32|232:32|208:60,2,108,2|2|2
256,184,195253,2,0,B|256:260,1,72,0|0
136,336,195957,6,0,B|136:304|136:304|84:276|84:212,1,144,4|8
184,108,196894,1,0
328,108,197363,1,8
428,212,197832,2,0,B|428:276|376:304|376:304|376:336,2,144,0|8|0
440,68,199238,1,8
324,156,199707,6,0,B|256:208|192:156,2,144,4|8|0
308,12,201113,1,8
256,148,201582,2,0,B|256:308,2,144,4|8|0
204,12,202988,1,8
148,148,203457,6,0,B|148:256|148:256|148:328|188:412|324:412|364:328|364:256|364:256|364:148,1,576,4|0
256,48,205800,1,2
256,336,207207,5,2
256,192,207675,1,2
168,80,208144,6,0,B|180:44|220:36,1,72,4|0
292,36,208613,2,0,B|332:44|344:80,1,72,4|0
256,192,209082,12,4,214707
256,192,214765,12,4,216582
256,192,216640,12,0,219863
256,328,221503,6,2,B|292:260|220:260|256:192,1,144
256,48,222441,1,2
256,48,222675,1,2
184,316,224082,5,2
328,316,224569,1,0
256,192,225057,2,0,B|256:76,2,108,2|2|2
184,28,227008,5,2
328,28,227984,1,2
256,192,228960,12,0,233838
