osu file format v9

[General]
AudioFilename: IU - Good Day.mp3
AudioLeadIn: 0
PreviewTime: 46777
Countdown: 1
SampleSet: Normal
StackLeniency: 0.6
Mode: 0
LetterboxInBreaks: 1

[Editor]
Bookmarks: 17832,32832,47832,79707,94707,109707,124707,154707,162207,177207,207207
DistanceSpacing: 1
BeatDivisor: 4
GridSize: 4

[Metadata]
Title:Good Day
Artist:IU
Creator:ykcarrot
Version:Hard
Source:
Tags:Yi Lee Ji-eun REAL Joeunnal

[Difficulty]
HPDrainRate:7
CircleSize:4
OverallDifficulty:7
ApproachRate:8
SliderMultiplier:2
SliderTickRate:2

[Events]
//Background and Video events
0,0,"IU_BG.jpg"
Video,400,"BGV.avi"
//Break Periods
2,79906,90207
2,154906,161925
//Storyboard Layer 0 (Background)
//Storyboard Layer 1 (Fail)
//Storyboard Layer 2 (Pass)
//Storyboard Layer 3 (Foreground)
//Storyboard Sound Samples
//Background Colour Transformations
3,100,163,162,255

[TimingPoints]
10332,468.75,4,1,1,60,1,0
47597,-100,4,1,1,70,0,0
90722,-100,4,1,1,60,0,0
94355,-100,4,2,1,60,0,0
98691,-100,4,2,1,40,0,0
101972,-100,4,1,1,60,0,0
124472,-100,4,1,1,70,0,0
162441,-100,4,1,1,60,0,0
179199,-100,4,1,1,10,0,0
179433,-100,4,1,1,15,0,0
179550,-100,4,1,1,20,0,0
179667,-100,4,1,1,25,0,0
179785,-100,4,1,1,30,0,0
179902,-100,4,1,1,35,0,0
180019,-100,4,1,1,40,0,0
180136,-100,4,1,1,45,0,0
180253,-100,4,1,1,50,0,0
180371,-100,4,1,1,55,0,0
180488,-100,4,1,1,60,0,0
180605,-100,4,1,1,65,0,0
180722,-100,4,1,1,70,0,0
180957,-100,4,1,1,70,0,1
181191,-83.3333333333333,4,1,1,70,0,1
192089,-83.3333333333333,4,1,1,5,0,1
192558,-83.3333333333333,4,1,1,70,0,1
192792,-83.3333333333333,4,1,1,5,0,1
193261,-83.3333333333333,4,1,1,40,0,1
193496,-83.3333333333333,4,1,1,45,0,1
193613,-83.3333333333333,4,1,1,50,0,1
193730,-83.3333333333333,4,1,1,55,0,1
193847,-83.3333333333333,4,1,1,60,0,1
193964,-83.3333333333333,4,1,1,65,0,1
194082,-83.3333333333333,4,1,1,70,0,1
194257,-83.3333333333333,4,1,1,5,0,1
194374,-83.3333333333333,4,1,1,70,0,1
194492,-83.3333333333333,4,1,1,5,0,1
194609,-83.3333333333333,4,1,1,70,0,1
205800,-83.3333333333333,4,2,1,70,0,0
206972,-83.3333333333333,4,1,1,70,0,0
209082,-83.3333333333333,4,2,1,70,0,1
214648,-83.3333333333333,4,2,1,70,0,0
214707,-83.3333333333333,4,2,1,50,0,1
214765,-83.3333333333333,4,2,1,80,0,1
216523,-83.3333333333333,4,2,1,80,0,0
216582,-83.3333333333333,4,2,1,60,0,1
216640,-83.3333333333333,4,2,1,90,0,1
219863,-83.3333333333333,4,1,1,70,0,0
222792,-100,4,2,1,70,0,0
224082,487.80487804878,4,2,1,60,1,0
224813,-100,4,2,1,50,0,0
226764,-100,4,2,1,40,0,0
232374,-100,4,2,1,30,0,0
232618,-100,4,2,1,20,0,0
232862,-100,4,2,1,10,0,0
233106,-100,4,2,1,5,0,0

[Colours]
Combo1 : 255,128,255
Combo2 : 128,255,128
Combo3 : 0,128,255
Combo4 : 255,128,64

[HitObjects]
256,192,15957,12,4,17832
424,200,18300,5,0
500,264,18535,1,0
424,328,18769,2,0,B|456:372|508:372,2,100
348,264,19472,2,0,B|256:196|164:264,1,200
88,328,20175,1,0
12,264,20410,1,0
88,200,20644,2,0,B|56:156|4:156,2,100
164,264,21347,2,0,B|212:296|260:264,1,100
408,132,22050,5,2
104,132,22519,1,2
256,300,22871,1,2
408,132,23222,1,2
340,60,23457,2,2,B|304:0|208:0|172:60,2,200,2|0|0
256,116,24628,2,2,B|256:324,1,200,2|0
256,316,25214,1,0
256,316,25332,1,4
256,28,25800,5,0
172,88,26035,1,0
204,184,26269,1,0
308,184,26503,1,0
340,88,26738,1,0
256,28,26972,2,0,B|212:124|300:124|256:220,1,200
204,308,27675,1,0
308,308,27910,1,0
204,308,28144,2,0,B|148:308|120:260,2,100
308,308,28847,2,0,B|364:308|392:260,1,100
256,52,29550,5,2
144,304,30019,1,2
368,304,30371,1,2
256,108,30722,1,2
256,108,30839,1,0
256,108,30957,2,2,B|256:324,2,200,6|0|0
156,108,32128,2,2,B|172:-16|340:-16|356:108,1,300,2|0
304,328,33300,6,0,B|256:352|208:328,1,100
116,288,33769,2,0,B|76:264|76:216|76:216|12:216,2,150
176,208,34707,2,0,B|196:144|316:144|336:208,1,200,2|8
396,288,35410,1,0
396,288,35527,1,0
396,288,35644,2,0,B|436:264|436:216|436:216|500:216,2,150
336,208,36582,2,0,B|316:144|196:144|176:208,1,200,2|8
256,268,37285,5,0
256,268,37402,1,0
256,268,37519,2,0,B|256:116,2,150
196,356,38457,1,0
48,192,38808,1,0
196,28,39160,1,0
316,28,39394,1,0
464,192,39746,1,0
316,356,40097,1,0
256,268,40332,2,0,B|212:172|300:172|256:76,1,200,2|8
156,76,41035,5,0
156,76,41152,1,0
156,76,41269,2,0,B|104:72|56:124|68:172,2,150
168,176,42207,2,0,B|240:260|272:156|344:240,1,200,2|8
344,240,42910,1,0
360,340,43144,2,0,B|414:344|454:296|450:244,2,150
260,340,44082,5,2
228,328,44199,1,0
196,316,44316,1,0
164,304,44433,1,0
140,280,44550,5,2
108,268,44667,1,0
76,256,44785,1,0
44,244,44902,1,0
44,208,45019,5,2
76,196,45136,1,0
108,184,45253,1,0
140,172,45371,1,0
164,148,45488,5,2
196,136,45605,1,0
228,124,45722,1,0
260,112,45839,1,0
284,88,45957,6,0,B|332:88|332:88|376:60,1,100,2|2
376,60,46660,1,6
460,120,46894,5,0
428,216,47128,1,0
324,216,47363,1,0
292,120,47597,2,0,B|260:72|208:72,1,100,0|4
158,72,47949,1,0
108,72,48066,2,0,B|52:72|24:120,2,100,0|8|0
108,172,48769,1,0
192,228,49003,1,0
292,228,49238,2,0,B|372:228|404:144,2,150,8|0|2
242,228,50058,1,0
192,228,50175,2,0,B|136:228|108:276,1,100,8|2
48,356,50644,5,0
8,264,50878,1,0
68,184,51113,1,8
28,92,51347,2,0,B|80:36|168:36,1,150
212,36,51816,2,0,B|220:88|276:104,1,100,0|8
376,120,52285,1,0
476,120,52519,2,0,B|476:176|428:204,1,100
332,224,52988,2,0,B|356:308|444:300,2,150,8|0|2
320,176,53808,1,0
332,128,53925,2,0,B|372:88,2,50,8|0|2
244,176,54394,6,0,B|188:176|156:136,1,100
80,72,54863,1,8
80,72,54980,1,0
80,72,55097,2,0,B|36:100|36:172|80:200,1,150
124,224,55566,2,0,B|152:248|152:288|124:312,1,100,0|10
32,268,56035,1,0
124,224,56269,2,0,B|172:200|220:224,1,100,2|0
296,288,56738,1,8
296,288,56972,2,0,B|340:260|340:188|296:160,1,150
252,136,57441,2,0,B|224:112|224:72|252:48,1,100,0|10
344,92,57910,5,0
432,140,58144,1,2
344,192,58378,1,0
432,244,58613,1,8
344,292,58847,2,0,B|284:292|256:240|256:240|164:240,1,200
64,240,59550,1,8
164,240,59785,1,0
64,240,60019,2,0,B|64:296|108:324,2,100,0|0|8
164,240,60722,2,0,B|276:240|312:128,1,200,0|8
352,36,61425,2,0,B|304:12|256:36,1,100,8|0
140,112,61894,5,0
188,240,62128,1,0
324,240,62363,1,8
372,112,62597,1,0
256,36,62832,2,0,B|256:240,2,200,4|8|0
140,112,64003,2,0,B|116:160|140:208,1,100,0|8
172,340,64472,2,0,B|220:340|256:292|256:292|292:340|340:340,1,200
372,208,65175,2,0,B|396:160|372:112,1,100,8|0
256,160,65644,5,0
196,264,65878,1,0
316,264,66113,1,8
256,160,66347,2,0,B|256:44,1,100,2|0
164,136,66816,2,0,B|120:136|120:176|68:176,2,100,0|8|0
348,136,67519,2,0,B|392:136|392:176|444:176,2,100,0|0|8
256,56,68222,2,0,B|188:56|128:128|144:192,1,200
256,328,68925,2,2,B|324:328|384:256|368:192,1,200,10|2
256,144,69628,5,0
172,72,69863,1,8
88,144,70097,1,0
172,216,70332,2,0,B|136:276|56:256|56:256|20:264|8:304,2,200,4|8|0
256,144,71503,1,0
340,72,71738,1,8
424,144,71972,1,0
340,216,72207,2,0,B|376:276|456:256|456:256|492:264|504:304,2,200,0|8|0
296,72,73378,5,0
296,72,73613,1,8
296,72,73847,1,0
296,72,74082,2,0,B|344:28|420:52|448:136|408:224|332:224|256:308|256:308|180:224|104:224|64:136|92:52|168:28|216:72,1,800,4|2
216,72,76074,1,2
256,216,76425,5,0
256,368,76660,1,2
256,368,76777,1,2
296,148,77128,5,0
440,188,77363,1,2
440,188,77480,1,2
216,148,77832,5,0
72,188,78066,1,2
72,188,78183,1,2
256,320,78535,5,2
256,320,78769,1,2
256,172,79003,5,0
256,168,79238,1,0
256,164,79472,2,0,B|256:120,4,25,0|0|0|0|4
256,60,90957,5,2
256,60,91191,1,2
256,156,91425,1,0
256,196,91542,1,0
256,236,91660,1,2
188,308,91894,1,0
216,336,92011,1,0
256,344,92128,1,2
296,336,92246,1,0
324,308,92363,1,2
256,236,92597,2,2,B|256:20,1,200
256,36,93300,1,2
152,36,93535,6,0,B|112:36,4,25
256,36,94003,1,0
360,36,94238,2,0,B|424:36,4,50,0|0|0|0|2
304,280,95175,5,0
404,280,95410,1,0
452,192,95644,1,0
404,104,95878,1,0
304,104,96113,1,0
256,192,96347,2,0,B|256:304,2,100,0|2|0
208,104,97050,1,0
108,104,97285,1,0
60,192,97519,1,0
108,280,97753,1,0
208,280,97988,1,0
256,192,98222,2,0,B|256:88,1,100,0|2
256,352,98925,5,2
184,60,99394,2,0,B|256:24|328:60,2,150,2|2|2
204,160,100332,2,0,B|200:240|312:240|308:320,2,200,2|0|0
308,160,101503,2,0,B|312:240|200:240|204:320,1,200,2|0
204,320,102089,1,0
204,320,102207,1,4
452,228,102675,5,0
404,140,102910,1,0
304,140,103144,2,0,B|304:80|352:56,2,100
352,228,103847,2,0,B|256:280|160:228,1,200
60,228,104550,1,0
108,140,104785,1,0
208,140,105019,2,0,B|208:80|160:56,2,100
256,228,105722,2,0,B|256:336,1,100,0|0
256,68,106425,5,2
368,344,106894,1,2
144,344,107246,1,2
176,128,107597,1,2
176,128,107714,1,0
176,128,107832,2,2,B|208:196|304:196|336:128,2,200,6|0|0
256,68,109003,2,2,B|256:268|256:268|260:272|260:272|252:276|252:276|260:280|260:280|252:284|252:284|260:288|260:288|252:292|252:292|260:296|260:296|252:300|252:300|260:304|260:304|252:308|252:308|260:312|260:312|256:316,1,300,2|0
300,116,110175,6,0,B|280:100|256:92|256:92|232:100|212:116,1,100
160,196,110644,1,0
160,196,110761,1,0
256,228,110996,1,0
256,228,111113,1,0
352,196,111347,1,0
332,96,111582,2,0,B|316:56|256:36|256:36|196:56|180:96,1,200,2|8
160,196,112285,5,0
160,196,112402,1,0
160,196,112519,2,0,B|120:236,1,50
256,228,112871,2,0,B|256:292,1,50
352,196,113222,1,0
332,96,113457,2,0,B|316:56|256:36|256:36|196:56|180:96,1,200,2|8
160,196,114160,5,0
160,196,114277,1,0
160,196,114394,2,0,B|88:228|88:164|16:196,2,150
256,352,115332,2,0,B|256:200,2,150
352,196,116269,2,0,B|424:228|424:164|496:196,2,150
180,96,117207,2,0,B|204:24|308:24|332:96,1,200,2|8
352,196,117910,5,0
352,196,118027,1,0
352,196,118144,2,0,B|408:196|452:240|452:288,2,150
352,296,119082,2,0,B|256:344|160:296,1,200,2|8
160,296,119785,1,0
60,288,120019,2,0,B|60:240|104:196|160:196,2,150
128,360,120957,5,2
160,348,121074,1,0
192,336,121191,1,0
224,324,121308,1,0
248,300,121425,5,2
280,288,121542,1,0
312,276,121660,1,0
344,264,121777,1,0
368,240,121894,5,2
400,228,122011,1,0
432,216,122128,1,0
464,204,122246,1,0
464,168,122363,5,2
432,156,122480,1,0
400,144,122597,1,0
368,132,122714,1,0
344,108,122832,6,0,B|324:92|324:92|276:92|276:92|256:76,1,100,2|2
256,76,123535,1,6
156,76,123769,5,0
124,172,124003,1,0
204,232,124238,1,0
284,172,124472,2,0,B|340:172|376:208,1,100,0|4
408,244,124824,1,0
440,280,124941,2,0,B|492:260|492:200,2,100,0|8|0
356,332,125644,1,0
256,332,125878,1,0
172,280,126113,2,0,B|104:224|36:280,2,150,8|0|2
256,332,127050,2,0,B|312:320|324:268,1,100,8|2
332,168,127519,5,0
256,100,127753,1,0
180,168,127988,1,8
256,236,128222,2,0,B|292:280|340:280|340:280|396:280,1,150
444,280,128691,2,0,B|496:304|496:360,1,100,0|8
396,356,129160,1,0
297,356,129394,2,0,B|244:356|212:312,1,100
132,252,129863,2,0,B|56:280|56:368,2,150,8|0|2
180,240,130683,1,0
228,252,130800,2,0,B|264:288,2,50,8|0|2
180,164,131269,5,0
96,108,131503,1,0
180,52,131738,1,8
180,52,131855,1,0
180,52,131972,2,0,B|228:52|256:92|256:92|316:92,1,150
368,92,132441,2,0,B|420:116|420:172,1,100,0|10
420,272,132910,1,0
344,336,133144,2,0,B|300:336|300:304|252:304,1,100,2|0
152,304,133613,1,8
152,304,133847,2,0,B|152:256|192:228|192:228|192:168,1,150
192,116,134316,2,0,B|216:68|272:68,1,100,0|10
372,68,134785,5,0
460,120,135019,1,2
436,216,135253,1,0
336,228,135488,1,8
300,132,135722,2,0,B|236:160|236:224|236:224|236:304,1,200
324,356,136425,2,0,B|372:380|420:356,1,100,8|0
420,256,136894,2,0,B|372:232|324:256,1,100,0|0
236,304,137363,1,8
152,356,137597,2,0,B|88:328|88:264|88:264|88:184,1,200,0|8
40,96,138300,2,0,B|88:68|136:96,1,100,8|0
256,168,138769,5,0
324,48,139003,1,0
188,48,139238,1,8
256,168,139472,1,0
340,280,139707,2,0,B|304:340|208:340|172:280,2,200,4|8|0
468,232,140878,2,0,B|468:180|412:156,1,100,0|8
336,44,141347,2,0,B|288:44|256:96|256:96|224:44|176:44,1,200
100,156,142050,2,0,B|44:180|44:232,1,100,8|0
164,252,142519,5,0
256,328,142753,1,0
348,252,142988,1,8
304,140,143222,2,0,B|256:116|208:140,1,100,2|0
164,252,143691,2,0,B|156:300|196:300|184:348,2,100,0|8|0
348,252,144394,2,0,B|356:300|316:300|328:348,2,100,0|0|8
428,160,145097,2,0,B|396:92|332:92|332:92|256:92,1,200
84,160,145800,2,2,B|116:92|180:92|180:92|256:92,1,200,10|2
256,240,146503,6,0,B|256:348,2,100,0|8|0
192,148,147207,2,0,B|136:116|80:148|80:148|32:132|16:100,2,200,4|8|0
256,240,148378,2,0,B|256:344,2,100,0|8|0
320,148,149082,2,0,B|376:116|432:148|432:148|480:132|496:100,2,200,0|8|0
216,256,150253,5,0
216,256,150488,1,8
216,256,150722,1,0
216,256,150957,2,0,B|168:208|104:228|64:140|108:44|192:32|256:96|256:96|320:32|404:44|448:140|408:228|344:208|296:256|296:256|272:276|256:316,1,800,4|2
255,317,152949,1,2
188,140,153300,5,0
324,140,153535,1,2
324,140,153652,1,2
256,316,154003,5,0
256,320,154238,1,0
256,324,154472,2,0,B|256:368,4,25,0|0|0|0|4
256,332,162675,5,8
256,232,162910,1,0
164,192,163144,2,0,B|124:192|124:296|68:296,2,150
176,92,164082,2,0,B|196:28|316:28|336:92,1,200,0|8
348,192,164785,1,0
348,192,164902,1,0
348,192,165019,2,0,B|388:192|388:296|444:296,2,150
256,232,165957,1,0
308,40,166425,5,8
204,40,166660,1,0
108,72,166894,2,0,B|52:96|52:148|52:148|52:200,2,150
184,140,167832,2,0,B|200:216|312:216|328:140,1,200,0|8
308,40,168535,1,0
404,72,168769,2,0,B|460:96|460:148|460:148|460:200,2,150
104,192,169941,5,2
104,192,170175,1,0
104,192,170410,1,2
104,192,170644,2,0,B|104:88,1,100,2|0
396,180,171347,1,2
408,192,171816,1,2
408,192,172050,1,0
408,192,172285,1,2
408,192,172519,2,0,B|408:84,1,100,2|0
256,352,173222,6,0,B|256:148,1,200,2|2
160,152,173925,1,0
204,60,174160,1,2
308,60,174394,1,0
352,152,174628,1,2
256,152,174863,1,0
256,152,175097,2,0,B|256:368,1,200,2|0
256,352,175683,1,0
256,352,175800,1,4
60,200,176269,6,0,B|60:312,2,100
60,100,176972,2,0,B|92:56|148:64,1,100,0|4
176,104,177324,1,0
200,148,177441,2,0,B|220:244|296:244|296:244|352:244,1,200
448,244,178144,1,0
448,344,178378,1,0
348,344,178613,2,0,B|180:344,1,150
48,344,179316,5,0
64,320,179433,1,0
80,296,179550,1,0
96,272,179667,1,0
112,248,179785,1,0
128,224,179902,1,0
144,200,180019,1,0
160,176,180136,1,0
176,152,180253,1,0
192,128,180371,1,0
208,104,180488,1,0
224,80,180605,1,0
240,56,180722,2,0,B|260:20,4,25,0|0|0|0|4
256,296,181425,5,8
364,352,181660,2,0,B|400:296|364:240,2,120.000002861023
256,296,182363,2,0,B|72:296,2,180.000004291535,8|0|2
308,296,183183,1,0
360,296,183300,2,0,B|424:296,2,60.0000014305115,8|0|2
360,176,183769,6,0,B|320:120|360:64,1,120.000002861023
464,124,184238,1,8
464,124,184355,1,0
464,124,184472,2,0,B|280:124,1,180.000004291535
284,124,184941,2,0,B|160:124,1,120.000002861023,0|10
164,244,185410,2,0,B|204:300|164:356,2,120.000002861023,0|2|0
56,300,186113,1,8
56,300,186347,2,0,B|240:300,1,180.000004291535
236,300,186816,2,0,B|364:300,1,120.000002861023,0|8
460,240,187285,5,0
460,120,187519,1,0
356,60,187753,1,0
252,120,187988,1,8
252,240,188222,2,0,B|216:320|96:320|60:240,1,240.000005722046
60,120,188925,1,8
60,240,189160,1,0
164,180,189394,1,2
60,240,189628,1,0
164,300,189863,1,10
60,360,190097,2,2,B|60:116,1,240.000005722046,2|8
144,32,190800,2,0,B|200:-8|256:32,1,120.000002861023,8|0
336,120,191269,5,0
336,120,191503,1,0
336,120,191738,1,0
336,120,191972,2,0,B|368:192|328:288|184:288|144:192|176:120,2,360.000008583069,0|4|0
320,88,193496,1,0
292,64,193613,1,0
256,56,193730,1,0
220,64,193847,1,0
192,88,193964,1,0
176,120,194082,2,2,B|144:188|204:252|256:248,2,180.000004291535,2|2|2
256,32,195019,5,0
336,120,195253,1,0
256,208,195488,1,0
176,120,195722,2,0,B|96:120|24:192|24:276,1,240.000005722046
140,304,196425,2,0,B|192:304|192:356|244:356,1,120.000002861023,8|0
364,356,196894,1,0
420,248,197128,1,0
328,168,197363,2,0,B|300:116|204:116|176:168,2,180.000004291535,8|0|0
256,264,198300,2,0,B|208:148|304:148|256:32,1,240.000005722046,8|0
136,32,199003,6,0,B|76:32|76:32|56:68|24:68,2,120.000002861023,0|8|0
256,32,199707,2,0,B|256:272,2,240.000005722046,4|8|0
376,32,200878,2,0,B|436:32|436:32|456:68|488:68,2,120.000002861023,0|8|0
256,32,201582,2,0,B|256:272,2,240.000005722046,4|8|0
152,92,202753,5,0
152,92,202988,1,8
152,92,203222,1,0
152,92,203457,2,0,B|152:216|152:216|152:320|224:352|288:352|360:320|360:216|360:216|360:92,1,600.000014305115,4|0
256,32,204863,1,0
256,152,205097,1,0
292,268,205332,2,0,B|316:292|316:328|304:364|256:376|208:364|196:328|196:292|220:268,1,240.000005722046,0|2
104,192,207207,5,2
408,192,207675,1,2
256,40,208144,5,4
104,192,208378,1,0
256,344,208613,1,4
408,192,208847,1,0
256,192,209082,12,4,214707
256,192,214765,12,4,216582
256,192,216640,12,0,219863
256,352,220332,5,2
256,352,220449,1,2
256,128,220800,5,0
256,280,221035,1,2
256,280,221152,1,2
160,80,221503,6,2,B|196:0|316:0|352:80,2,240.000005722046,2|2|2
160,80,222675,1,2
196,192,222910,6,0,B|141:209|100:180,2,100
316,192,223613,2,0,B|370:209|411:180,1,100
352,80,224082,5,2
160,80,224569,1,0
256,248,225057,5,2
328,372,225423,1,2
184,372,225789,1,2
256,248,227008,5,2
256,192,227984,1,2
256,192,228960,12,0,233838
